osu file format v12

[General]
AudioFilename: Dear You.mp3
AudioLeadIn: 1996
PreviewTime: 88258
Countdown: 0
SampleSet: Normal
StackLeniency: 0.6
Mode: 0
LetterboxInBreaks: 0
EpilepsyWarning: 1

[Editor]
Bookmarks: 38,11065,22093,33120,44148,55175,66203,77230,88258,99285,110313
DistanceSpacing: 0.8
BeatDivisor: 4
GridSize: 4

[Metadata]
Title:Dear You
TitleUnicode:Dear You
Artist:DJ Genericname
ArtistUnicode:DJ Genericname
Creator:Nemis
Version:Dear Nemis
Source:Higurashi no Naku Koro Ni
Tags:xXCrystalMoonAnimeXx Amamiya Yuko Kiyro Yuduki Remix DnB Drum And Bass 07th Expansion Generic Name
BeatmapID:211697
BeatmapSetID:74586

[Difficulty]
HPDrainRate:7
CircleSize:4
OverallDifficulty:8
ApproachRate:9
SliderMultiplier:1.6
SliderTickRate:1

[Events]
//Background and Video events
0,0,"Dear You.png",0,0
//Break Periods
//Storyboard Layer 0 (Background)
//Storyboard Layer 1 (Fail)
//Storyboard Layer 2 (Pass)
//Storyboard Layer 3 (Foreground)
//Storyboard Sound Samples
//Background Colour Transformations
3,100,0,0,0

[TimingPoints]
38,344.609729481362,4,1,1,30,1,0
124,-100,4,2,1,50,0,0
5551,-100,4,2,2,50,0,0
5637,-100,4,2,1,50,0,0
11065,-100,4,2,1,35,0,0
11151,-100,4,2,1,60,0,0
16579,-100,4,2,1,35,0,0
16665,-100,4,2,1,60,0,0
22093,-100,4,2,1,35,0,0
22179,-100,4,2,1,60,0,0
27606,-100,4,2,1,35,0,0
27692,-100,4,2,1,60,0,0
33120,-100,4,2,1,35,0,0
33206,-100,4,2,1,70,0,0
38634,-100,4,2,1,35,0,0
38720,-100,4,2,1,70,0,0
44148,-100,4,2,1,35,0,0
44234,-100,4,2,1,70,0,0
49661,-100,4,2,1,35,0,0
49747,-100,4,2,1,70,0,0
53797,-100,4,1,1,55,0,0
55175,-100,4,1,1,35,0,0
55261,-100,4,2,1,60,0,0
60689,-100,4,2,1,35,0,0
60775,-100,4,2,1,60,0,0
66203,-100,4,1,1,30,0,0
66289,-100,4,2,1,50,0,0
71716,-100,4,2,2,50,0,0
71802,-100,4,2,1,50,0,0
77230,-100,4,2,1,35,0,0
77316,-100,4,2,1,60,0,0
82744,-100,4,2,1,35,0,0
82830,-100,4,2,1,60,0,0
86879,-100,4,1,1,55,0,0
88258,-100,4,1,1,35,0,1
88344,-100,4,2,1,70,0,1
93771,-100,4,2,1,35,0,1
93857,-100,4,2,1,70,0,1
99242,-100,4,2,1,70,0,0
99285,-100,4,2,1,35,0,1
99371,-100,4,2,1,70,0,1
104799,-100,4,2,1,35,0,1
104885,-100,4,2,1,70,0,1
110313,-100,4,1,1,35,0,0
110399,-100,4,1,1,10,0,0
114448,-100,4,1,1,5,0,0

[Colours]
Combo1 : 240,248,177
Combo2 : 223,197,250

[HitObjects]
96,64,38,2,0,P|148:68|175:70,1,80,4|0,0:0|0:0,0:0:0:0:
367,150,382,2,0,P|340:148|288:144,1,80,2|0,0:0|0:0,0:0:0:0:
204,224,727,1,0,0:0:0:0:
216,328,900,1,0,0:0:0:0:
332,368,1071,1,2,0:0:0:0:
320,264,1244,1,0,0:0:0:0:
116,300,1416,6,0,P|108:248|104:220,1,80
8,96,1761,2,0,P|68:88|112:84,1,80,2|0,0:0|0:0,0:0:0:0:
264,164,2105,1,0,0:0:0:0:
156,144,2277,1,0,0:0:0:0:
236,48,2450,1,2,0:0:0:0:
352,80,2622,1,0,0:0:0:0:
448,176,2794,6,0,P|444:220|440:272,1,80
332,352,3139,2,0,L|324:288|320:256,1,80,2|0,0:0|0:0,0:0:0:0:
264,164,3484,1,0,0:0:0:0:
156,144,3656,1,0,0:0:0:0:
68,300,3828,1,2,0:0:0:0:
184,288,4001,1,0,0:0:0:0:
356,332,4173,6,0,P|360:288|364:232,1,80
156,52,4517,2,0,P|152:96|148:152,1,80,2|0,0:0|0:0,0:0:0:0:
396,92,4862,2,0,P|352:88|296:84,1,80
116,292,5206,2,0,P|160:296|216:300,1,80,2|0,0:0|0:0,0:0:0:0:
352,188,5551,5,4,0:0:0:0:
256,220,5724,1,0,0:0:0:0:
292,312,5896,1,2,0:0:0:0:
384,280,6068,1,0,0:0:0:0:
244,248,6240,2,0,L|252:288|264:348,1,80
400,248,6585,2,0,P|404:204|408:164,1,80,2|0,0:0|0:0,0:0:0:0:
344,72,6930,5,0,0:0:0:0:
240,112,7102,1,0,0:0:0:0:
40,176,7274,1,2,0:0:0:0:
168,188,7447,1,0,0:0:0:0:
280,292,7619,2,0,P|272:244|264:200,1,80
124,40,7964,2,0,P|116:88|108:132,1,80,2|0,0:0|0:0,0:0:0:0:
64,272,8308,5,0,0:0:0:0:
96,364,8480,1,0,0:0:0:0:
188,332,8653,1,2,0:0:0:0:
160,244,8825,1,0,0:0:0:0:
72,372,8997,2,0,P|104:376|160:380,1,80
204,220,9342,2,0,P|160:224|104:228,1,80,2|0,0:0|0:0,0:0:0:0:
156,120,9687,5,0,0:0:0:0:
264,60,9859,1,0,0:0:0:0:
328,172,10031,1,2,0:0:0:0:
220,232,10203,1,0,0:0:0:0:
372,84,10376,2,0,P|376:108|388:192,1,80
472,284,10720,2,0,P|408:292|328:300,1,120,2|0,0:0|0:0,0:0:0:0:
352,297,11065,6,0,P|296:312|252:312,1,80,4|0,0:0|0:0,0:0:0:0:
168,296,11410,1,8,0:0:0:0:
128,196,11582,1,0,0:0:0:0:
240,132,11754,2,0,P|236:196|232:248,1,80
234,211,12013,1,0,0:0:0:0:
234,211,12099,1,8,0:0:0:0:
60,284,12271,1,0,0:0:0:0:
184,364,12443,6,0,P|188:296|192:252,1,80
140,108,12788,2,0,P|72:104|28:100,1,80,8|0,0:0|0:0,0:0:0:0:
228,172,13133,1,0,0:0:0:0:
324,96,13305,1,0,0:0:0:0:
344,244,13477,1,8,0:0:0:0:
452,156,13650,1,0,0:0:0:0:
452,156,13736,1,0,0:0:0:0:
452,156,13822,6,0,P|448:212|444:248,1,80
280,352,14166,2,0,P|276:292|276:260,1,80,8|0,0:0|0:0,0:0:0:0:
300,116,14511,1,0,0:0:0:0:
196,80,14683,1,0,0:0:0:0:
156,184,14856,1,8,0:0:0:0:
264,224,15028,1,0,0:0:0:0:
92,172,15200,6,0,P|96:220|104:284,1,80
320,220,15545,2,0,P|324:168|328:120,1,80,8|0,0:0|0:0,0:0:0:0:
148,32,15890,2,0,P|144:72|140:124,1,80
192,232,16234,1,8,0:0:0:0:
196,256,16320,1,0,0:0:0:0:
200,280,16406,1,0,0:0:0:0:
204,304,16493,1,0,0:0:0:0:
208,328,16579,6,0,P|244:332|324:336,1,80,4|0,0:0|0:0,0:0:0:0:
424,352,16923,2,0,P|428:300|432:252,1,80,8|0,0:0|0:0,0:0:0:0:
456,120,17268,1,0,0:0:0:0:
328,192,17440,1,0,0:0:0:0:
328,192,17526,1,0,0:0:0:0:
328,192,17613,2,0,P|276:196|232:200,1,80,8|0,0:0|0:0,0:0:0:0:
96,312,17957,6,0,P|148:308|192:304,1,80,0|0,0:0|0:0,0:0:0:0:
48,188,18302,1,8,0:0:0:0:
84,88,18474,1,0,0:0:0:0:
188,40,18646,2,0,P|240:36|276:36,1,80
360,104,18991,1,8,0:0:0:0:
256,204,19163,1,0,0:0:0:0:
256,204,19249,1,0,0:0:0:0:
256,204,19336,6,0,P|260:256|264:304,1,80
376,352,19680,1,8,0:0:0:0:
480,264,19853,1,0,0:0:0:0:
436,140,20025,2,0,P|396:136|336:132,1,80
248,124,20369,1,8,0:0:0:0:
152,184,20542,1,0,0:0:0:0:
112,344,20714,6,0,P|104:300|96:248,1,80
220,112,21059,2,0,P|224:156|228:208,1,80,8|0,0:0|0:0,0:0:0:0:
276,312,21403,1,0,0:0:0:0:
392,336,21576,1,0,0:0:0:0:
480,240,21748,1,8,0:0:0:0:
476,216,21834,1,0,0:0:0:0:
472,192,21920,1,0,0:0:0:0:
468,168,22006,1,0,0:0:0:0:
464,144,22093,6,0,L|424:136|384:128,1,80,4|0,0:0|0:0,0:0:0:0:
248,48,22437,2,0,P|244:100|240:148,1,80,8|0,0:0|0:0,0:0:0:0:
224,264,22782,1,0,0:0:0:0:
104,144,22954,1,0,0:0:0:0:
104,144,23040,1,0,0:0:0:0:
104,144,23126,2,0,P|108:188|112:228,1,80,8|0,0:0|0:0,0:0:0:0:
192,348,23471,6,0,P|252:352|304:336,1,80,0|0,0:0|0:0,0:0:0:0:
296,188,23816,1,8,0:0:0:0:
408,256,23988,1,0,0:0:0:0:
296,188,24160,2,0,P|292:232|292:292,1,80
472,312,24505,2,0,P|476:264|476:224,1,80,8|0,0:0|0:0,0:0:0:0:
476,208,24763,1,0,0:0:0:0:
472,184,24849,6,0,P|428:172|392:164,1,80
200,144,25194,1,8,0:0:0:0:
156,236,25366,1,0,0:0:0:0:
256,284,25539,1,0,0:0:0:0:
296,188,25711,1,0,0:0:0:0:
124,204,25883,2,0,L|128:248|132:292,1,80,8|0,0:0|0:0,0:0:0:0:
332,232,26228,6,0,P|336:168|336:116,1,80
252,60,26572,1,8,0:0:0:0:
128,72,26745,1,0,0:0:0:0:
52,248,26917,2,0,P|60:288|68:336,1,80
220,360,27262,1,8,0:0:0:0:
244,356,27348,1,0,0:0:0:0:
268,352,27434,1,0,0:0:0:0:
292,348,27520,1,0,0:0:0:0:
316,344,27606,6,0,P|364:336|396:328,1,80,4|0,0:0|0:0,0:0:0:0:
468,240,27951,1,8,0:0:0:0:
332,212,28123,1,0,0:0:0:0:
152,176,28295,2,0,P|156:228|160:260,1,80
159,255,28554,1,0,0:0:0:0:
159,255,28640,1,8,0:0:0:0:
260,304,28812,1,0,0:0:0:0:
356,232,28985,6,0,P|360:180|360:144,1,80
260,64,29329,2,0,P|200:60|152:60,1,80,8|0,0:0|0:0,0:0:0:0:
64,136,29674,1,0,0:0:0:0:
52,244,29846,1,0,0:0:0:0:
184,316,30019,1,8,0:0:0:0:
192,200,30191,1,0,0:0:0:0:
192,200,30277,1,0,0:0:0:0:
192,200,30363,6,0,P|252:192|276:188,1,80
432,304,30708,2,0,P|368:296|320:288,1,80,8|0,0:0|0:0,0:0:0:0:
328,112,31052,1,0,0:0:0:0:
428,80,31225,1,0,0:0:0:0:
460,184,31397,1,8,0:0:0:0:
364,212,31569,1,0,0:0:0:0:
488,144,31742,6,0,P|484:208|480:248,1,80
296,344,32086,2,0,P|284:288|276:248,1,80,8|0,0:0|0:0,0:0:0:0:
220,124,32431,1,0,0:0:0:0:
364,212,32603,1,0,0:0:0:0:
140,264,32775,1,8,0:0:0:0:
132,240,32862,1,0,0:0:0:0:
124,220,32948,1,0,0:0:0:0:
116,200,33034,1,0,0:0:0:0:
108,180,33120,6,0,P|100:132|100:80,1,80,4|0,0:0|0:0,0:0:0:0:
208,44,33465,1,8,0:0:0:0:
200,168,33637,1,0,0:0:0:0:
340,80,33809,1,0,0:0:0:0:
316,240,33982,1,0,0:0:0:0:
316,240,34068,1,0,0:0:0:0:
316,240,34154,2,0,P|376:236|412:232,1,80,8|0,0:0|0:0,0:0:0:0:
504,92,34498,6,0,P|500:140|496:180,1,80
460,324,34843,2,0,P|424:317|360:321,1,80,8|0,0:0|0:0,0:0:0:0:
256,284,35188,1,0,0:0:0:0:
136,332,35360,1,0,0:0:0:0:
76,216,35532,1,8,0:0:0:0:
176,116,35705,1,0,0:0:0:0:
176,116,35791,1,0,0:0:0:0:
176,116,35877,6,0,P|172:172|168:224,1,80
296,324,36222,2,0,P|292:276|288:224,1,80,8|0,0:0|0:0,0:0:0:0:
300,124,36566,1,0,0:0:0:0:
336,20,36738,1,0,0:0:0:0:
444,60,36911,1,8,0:0:0:0:
404,160,37083,1,0,0:0:0:0:
260,188,37255,6,0,P|264:140|272:84,1,80
480,24,37600,2,0,P|484:72|488:128,1,80,8|0,0:0|0:0,0:0:0:0:
440,232,37945,1,0,0:0:0:0:
368,92,38117,1,0,0:0:0:0:
328,340,38289,1,8,0:0:0:0:
304,336,38375,1,0,0:0:0:0:
280,332,38461,1,0,0:0:0:0:
256,328,38548,1,0,0:0:0:0:
232,324,38634,6,0,P|188:320|140:316,1,80,4|0,0:0|0:0,0:0:0:0:
64,220,38978,1,8,0:0:0:0:
92,100,39151,1,0,0:0:0:0:
256,92,39323,2,0,P|260:148|264:192,1,80
262,171,39581,1,0,0:0:0:0:
262,171,39668,1,8,0:0:0:0:
352,264,39840,1,0,0:0:0:0:
480,248,40012,6,0,P|472:188|464:144,1,80
376,80,40357,2,0,P|304:68|268:68,1,80,8|0,0:0|0:0,0:0:0:0:
124,124,40701,1,0,0:0:0:0:
92,248,40874,1,0,0:0:0:0:
124,124,41046,1,8,0:0:0:0:
212,216,41218,1,0,0:0:0:0:
212,216,41305,1,0,0:0:0:0:
212,216,41391,6,0,P|264:208|304:200,1,80
396,272,41735,1,8,0:0:0:0:
380,372,41908,1,0,0:0:0:0:
276,356,42080,1,0,0:0:0:0:
288,256,42252,1,0,0:0:0:0:
424,304,42424,2,0,P|428:344|432:392,1,80,8|0,0:0|0:0,0:0:0:0:
176,340,42769,6,0,P|168:288|160:240,1,80
60,124,43114,2,0,P|112:120|152:116,1,80,8|0,0:0|0:0,0:0:0:0:
300,220,43458,1,0,0:0:0:0:
412,180,43631,1,0,0:0:0:0:
240,72,43803,1,8,0:0:0:0:
236,96,43889,1,0,0:0:0:0:
232,120,43975,1,0,0:0:0:0:
228,144,44061,1,0,0:0:0:0:
224,168,44148,6,0,P|220:212|212:284,1,80,4|0,0:0|0:0,0:0:0:0:
80,336,44492,1,8,0:0:0:0:
32,244,44664,1,0,0:0:0:0:
124,204,44837,1,0,0:0:0:0:
168,296,45009,1,0,0:0:0:0:
168,296,45095,1,0,0:0:0:0:
168,296,45181,2,0,P|216:304|252:308,1,80,8|0,0:0|0:0,0:0:0:0:
360,364,45526,5,0,0:0:0:0:
408,252,45698,1,0,0:0:0:0:
280,136,45871,2,0,P|280:180|288:228,1,80,8|0,0:0|0:0,0:0:0:0:
360,364,46215,1,0,0:0:0:0:
464,308,46388,1,0,0:0:0:0:
472,180,46560,2,0,P|460:140|448:96,1,80,8|0,0:0|0:0,0:0:0:0:
449,103,46818,1,0,0:0:0:0:
449,103,46904,5,0,0:0:0:0:
344,28,47077,1,0,0:0:0:0:
208,104,47249,2,0,P|168:108|104:112,1,80,8|0,0:0|0:0,0:0:0:0:
64,228,47594,1,0,0:0:0:0:
92,328,47766,1,0,0:0:0:0:
192,300,47938,1,8,0:0:0:0:
168,204,48111,1,0,0:0:0:0:
56,368,48283,6,0,P|112:364|144:360,1,80
228,180,48627,2,0,P|188:172|144:164,1,80,8|0,0:0|0:0,0:0:0:0:
128,264,48972,1,0,0:0:0:0:
256,344,49144,1,0,0:0:0:0:
400,304,49317,1,8,0:0:0:0:
404,280,49403,1,0,0:0:0:0:
408,256,49489,1,0,0:0:0:0:
412,232,49575,1,0,0:0:0:0:
416,208,49661,6,0,P|420:144|424:96,1,80,4|0,0:0|0:0,0:0:0:0:
196,144,50006,2,0,P|200:188|204:240,1,80,8|0,0:0|0:0,0:0:0:0:
216,328,50351,1,0,0:0:0:0:
324,156,50523,1,0,0:0:0:0:
324,156,50609,1,0,0:0:0:0:
324,156,50695,2,0,P|320:120|312:60,1,80,8|0,0:0|0:0,0:0:0:0:
172,60,51040,6,0,P|120:56|80:52,1,80
28,148,51384,1,8,0:0:0:0:
48,268,51557,1,0,0:0:0:0:
172,204,51729,2,0,P|168:244|164:288,1,80
276,352,52074,2,0,L|364:348,1,80,8|0,0:0|0:0,0:0:0:0:
355,348,52332,1,0,0:0:0:0:
355,348,52418,5,0,0:0:0:0:
456,280,52590,1,0,0:0:0:0:
380,80,52763,1,8,0:0:0:0:
392,192,52935,1,0,0:0:0:0:
232,268,53107,1,0,0:0:0:0:
240,144,53279,1,0,0:0:0:0:
56,32,53452,1,8,0:0:0:0:
72,180,53624,1,0,0:0:0:0:
52,340,53797,5,0,0:0:0:0:
76,336,53883,1,0,0:0:0:0:
100,336,53969,1,0,0:0:0:0:
124,332,54055,1,0,0:0:0:0:
148,332,54141,1,8,0:0:0:0:
172,328,54228,1,0,0:0:0:0:
196,328,54314,1,0,0:0:0:0:
220,324,54400,1,0,0:0:0:0:
244,324,54486,5,0,0:0:0:0:
272,324,54572,1,0,0:0:0:0:
296,324,54658,1,0,0:0:0:0:
320,320,54744,1,0,0:0:0:0:
344,320,54830,1,8,0:0:0:0:
368,316,54917,1,0,0:0:0:0:
392,316,55003,1,0,0:0:0:0:
416,312,55089,1,0,0:0:0:0:
440,332,55175,6,0,P|444:288|448:236,1,80,4|0,0:0|0:0,0:0:0:0:
292,96,55520,2,0,P|296:148|304:208,1,80,8|0,0:0|0:0,0:0:0:0:
440,164,55864,1,0,0:0:0:0:
468,60,56037,1,0,0:0:0:0:
360,32,56209,1,8,0:0:0:0:
336,136,56381,1,0,0:0:0:0:
192,36,56553,6,0,P|144:40|92:44,1,80
32,164,56898,2,0,L|40:208|48:252,1,80,8|0,0:0|0:0,0:0:0:0:
124,336,57243,1,0,0:0:0:0:
240,328,57415,1,0,0:0:0:0:
280,200,57587,1,8,0:0:0:0:
164,212,57760,1,0,0:0:0:0:
428,332,57932,6,0,P|420:280|412:236,1,80
248,56,58277,2,0,P|244:100|240:152,1,80,8|0,0:0|0:0,0:0:0:0:
334,317,58621,1,0,0:0:0:0:
316,208,58793,1,0,0:0:0:0:
200,231,58966,1,8,0:0:0:0:
221,344,59138,1,0,0:0:0:0:
340,344,59310,6,0,P|344:300|348:248,1,80
172,40,59655,2,0,P|168:84|163:136,1,80,8|0,0:0|0:0,0:0:0:0:
408,108,60000,2,0,P|364:104|312:100,1,80
104,276,60345,2,0,P|148:280|200:284,1,80,8|0,0:0|0:0,0:0:0:0:
408,256,60689,5,4,0:0:0:0:
436,152,60861,1,0,0:0:0:0:
328,124,61033,1,8,0:0:0:0:
304,228,61206,1,0,0:0:0:0:
464,192,61378,2,0,P|468:168|476:108,1,80
268,176,61723,2,0,P|272:220|276:276,1,80,8|0,0:0|0:0,0:0:0:0:
368,188,62067,5,0,0:0:0:0:
396,84,62240,1,0,0:0:0:0:
156,92,62412,1,8,0:0:0:0:
180,220,62584,1,0,0:0:0:0:
48,268,62756,2,0,P|52:200|56:160,1,80
204,296,63101,2,0,P|212:340|220:380,1,80,8|0,0:0|0:0,0:0:0:0:
388,336,63446,5,0,0:0:0:0:
404,232,63618,1,0,0:0:0:0:
296,216,63790,1,8,0:0:0:0:
284,320,63963,1,0,0:0:0:0:
424,192,64135,2,0,L|384:196|344:200,1,80
244,344,64480,2,0,P|312:352|344:356,1,80,8|0,0:0|0:0,0:0:0:0:
304,136,64824,5,0,0:0:0:0:
200,144,64996,1,0,0:0:0:0:
208,248,65169,1,8,0:0:0:0:
312,240,65341,1,0,0:0:0:0:
301,68,65513,5,0,0:0:0:0:
132,145,65685,1,0,0:0:0:0:
209,314,65858,1,8,0:0:0:0:
378,237,66030,1,0,0:0:0:0:
256,192,66203,6,0,P|260:232|268:288,1,80,4|0,0:0|0:0,0:0:0:0:
344,352,66547,2,0,P|380:348|423:342,1,80,2|0,0:0|0:0,0:0:0:0:
480,260,66892,1,0,0:0:0:0:
468,156,67064,1,0,0:0:0:0:
364,168,67236,1,2,0:0:0:0:
380,272,67409,1,0,0:0:0:0:
496,168,67581,6,0,P|492:120|488:84,1,80
384,48,67926,2,0,P|348:44|304:40,1,80,2|0,0:0|0:0,0:0:0:0:
192,56,68270,1,0,0:0:0:0:
160,160,68443,1,0,0:0:0:0:
280,232,68615,1,2,0:0:0:0:
268,132,68787,1,0,0:0:0:0:
56,188,68959,6,0,P|60:232|64:272,1,80
144,352,69304,2,0,P|196:348|228:344,1,80,2|0,0:0|0:0,0:0:0:0:
324,288,69649,1,0,0:0:0:0:
336,192,69821,1,0,0:0:0:0:
236,176,69993,1,2,0:0:0:0:
224,276,70166,1,0,0:0:0:0:
352,300,70338,6,0,P|348:260|340:212,1,80
160,84,70682,2,0,P|164:124|172:172,1,80,2|0,0:0|0:0,0:0:0:0:
364,96,71027,2,0,P|324:100|275:108,1,80
148,288,71372,2,0,P|187:284|236:275,1,80,2|0,0:0|0:0,0:0:0:0:
368,256,71716,5,4,0:0:0:0:
392,164,71889,1,0,0:0:0:0:
300,140,72061,1,2,0:0:0:0:
276,228,72233,1,0,0:0:0:0:
424,192,72406,2,0,P|432:144|436:108,1,80
252,104,72750,2,0,P|256:152|260:196,1,80,2|0,0:0|0:0,0:0:0:0:
220,320,73095,5,0,0:0:0:0:
96,312,73267,1,0,0:0:0:0:
24,224,73439,1,2,0:0:0:0:
132,212,73612,1,0,0:0:0:0:
64,112,73784,2,0,P|68:160|72:200,1,80
220,320,74129,2,0,P|224:280|228:212,1,80,2|0,0:0|0:0,0:0:0:0:
212,60,74473,5,0,0:0:0:0:
128,100,74646,1,0,0:0:0:0:
172,180,74818,1,2,0:0:0:0:
252,136,74990,1,0,0:0:0:0:
104,80,75162,2,0,L|108:128|112:176,1,80
280,216,75507,2,0,P|288:168|296:116,1,80,2|0,0:0|0:0,0:0:0:0:
356,48,75852,5,0,0:0:0:0:
368,144,76024,1,0,0:0:0:0:
380,240,76196,1,2,0:0:0:0:
392,336,76369,1,0,0:0:0:0:
156,336,76541,5,0,0:0:0:0:
144,239,76713,1,0,0:0:0:0:
132,144,76885,1,2,0:0:0:0:
120,48,77058,1,0,0:0:0:0:
224,184,77230,6,0,P|272:180|328:172,1,80,4|0,0:0|0:0,0:0:0:0:
416,120,77575,1,8,0:0:0:0:
472,224,77747,1,0,0:0:0:0:
392,336,77919,2,0,P|336:340|288:344,1,80
312,341,78178,1,0,0:0:0:0:
312,341,78264,1,8,0:0:0:0:
224,264,78436,1,0,0:0:0:0:
100,348,78609,6,0,P|92:308|84:256,1,80
252,204,78953,2,0,P|248:244|240:300,1,80,8|0,0:0|0:0,0:0:0:0:
56,144,79298,2,0,P|120:116|216:108,1,160,0|8,0:0|0:0,0:0:0:0:
336,96,79815,1,0,0:0:0:0:
336,96,79901,1,0,0:0:0:0:
336,96,79987,6,0,P|328:160|324:200,1,80
372,328,80332,1,8,0:0:0:0:
452,280,80504,1,0,0:0:0:0:
404,204,80676,1,0,0:0:0:0:
324,248,80848,1,0,0:0:0:0:
472,312,81021,2,0,P|480:272|484:232,1,80,8|0,0:0|0:0,0:0:0:0:
280,216,81365,6,0,P|288:280|296:320,1,80
388,264,81710,1,8,0:0:0:0:
428,136,81882,1,0,0:0:0:0:
320,56,82055,2,0,P|268:60|232:64,1,80
104,120,82399,1,8,0:0:0:0:
100,144,82485,1,0,0:0:0:0:
96,168,82572,1,0,0:0:0:0:
92,192,82658,1,0,0:0:0:0:
88,216,82744,6,0,P|80:272|76:320,1,80,4|0,0:0|0:0,0:0:0:0:
220,360,83088,2,0,P|212:300|204:248,1,80,8|0,0:0|0:0,0:0:0:0:
208,152,83433,1,0,0:0:0:0:
332,208,83605,1,0,0:0:0:0:
332,208,83692,1,0,0:0:0:0:
332,208,83778,2,0,P|328:256|324:296,1,80,8|0,0:0|0:0,0:0:0:0:
456,348,84122,6,0,P|448:256|440:176,1,160,0|8,0:0|0:0,0:0:0:0:
368,88,84639,1,0,0:0:0:0:
232,124,84811,2,0,P|240:176|248:224,1,80
384,164,85156,2,0,P|388:116|392:76,1,80,8|0,0:0|0:0,0:0:0:0:
391,84,85415,1,0,0:0:0:0:
391,84,85501,5,0,0:0:0:0:
292,32,85673,1,0,0:0:0:0:
96,56,85845,1,8,0:0:0:0:
104,164,86018,1,0,0:0:0:0:
264,308,86190,1,0,0:0:0:0:
280,184,86362,1,0,0:0:0:0:
445,68,86535,1,8,0:0:0:0:
472,216,86707,1,0,0:0:0:0:
445,68,86879,5,0,0:0:0:0:
421,73,86965,1,0,0:0:0:0:
397,73,87051,1,0,0:0:0:0:
374,77,87137,1,0,0:0:0:0:
350,78,87223,1,8,0:0:0:0:
326,82,87310,1,0,0:0:0:0:
302,83,87396,1,0,0:0:0:0:
278,87,87482,1,0,0:0:0:0:
254,88,87568,5,0,0:0:0:0:
226,88,87654,1,0,0:0:0:0:
202,88,87740,1,0,0:0:0:0:
178,93,87826,1,0,0:0:0:0:
154,93,87912,1,8,0:0:0:0:
130,98,87999,1,0,0:0:0:0:
106,98,88085,1,0,0:0:0:0:
82,103,88171,1,0,0:0:0:0:
60,84,88257,6,0,P|56:128|53:180,1,80,4|0,0:0|0:0,0:0:0:0:
32,308,88602,2,0,P|80:304|116:300,1,80,8|0,0:0|0:0,0:0:0:0:
224,348,88947,1,0,0:0:0:0:
220,172,89119,1,0,0:0:0:0:
220,172,89205,1,0,0:0:0:0:
220,172,89291,2,0,P|212:232|208:260,1,80,8|0,0:0|0:0,0:0:0:0:
328,352,89636,6,0,P|400:356|480:320,1,160,0|8,0:0|0:0,0:0:0:0:
452,192,90153,1,0,0:0:0:0:
292,168,90325,2,0,P|296:208|304:256,1,80
412,268,90670,1,8,0:0:0:0:
432,96,90842,1,0,0:0:0:0:
432,96,90928,1,0,0:0:0:0:
432,96,91014,6,0,P|384:92|344:88,1,80
200,56,91359,2,0,P|204:104|208:144,1,80,8|0,0:0|0:0,0:0:0:0:
232,280,91704,1,0,0:0:0:0:
336,312,91876,1,0,0:0:0:0:
364,212,92048,1,8,0:0:0:0:
264,180,92221,1,0,0:0:0:0:
376,352,92393,6,0,P|384:312|392:268,1,80
224,164,92738,2,0,P|228:208|232:248,1,80,8|0,0:0|0:0,0:0:0:0:
240,352,93082,1,0,0:0:0:0:
104,312,93254,1,0,0:0:0:0:
36,184,93427,1,8,0:0:0:0:
44,160,93513,1,0,0:0:0:0:
52,136,93599,1,0,0:0:0:0:
60,112,93685,1,0,0:0:0:0:
68,88,93771,6,0,P|120:80|156:76,1,80,4|0,0:0|0:0,0:0:0:0:
264,112,94116,1,8,0:0:0:0:
252,216,94288,1,0,0:0:0:0:
380,188,94461,2,0,P|384:220|392:280,1,80
390,267,94719,1,0,0:0:0:0:
390,267,94805,1,8,0:0:0:0:
416,368,94977,1,0,0:0:0:0:
256,344,95150,6,0,P|204:348|164:352,1,80
56,356,95494,1,8,0:0:0:0:
148,248,95667,1,0,0:0:0:0:
4,248,95839,2,0,P|12:212|28:148,1,80
104,72,96184,1,8,0:0:0:0:
224,96,96356,1,0,0:0:0:0:
224,96,96442,1,0,0:0:0:0:
224,96,96528,6,0,P|220:152|216:196,1,80
212,324,96873,2,0,P|260:316|300:308,1,80,8|0,0:0|0:0,0:0:0:0:
428,156,97217,1,0,0:0:0:0:
328,132,97390,1,0,0:0:0:0:
308,232,97562,1,8,0:0:0:0:
408,252,97734,1,0,0:0:0:0:
292,96,97907,6,0,P|296:144|300:176,1,80
476,296,98251,2,0,L|476:232|476:196,1,80,8|0,0:0|0:0,0:0:0:0:
364,192,98596,1,0,0:0:0:0:
320,332,98768,1,0,0:0:0:0:
192,336,98940,1,8,0:0:0:0:
168,332,99027,1,0,0:0:0:0:
144,328,99113,1,0,0:0:0:0:
120,324,99199,1,0,0:0:0:0:
96,320,99285,6,0,L|88:272|80:224,1,80,4|0,0:0|0:0,0:0:0:0:
48,128,99630,1,8,0:0:0:0:
172,176,99802,1,0,0:0:0:0:
260,64,99974,1,0,0:0:0:0:
276,208,100147,1,0,0:0:0:0:
276,208,100233,1,0,0:0:0:0:
276,208,100319,2,0,P|280:260|284:296,1,80,8|0,0:0|0:0,0:0:0:0:
416,352,100664,6,0,P|420:288|428:188,1,160,0|8,0:0|0:0,0:0:0:0:
432,72,101180,1,0,0:0:0:0:
292,100,101353,2,0,P|296:144|300:204,1,80
228,312,101697,2,0,P|180:308|144:304,1,80,8|0,0:0|0:0,0:0:0:0:
148,304,101956,1,0,0:0:0:0:
148,304,102042,5,0,0:0:0:0:
64,200,102214,1,0,0:0:0:0:
148,64,102387,2,0,P|152:104|160:164,1,80,8|0,0:0|0:0,0:0:0:0:
252,224,102731,1,0,0:0:0:0:
348,200,102904,1,0,0:0:0:0:
392,96,103076,1,8,0:0:0:0:
288,72,103248,1,0,0:0:0:0:
244,200,103420,6,0,P|241:231|237:279,1,80
448,324,103765,2,0,P|440:256|436:216,1,80,8|0,0:0|0:0,0:0:0:0:
392,96,104110,1,0,0:0:0:0:
280,148,104282,1,0,0:0:0:0:
144,48,104454,1,8,0:0:0:0:
140,72,104540,1,0,0:0:0:0:
136,96,104627,1,0,0:0:0:0:
132,120,104713,1,0,0:0:0:0:
128,144,104799,6,0,P|124:200|120:244,1,80,4|0,0:0|0:0,0:0:0:0:
176,340,105143,2,0,L|240:332|272:328,1,80,8|0,0:0|0:0,0:0:0:0:
376,356,105488,1,0,0:0:0:0:
360,176,105660,1,0,0:0:0:0:
360,176,105747,1,0,0:0:0:0:
360,176,105833,2,0,P|356:224|352:264,1,80,8|0,0:0|0:0,0:0:0:0:
236,248,106177,6,0,P|160:256|64:232,1,160,0|8,0:0|0:0,0:0:0:0:
48,128,106694,1,0,0:0:0:0:
148,64,106867,2,0,P|196:56|236:52,1,80
336,100,107211,1,8,0:0:0:0:
400,216,107383,1,0,0:0:0:0:
400,216,107470,1,0,0:0:0:0:
400,216,107556,6,0,L|396:264|392:312,1,80,0|0,0:0|0:0,0:0:0:0:
284,344,107900,2,0,P|244:340|200:332,1,80,8|0,0:0|0:0,0:0:0:0:
76,188,108245,1,0,0:0:0:0:
188,156,108417,1,0,0:0:0:0:
224,264,108590,1,8,0:0:0:0:
116,296,108762,1,0,0:0:0:0:
216,120,108934,6,0,P|220:160|224:204,1,80
64,332,109279,2,0,P|68:264|72:224,1,80,8|0,0:0|0:0,0:0:0:0:
100,108,109623,1,0,0:0:0:0:
252,32,109796,1,0,0:0:0:0:
388,120,109968,1,8,0:0:0:0:
392,152,110054,1,0,0:0:0:0:
396,184,110140,1,0,0:0:0:0:
400,216,110226,1,0,0:0:0:0:
404,248,110313,5,4,0:0:0:0:
256,192,110399,12,0,114448,0:0:0:0:
