osu file format v12

[General]
AudioFilename: Dear You.mp3
AudioLeadIn: 1996
PreviewTime: 88258
Countdown: 0
SampleSet: Soft
StackLeniency: 0.6
Mode: 0
LetterboxInBreaks: 0
EpilepsyWarning: 1

[Editor]
Bookmarks: 38,11065,22093,33120,44148,55175,66203,77230,88258,88775,99285,110313
DistanceSpacing: 0.9
BeatDivisor: 2
GridSize: 4

[Metadata]
Title:Dear You
TitleUnicode:Dear You
Artist:DJ Genericname
ArtistUnicode:DJ Genericname
Creator:Nemis
Version:Dear Kiyro
Source:Higurashi no Naku Koro Ni
Tags:xXCrystalMoonAnimeXx Amamiya Yuko Kiyro Yuduki Remix DnB Drum And Bass 07th Expansion Generic Name
BeatmapID:214246
BeatmapSetID:74586

[Difficulty]
HPDrainRate:4
CircleSize:3
OverallDifficulty:4
ApproachRate:5
SliderMultiplier:1
SliderTickRate:1

[Events]
//Background and Video events
0,0,"Dear You.png",0,0
//Break Periods
2,66403,73095
//Storyboard Layer 0 (Background)
//Storyboard Layer 1 (Fail)
//Storyboard Layer 2 (Pass)
//Storyboard Layer 3 (Foreground)
//Storyboard Sound Samples
//Background Colour Transformations
3,100,0,0,0

[TimingPoints]
38,344.609729481362,4,1,1,30,1,0
124,-100,4,2,2,50,0,0
5551,-100,4,2,2,50,0,0
5637,-100,4,2,2,50,0,0
10720,-100,4,2,2,30,0,0
10893,-100,4,2,2,50,0,0
11065,-100,4,2,2,60,0,0
32775,-100,4,2,2,30,0,0
32948,-100,4,2,2,50,0,0
33120,-100,4,2,2,70,0,0
55175,-100,4,2,2,60,0,0
60689,-100,4,2,2,30,0,0
66203,-100,4,1,1,50,0,0
66289,-100,4,2,2,50,0,0
74473,-100,4,2,2,50,0,0
77230,-100,4,2,2,60,0,0
87913,-100,4,2,2,30,0,0
88085,-100,4,2,2,60,0,0
88258,-100,4,2,2,70,0,1
99242,-100,4,2,2,70,0,0
99285,-100,4,2,2,70,0,1
110313,-100,4,1,1,70,0,0
111002,-100,4,2,2,60,0,0
111691,-100,4,2,2,50,0,0
112380,-100,4,2,2,40,0,0
113069,-100,4,2,2,30,0,0
113759,-100,4,2,2,20,0,0

[Colours]
Combo1 : 240,248,177
Combo2 : 223,197,250

[HitObjects]
84,240,38,2,0,P|108:284|172:308,1,100,4|0,0:0|0:0,0:0:0:0:
172,216,727,1,2,0:0:0:0:
260,188,1071,2,0,P|236:148|173:123,2,100,0|0|0,0:0|0:0|0:0,0:0:0:0:
288,272,2105,2,0,B|332:296|332:296|400:312,1,100,2|0,0:0|0:0,0:0:0:0:
440,236,2794,5,0,0:0:0:0:
364,72,3484,1,2,0:0:0:0:
188,112,4173,2,0,P|136:124|88:156,1,100,0|2,0:0|0:0,0:0:0:0:
76,236,4862,2,0,P|128:224|176:192,1,100,2|2,0:0|0:0,0:0:0:0:
244,152,5551,5,4,0:0:0:0:
292,228,5896,1,0,0:0:0:0:
340,152,6240,2,0,P|368:136|388:116,1,50,2|0,0:0|0:0,0:0:0:0:
408,92,6585,2,0,B|436:56|436:56|488:24,2,100,0|0|0,0:0|0:0|0:0,0:0:0:0:
340,152,7619,2,0,B|312:188|312:188|260:220,1,100,2|0,0:0|0:0,0:0:0:0:
180,244,8308,5,0,0:0:0:0:
25,153,8997,1,0,0:0:0:0:
96,96,9342,1,2,0:0:0:0:
180,63,9687,1,0,0:0:0:0:
284,216,10376,1,2,0:0:0:0:
372,256,10720,2,0,P|400:264|428:292,2,50,2|0|4,0:0|0:0|0:0,0:0:0:0:
284,216,11410,5,8,0:0:0:0:
196,232,11754,2,0,B|148:224|148:252|88:236,1,100,2|8,0:0|0:0,0:0:0:0:
20,196,12443,2,0,P|40:128|170:107,1,200,0|2,0:0|0:0,0:0:0:0:
116,188,13477,1,8,0:0:0:0:
172,256,13822,5,0,0:0:0:0:
327,346,14511,1,2,0:0:0:0:
327,165,15200,2,0,P|304:128|216:108,2,100,0|8|10,0:0|0:0|0:0,0:0:0:0:
416,176,16234,2,0,P|368:244|316:252,1,100,8|0,0:0|0:0,0:0:0:0:
268,228,16923,5,8,0:0:0:0:
184,196,17268,2,0,P|156:216|136:224,1,50,2|0,0:0|0:0,0:0:0:0:
104,228,17613,2,0,P|56:224|8:172,1,100,8|0,0:0|0:0,0:0:0:0:
92,140,18302,2,0,L|164:40,1,100,8|2,0:0|0:0,0:0:0:0:
184,32,18819,2,0,P|208:24|240:20,1,50,0|8,0:0|0:0,0:0:0:0:
316,52,19336,6,0,B|384:92|384:164|468:188,1,200,0|2,0:0|0:0,0:0:0:0:
400,252,20369,1,8,0:0:0:0:
316,288,20714,2,0,B|268:312|268:312|184:328,1,100,0|8,0:0|0:0,0:0:0:0:
240,232,21403,2,0,B|192:208|192:208|144:168,1,100,10|8,0:0|0:0,0:0:0:0:
237,135,22093,5,4,0:0:0:0:
320,100,22437,1,8,0:0:0:0:
392,44,22782,2,0,P|424:16|444:8,2,50,2|0|8,0:0|0:0|0:0,0:0:0:0:
404,136,23472,1,0,0:0:0:0:
428,224,23816,2,0,B|380:235|391:261|330:269,1,100,8|2,0:0|0:0,0:0:0:0:
301,273,24332,2,0,P|277:269|248:251,1,50,0|8,0:0|0:0,0:0:0:0:
216,176,24849,5,0,0:0:0:0:
61,86,25538,1,2,0:0:0:0:
60,268,26228,2,0,P|100:308|160:308,2,100,0|8|10,0:0|0:0|0:0,0:0:0:0:
136,220,27262,2,0,P|108:188|40:180,1,100,8|0,0:0|0:0,0:0:0:0:
68,88,27951,5,8,0:0:0:0:
156,68,28295,2,0,P|184:28|204:16,2,50,2|0|8,0:0|0:0|0:0,0:0:0:0:
216,136,28985,2,0,P|268:160|332:140,1,100,0|8,0:0|0:0,0:0:0:0:
372,92,29674,2,0,P|320:68|256:88,2,100,2|8|0,0:0|0:0|0:0,0:0:0:0:
420,168,30708,5,8,0:0:0:0:
372,244,31052,2,0,P|352:268|296:304,1,50,2|0,0:0|0:0,0:0:0:0:
300,292,31397,2,0,L|284:184,1,100,8|0,0:0|0:0,0:0:0:0:
240,116,32086,2,0,B|198:138|198:138|146:154,1,100,8|10,0:0|0:0,0:0:0:0:
64,192,32775,2,0,P|72:216|88:240,1,50,8|0,0:0|0:0,0:0:0:0:
108,268,33120,6,0,P|164:320|232:336,1,100,4|8,0:0|0:0,0:0:0:0:
200,240,33809,2,0,P|220:248|276:300,1,100,2|8,0:0|0:0,0:0:0:0:
360,336,34498,1,0,0:0:0:0:
424,272,34843,1,8,0:0:0:0:
444,184,35188,2,0,B|368:176|340:116|256:120,1,200,2|0,0:0|0:0,0:0:0:0:
248,300,36566,5,2,0:0:0:0:
108,188,37255,1,0,0:0:0:0:
172,124,37600,1,8,0:0:0:0:
232,192,37945,1,10,0:0:0:0:
308,236,38289,2,0,B|356:228|356:256|416:240,1,100,8|0,0:0|0:0,0:0:0:0:
384,156,38978,6,0,L|280:116,1,100,8|2,0:0|0:0,0:0:0:0:
320,36,39668,2,0,P|272:32|224:60,1,100,8|0,0:0|0:0,0:0:0:0:
176,132,40357,1,8,0:0:0:0:
148,216,40701,2,0,L|92:248,2,50,2|0|8,0:0|0:0|0:0,0:0:0:0:
240,224,41391,6,0,P|336:232|416:160,1,200,0|2,0:0|0:0,0:0:0:0:
372,88,42424,1,8,0:0:0:0:
288,56,42769,1,0,0:0:0:0:
200,32,43114,2,0,P|156:48|124:96,1,100,8|10,0:0|0:0,0:0:0:0:
212,120,43803,1,8,0:0:0:0:
232,208,44148,6,0,P|277:185|300:136,1,100,4|8,0:0|0:0,0:0:0:0:
320,52,44837,2,0,B|368:44|368:72|428:56,1,100,2|8,0:0|0:0,0:0:0:0:
464,136,45526,2,0,P|424:160|396:208,1,100,0|8,0:0|0:0,0:0:0:0:
348,280,46215,2,0,B|304:304|304:304|224:316,1,100,2|8,0:0|0:0,0:0:0:0:
176,268,46904,5,0,0:0:0:0:
21,177,47593,1,2,0:0:0:0:
176,87,48283,2,0,P|248:44|280:44,2,100,0|8|10,0:0|0:0|0:0,0:0:0:0:
124,160,49317,1,8,0:0:0:0:
164,240,49661,6,0,P|216:272|248:320,1,100,0|8,0:0|0:0,0:0:0:0:
328,296,50351,2,0,P|351:265|403:233,1,100,2|8,0:0|0:0,0:0:0:0:
404,144,51040,2,0,P|352:112|329:81,1,100,0|8,0:0|0:0,0:0:0:0:
240,88,51730,2,0,P|216:118|164:150,1,100,2|8,0:0|0:0,0:0:0:0:
96,212,52418,5,0,0:0:0:0:
44,288,52763,1,8,0:0:0:0:
0,208,53107,1,2,0:0:0:0:
32,124,53452,2,0,L|136:80,1,100,8|0,0:0|0:0,0:0:0:0:
212,64,54141,2,0,B|260:56|260:84|320:68,1,100,8|10,0:0|0:0,0:0:0:0:
400,84,54830,1,8,0:0:0:0:
432,168,55175,6,0,P|412:252|316:244,1,200,4|2,0:0|0:0,0:0:0:0:
240,80,56553,2,0,B|164:88|136:148|52:144,1,200,0|2,0:0|0:0,0:0:0:0:
200,248,57932,2,0,B|284:280|284:280|316:344|400:340,1,200,0|2,0:0|0:0,0:0:0:0:
448,176,59310,2,0,B|364:144|364:144|332:80|248:84,1,200,0|2,0:0|0:0,0:0:0:0:
108,128,60689,6,0,P|60:160|44:216,1,100,0|8,0:0|0:0,0:0:0:0:
132,212,61378,2,0,P|164:260|220:276,1,100,2|8,0:0|0:0,0:0:0:0:
220,188,62067,2,0,P|268:156|284:100,1,100,0|8,0:0|0:0,0:0:0:0:
196,104,62756,2,0,P|164:56|108:40,1,100,2|8,0:0|0:0,0:0:0:0:
60,100,63446,5,0,0:0:0:0:
116,172,63790,1,8,0:0:0:0:
68,248,64135,2,0,B|84:272|80:300|80:300|124:332,1,100,2|8,0:0|0:0,0:0:0:0:
204,308,64824,1,0,0:0:0:0:
292,328,65169,1,8,0:0:0:0:
380,308,65513,2,0,P|436:300|472:336,1,100,2|8,0:0|0:0,0:0:0:0:
500,244,66203,5,4,0:0:0:0:
256,192,74473,12,4,77230,0:0:0:0:
480,184,77919,6,0,P|436:216|392:224,1,100,2|8,0:0|0:0,0:0:0:0:
319,168,78609,1,0,0:0:0:0:
252,104,78953,1,8,0:0:0:0:
164,124,79298,2,0,B|120:116|120:144|56:128,1,100,2|8,0:0|0:0,0:0:0:0:
0,68,79987,2,0,P|44:44|104:48,2,100,0|8|2,0:0|0:0|0:0,0:0:0:0:
40,148,81021,2,0,L|104:244,1,100,8|0,0:0|0:0,0:0:0:0:
180,268,81710,1,8,0:0:0:0:
340,192,82399,6,0,P|408:148|436:112,2,100,8|0|8,0:0|0:0|0:0,0:0:0:0:
176,116,83778,2,0,P|132:48|96:20,2,100,8|0|8,0:0|0:0|0:0,0:0:0:0:
260,276,85156,2,0,P|224:324|208:368,2,100,8|0|8,0:0|0:0|0:0,0:0:0:0:
336,228,86190,1,2,0:0:0:0:
412,180,86535,1,8,0:0:0:0:
460,104,86879,6,0,B|384:96|356:36|272:40,1,200,0|10,0:0|0:0,0:0:0:0:
188,68,87913,2,0,P|160:104|156:136,1,50,8|0,0:0|0:0,0:0:0:0:
148,144,88258,6,0,B|152:176|168:196|168:196|168:272,1,100,4|8,0:0|0:0,0:0:0:0:
216,316,88947,2,0,P|264:268|336:244,1,100,2|8,0:0|0:0,0:0:0:0:
372,212,89636,1,0,0:0:0:0:
340,128,89981,2,0,B|300:96|300:96|232:72,1,100,8|2,0:0|0:0,0:0:0:0:
216,72,90498,2,0,P|184:80|164:100,1,50,0|8,0:0|0:0,0:0:0:0:
116,160,91014,5,0,0:0:0:0:
26,315,91703,1,2,0:0:0:0:
208,316,92393,1,0,0:0:0:0:
292,352,92738,1,8,0:0:0:0:
380,368,93082,2,0,P|424:363|480:344,1,100,10|8,0:0|0:0,0:0:0:0:
448,260,93771,5,0,0:0:0:0:
372,212,94116,2,0,B|380:188|396:172|396:172|396:80,1,100,8|10,0:0|0:0,0:0:0:0:
384,84,94633,2,0,P|360:72|328:64,1,50,0|8,0:0|0:0,0:0:0:0:
252,92,95150,2,0,L|152:124,1,100,0|8,0:0|0:0,0:0:0:0:
88,72,95839,2,0,P|72:108|88:176,1,100,2|8,0:0|0:0,0:0:0:0:
144,228,96528,5,0,0:0:0:0:
228,196,96873,1,8,0:0:0:0:
312,228,97217,2,0,B|360:220|360:248|420:232,1,100,2|8,0:0|0:0,0:0:0:0:
480,176,97907,2,0,P|448:124|376:92,1,100,0|8,0:0|0:0,0:0:0:0:
384,4,98596,2,0,P|344:28|320:77,1,100,10|8,0:0|0:0,0:0:0:0:
300,160,99285,5,4,0:0:0:0:
376,200,99630,1,8,0:0:0:0:
400,288,99974,1,2,0:0:0:0:
364,368,100319,1,8,0:0:0:0:
288,320,100664,2,0,B|264:312|248:288|248:288|164:256,1,100,0|8,0:0|0:0,0:0:0:0:
128,320,101353,2,0,P|112:252|136:212,1,100,2|8,0:0|0:0,0:0:0:0:
188,164,102042,5,0,0:0:0:0:
343,73,102731,1,2,0:0:0:0:
343,254,103420,2,0,P|388:316|424:336,2,100,0|8|10,0:0|0:0|0:0,0:0:0:0:
420,208,104454,1,8,0:0:0:0:
344,160,104799,6,0,P|389:98|425:78,1,100,0|8,0:0|0:0,0:0:0:0:
328,44,105488,2,0,L|208:92,1,100,2|8,0:0|0:0,0:0:0:0:
160,32,106177,2,0,B|136:80|136:80|120:144,1,100,0|8,0:0|0:0,0:0:0:0:
180,196,106867,2,0,P|152:240|136:252,2,50,2|0|8,0:0|0:0|0:0,0:0:0:0:
268,224,107556,6,0,B|316:216|316:244|376:228,1,100,0|8,0:0|0:0,0:0:0:0:
412,152,108245,2,0,B|376:132|376:132|356:100|296:80,1,100,2|8,0:0|0:0,0:0:0:0:
248,60,108934,1,0,0:0:0:0:
200,136,109279,1,8,0:0:0:0:
248,212,109623,1,10,0:0:0:0:
200,288,109968,1,8,0:0:0:0:
256,192,110313,12,0,114448,0:0:0:0:
