osu file format v12

[General]
AudioFilename: Dear You.mp3
AudioLeadIn: 1996
PreviewTime: 88258
Countdown: 0
SampleSet: Soft
StackLeniency: 0.6
Mode: 0
LetterboxInBreaks: 0
EpilepsyWarning: 1

[Editor]
Bookmarks: 38,727,1416,2105,9687,11065,11754,33120,55175,64824,66203,77230,88258,110313,114448
DistanceSpacing: 1
BeatDivisor: 4
GridSize: 4

[Metadata]
Title:Dear You
TitleUnicode:Dear You
Artist:DJ Genericname
ArtistUnicode:DJ Genericname
Creator:Nemis
Version:Dear Crystal
Source:Higurashi no Naku Koro Ni
Tags:xXCrystalMoonAnimeXx Amamiya Yuko Kiyro Yuduki Remix DnB Drum And Bass 07th Expansion Generic Name
BeatmapID:215028
BeatmapSetID:74586

[Difficulty]
HPDrainRate:3
CircleSize:3
OverallDifficulty:3
ApproachRate:4
SliderMultiplier:0.8
SliderTickRate:1

[Events]
//Background and Video events
0,0,"Dear You.png",0,0
//Break Periods
2,55375,64883
//Storyboard Layer 0 (Background)
//Storyboard Layer 1 (Fail)
//Storyboard Layer 2 (Pass)
//Storyboard Layer 3 (Foreground)
//Storyboard Sound Samples
//Background Colour Transformations
3,100,0,0,0

[TimingPoints]
38,344.609729481362,4,2,1,15,1,0
727,-100,4,2,1,20,0,0
1416,-100,4,2,0,15,0,0
2105,-100,4,2,0,20,0,0
3828,-100,4,2,0,30,0,0
4173,-100,4,2,0,20,0,0
5551,-100,4,2,0,30,0,0
11065,-100,4,2,1,40,0,0
11754,-100,4,2,1,50,0,0
12443,-100,4,2,2,70,0,0
13133,-100,4,2,1,50,0,0
13822,-100,4,2,0,40,0,0
14856,-100,4,2,1,40,0,0
15200,-100,4,2,0,40,0,0
15545,-100,4,2,1,50,0,0
15890,-100,4,2,0,40,0,0
16234,-100,4,2,1,50,0,0
16579,-100,4,2,2,70,0,0
17613,-100,4,2,1,50,0,0
17957,-100,4,2,0,40,0,0
18991,-100,4,2,1,50,0,0
19336,-100,4,2,0,40,0,0
21059,-100,4,2,1,50,0,0
22093,-100,4,2,0,50,0,0
22437,-100,4,2,1,50,0,0
23471,-100,4,2,2,70,0,0
23816,-100,4,2,1,50,0,0
24849,-100,4,2,0,50,0,0
25883,-100,4,2,1,50,0,0
26228,-100,4,2,0,50,0,0
27262,-100,4,2,1,50,0,0
27606,-100,4,2,0,50,0,0
28640,-100,4,2,1,50,0,0
28985,-100,4,2,2,70,0,0
29674,-100,4,2,2,50,0,0
30019,-100,4,2,1,50,0,0
30363,-100,4,2,0,50,0,0
31397,-100,4,2,1,50,0,0
31742,-100,4,2,2,70,0,0
32259,-100,4,2,2,50,0,0
32775,-100,4,2,1,50,0,0
33120,-100,4,2,0,60,0,0
33809,-100,4,2,0,50,0,0
34154,-100,4,2,1,50,0,0
34498,-100,4,2,0,50,0,0
34843,-100,4,2,1,50,0,0
35877,-100,4,2,2,70,0,0
36394,-100,4,2,2,50,0,0
36911,-100,4,2,1,50,0,0
37255,-100,4,2,0,40,0,0
38289,-100,4,2,1,50,0,0
38634,-100,4,2,2,70,0,0
38978,-100,4,2,1,50,0,0
40012,-100,4,2,0,40,0,0
40357,-100,4,2,1,50,0,0
42769,-100,4,2,0,40,0,0
43458,-100,4,2,1,50,0,0
44148,-100,4,2,0,60,0,0
44492,-100,4,2,1,50,0,0
45526,-100,4,2,0,40,0,0
46215,-100,4,2,0,50,0,0
46560,-100,4,2,1,50,0,0
46904,-100,4,2,2,70,0,0
47421,-100,4,2,2,50,0,0
47938,-100,4,2,1,50,0,0
48283,-100,4,2,0,40,0,0
48627,-100,4,2,1,50,0,0
49661,-100,4,2,0,50,0,0
50695,-100,4,2,1,50,0,0
51040,-100,4,2,2,70,0,0
51384,-100,4,2,1,50,0,0
52418,-100,4,2,0,55,0,0
52763,-100,4,2,1,50,0,0
55175,-100,4,2,1,40,0,0
66203,-100,4,2,0,40,0,0
67581,-100,4,2,0,25,0,0
68959,-100,4,2,2,30,0,0
70682,-100,4,2,2,20,0,0
71372,-100,4,2,2,25,0,0
73095,-100,4,2,2,55,0,0
73784,-100,4,2,2,35,0,0
74129,-100,4,2,2,30,0,0
74473,-100,4,2,0,35,0,0
76885,-100,4,2,1,40,0,0
77230,-100,4,2,0,45,0,0
77575,-100,4,2,1,45,0,0
78609,-100,4,2,0,50,0,0
79642,-100,4,2,1,50,0,0
79987,-100,4,2,0,45,0,0
80676,-100,4,2,0,50,0,0
81021,-100,4,2,1,50,0,0
81365,-100,4,2,2,70,0,0
82055,-100,4,2,2,50,0,0
82744,-100,4,2,0,50,0,0
83778,-100,4,2,1,50,0,0
84122,-100,4,2,0,50,0,0
84467,-100,4,2,1,50,0,0
85501,-100,4,2,0,50,0,0
85845,-100,4,2,1,50,0,0
88258,-100,4,2,1,70,0,1
88947,-100,4,2,1,60,0,1
89636,-100,4,2,0,55,0,1
89981,-100,4,2,1,60,0,1
91014,-100,4,2,0,60,0,1
92393,-100,4,2,0,55,0,1
92738,-100,4,2,1,60,0,1
93771,-100,4,2,0,55,0,1
94116,-100,4,2,1,60,0,1
95150,-100,4,2,2,80,0,1
95494,-100,4,2,1,60,0,1
96528,-100,4,2,0,55,0,1
96873,-100,4,2,1,60,0,1
97907,-100,4,2,0,60,0,1
98940,-100,4,2,1,60,0,1
99242,-100,4,2,1,60,0,0
99285,-100,4,2,0,70,0,1
99630,-100,4,2,1,60,0,1
100664,-100,4,2,0,60,0,1
101008,-100,4,2,1,60,0,1
102042,-100,4,2,0,55,0,1
103076,-100,4,2,1,60,0,1
103420,-100,4,2,0,60,0,1
105143,-100,4,2,1,60,0,1
106177,-100,4,2,2,80,0,1
106867,-100,4,2,2,60,0,1
107211,-100,4,2,1,60,0,1
107556,-100,4,2,0,60,0,1
108590,-100,4,2,1,60,0,1
110313,-100,4,2,1,60,0,0
111691,-100,4,2,1,40,0,0
113069,-100,4,2,1,20,0,0
114448,-100,4,2,1,10,0,0

[Colours]
Combo1 : 240,248,177
Combo2 : 223,197,250

[HitObjects]
256,192,38,6,0,P|332:172|376:100,1,160,4|2,0:0|0:0,0:0:0:0:
232,36,1416,2,0,P|156:56|112:128,1,160,4|2,0:0|0:0,0:0:0:0:
256,192,2794,2,0,B|336:136|408:276|488:184,1,240,4|8,0:0|0:0,0:0:0:0:
424,132,4173,2,0,P|384:64|304:32,2,160,4|2|4,0:0|0:0|0:0,0:0:0:0:
364,184,5896,5,8,0:0:0:0:
300,232,6240,2,0,B|264:268|328:312|292:348,2,120,0|2|8,0:0|0:0|0:0,0:0:0:0:
236,184,7619,1,2,0:0:0:0:
176,132,7964,2,0,P|216:64|287:32,2,160,8|8|8,0:0|0:0|0:0,0:0:0:0:
256,192,9687,12,4,11065,0:0:0:0:
256,192,11754,6,0,L|256:104,1,80,2|8,0:0|0:0,0:0:0:0:
196,60,12443,2,0,P|120:36|40:64,1,160,4|0,0:0|0:0,0:0:0:0:
40,140,13477,1,8,0:0:0:0:
120,124,13822,6,0,P|196:148|276:120,1,160,4|0,0:0|0:0,0:0:0:0:
332,72,14856,1,8,0:0:0:0:
408,100,15200,2,0,P|412:52|392:16,2,80,0|8|0,0:0|0:0|0:0,0:0:0:0:
348,152,16234,1,8,0:0:0:0:
332,72,16579,6,0,L|176:116,1,160,4|0,0:0|0:0,0:0:0:0:
180,196,17613,1,8,0:0:0:0:
180,280,17957,2,0,L|336:236,1,160,4|0,0:0|0:0,0:0:0:0:
332,156,18991,1,8,0:0:0:0:
404,192,19336,6,0,P|420:252|356:316,2,160,4|2|4,0:0|0:0|0:0,0:0:0:0:
332,156,21059,1,8,0:0:0:0:
212,52,21748,1,8,0:0:0:0:
148,100,22093,6,0,L|84:152,2,80,4|8|0,0:0|0:0|0:0,0:0:0:0:
212,144,23126,1,8,0:0:0:0:
276,100,23471,2,0,L|340:152,2,80,4|8|0,0:0|0:0|0:0,0:0:0:0:
212,52,24505,1,8,0:0:0:0:
132,52,24849,6,0,P|40:80|64:200,1,240,4|8,0:0|0:0,0:0:0:0:
44,284,26228,2,0,P|136:252|112:132,1,240,4|8,0:0|0:0,0:0:0:0:
63,199,27606,6,0,B|96:264|168:204|200:264,1,160,4|2,0:0|0:0,0:0:0:0:
256,320,28640,1,8,0:0:0:0:
312,263,28985,2,0,B|344:204|416:264|448:199,1,160,4|2,0:0|0:0,0:0:0:0:
500,136,30019,1,8,0:0:0:0:
448,200,30363,6,0,B|396:148|432:88|432:88|359:111|308:60,1,240,4|8,0:0|0:0,0:0:0:0:
240,76,31742,2,0,P|272:136|332:160,2,120,4|2|8,0:0|0:0|0:0,0:0:0:0:
164,48,33120,5,6,0:0:0:0:
36,144,33809,1,2,0:0:0:0:
44,224,34154,1,8,0:0:0:0:
72,300,34498,2,0,P|104:336|144:344,1,80,4|8,0:0|0:0,0:0:0:0:
144,264,35188,2,0,L|188:176,1,80,2|8,0:0|0:0,0:0:0:0:
256,168,35877,2,0,B|296:136|220:80|264:48,2,120,4|2|8,0:0|0:0|0:0,0:0:0:0:
256,248,37255,2,0,B|216:280|292:336|248:368,2,120,4|2|8,0:0|0:0|0:0,0:0:0:0:
256,168,38634,5,4,0:0:0:0:
332,192,38978,2,0,L|368:264,1,80,8|2,0:0|0:0,0:0:0:0:
378,344,39668,2,0,P|408:336|440:300,1,80,8|4,0:0|0:0,0:0:0:0:
468,224,40356,1,8,0:0:0:0:
476,144,40701,1,2,0:0:0:0:
400,172,41046,2,0,P|416:92|488:64,2,160,8|8|8,0:0|0:0|0:0,0:0:0:0:
476,144,42769,2,0,P|460:224|388:252,1,160,4|8,0:0|0:0,0:0:0:0:
256,168,44148,6,0,L|256:88,2,80,4|8|2,0:0|0:0|0:0,0:0:0:0:
256,248,45181,1,8,0:0:0:0:
256,328,45526,2,0,B|192:324|176:264|176:264|112:264,1,160,4|2,0:0|0:0,0:0:0:0:
48,268,46560,1,8,0:0:0:0:
48,188,46904,2,0,L|184:188,2,120,4|2|8,0:0|0:0|0:0,0:0:0:0:
48,108,48283,2,0,L|128:108,1,80,4|8,0:0|0:0,0:0:0:0:
208,108,48972,1,2,0:0:0:0:
368,100,49661,6,0,P|432:188|364:284,1,240,4|8,0:0|0:0,0:0:0:0:
288,268,51040,2,0,L|288:352,2,80,4|8|2,0:0|0:0|0:0,0:0:0:0:
288,188,52074,1,8,0:0:0:0:
288,108,52418,2,0,L|288:24,2,80,4|8|2,0:0|0:0|0:0,0:0:0:0:
216,144,53452,1,0,0:0:0:0:
136,144,53797,6,0,P|72:232|140:328,1,240,8|2,0:0|0:0,0:0:0:0:
216,340,55175,1,6,0:0:0:0:
256,192,66203,5,4,0:0:0:0:
372,140,67581,2,0,P|256:48|140:152,2,320,2|4|2,0:0|0:0|0:0,0:0:0:0:
416,204,70682,2,0,L|472:276,1,80,8|2,0:0|0:0,0:0:0:0:
400,316,71372,6,0,L|344:244,1,80,8|2,0:0|0:0,0:0:0:0:
332,176,72061,1,8,0:0:0:0:
252,168,72406,2,4,P|296:104|380:112,2,160,2|4|2,0:0|0:0|0:0,0:0:0:0:
332,176,74129,1,8,0:0:0:0:
412,184,74473,6,0,P|368:248|284:240,2,160,4|2|4,0:0|0:0|0:0,0:0:0:0:
332,176,76196,1,8,0:0:0:0:
412,36,76885,1,8,0:0:0:0:
332,36,77230,6,0,L|240:36,1,80,4|0,0:0|0:0,0:0:0:0:
268,116,77919,2,0,L|176:116,1,80,2|8,0:0|0:0,0:0:0:0:
140,52,78609,2,0,P|104:120|156:188,1,160,4|2,0:0|0:0,0:0:0:0:
220,212,79642,1,8,0:0:0:0:
296,236,79987,6,0,P|332:304|284:372,1,160,4|2,0:0|0:0,0:0:0:0:
248,300,81021,1,8,0:0:0:0:
248,300,81365,2,0,L|404:336,2,160,4|2|4,0:0|0:0|0:0,0:0:0:0:
172,280,83088,1,0,0:0:0:0:
256,144,83778,5,8,0:0:0:0:
196,88,84122,2,0,L|132:16,1,80
256,144,85156,5,8,0:0:0:0:
316,88,85501,2,0,L|380:16,2,80,4|2|8,0:0|0:0|0:0,0:0:0:0:
256,144,86534,1,0,0:0:0:0:
256,192,86879,12,4,88257,0:0:0:0:
256,192,88947,6,0,P|236:152|196:128,1,80,2|8,0:0|0:0,0:0:0:0:
176,208,89636,2,0,L|112:264,1,80,4|8,0:0|0:0,0:0:0:0:
68,196,90325,2,0,L|132:140,1,80,2|8,0:0|0:0,0:0:0:0:
208,132,91014,2,0,P|160:68|80:80,2,160,4|2|4,0:0|0:0|0:0,0:0:0:0:
128,144,92738,2,0,P|176:208|256:196,1,160,8|0,0:0|0:0,0:0:0:0:
208,132,93771,6,0,L|252:64,1,80,4|8,0:0|0:0,0:0:0:0:
324,28,94461,2,0,P|332:76|312:112,1,80,2|8,0:0|0:0,0:0:0:0:
364,172,95150,2,0,B|340:188|388:248|356:260|356:260,2,80,4|8|2,0:0|0:0|0:0,0:0:0:0:
404,104,96184,2,0,P|396:56|416:20,1,80,8|4,0:0|0:0,0:0:0:0:
476,72,96873,1,8,0:0:0:0:
476,232,97562,1,8,0:0:0:0:
488,312,97907,6,0,B|420:320|396:248|396:248|372:320|300:316,1,240,4|8,0:0|0:0,0:0:0:0:
316,236,99285,6,0,B|328:188|372:168|372:168,1,80,4|8,0:0|0:0,0:0:0:0:
440,160,99974,2,0,B|432:108|380:92|380:92,1,80,2|8,0:0|0:0,0:0:0:0:
312,88,100664,2,0,B|316:40|368:20|368:20,2,80,4|8|2,0:0|0:0|0:0,0:0:0:0:
393,98,101697,1,8,0:0:0:0:
344,164,102042,6,0,B|316:200|220:120|196:172,1,160,4|2,0:0|0:0,0:0:0:0:
176,248,103076,1,8,0:0:0:0:
196,324,103420,2,0,B|224:360|320:280|344:332,2,160,4|2|4,0:0|0:0|0:0,0:0:0:0:
116,304,105143,5,8,0:0:0:0:
40,164,105833,1,8,0:0:0:0:
36,84,106177,2,0,P|104:116|104:208,1,160,4|2,0:0|0:0,0:0:0:0:
184,228,107211,1,8,0:0:0:0:
256,196,107556,2,0,P|264:118|332:86,1,160,4|2,0:0|0:0,0:0:0:0:
332,168,108590,2,0,L|400:224,1,80,8|2,0:0|0:0,0:0:0:0:
464,180,109279,5,8,0:0:0:0:
464,260,109623,1,2,0:0:0:0:
392,300,109968,1,8,0:0:0:0:
256,192,110313,12,0,114448,0:0:0:0:
