osu file format v13

[General]
AudioFilename: DJ Genericname - Dango Dango Daikazokou DnB.mp3
AudioLeadIn: 2000
PreviewTime: 64298
Countdown: 0
SampleSet: Soft
StackLeniency: 0.7
Mode: 0
LetterboxInBreaks: 0
WidescreenStoryboard: 0

[Editor]
Bookmarks: 11804,64975
DistanceSpacing: 1.4
BeatDivisor: 4
GridSize: 4
TimelineZoom: 1

[Metadata]
Title:Dango Dango Daikazoku (Drum and Bass Remix)
TitleUnicode:Dango Dango Daikazoku (Drum and Bass Remix)
Artist:DJ Genericname
ArtistUnicode:DJ Genericname
Creator:Moo-Chan
Version:Insane
Source:CLANNAD
Tags:chata ed ending liquid DNB Adam Whitton guineaq smallboat smug-
BeatmapID:466789
BeatmapSetID:196813

[Difficulty]
HPDrainRate:7
CircleSize:4
OverallDifficulty:8
ApproachRate:9
SliderMultiplier:1.7
SliderTickRate:2

[Events]
//Background and Video events
0,0,"bg.jpg",0,0
//Break Periods
//Storyboard Layer 0 (Background)
//Storyboard Layer 1 (Fail)
//Storyboard Layer 2 (Pass)
//Storyboard Layer 3 (Foreground)
//Storyboard Sound Samples
//Background Colour Transformations
3,100,163,162,255

[TimingPoints]
254,337.078651685393,4,1,0,40,1,0
254,-133.333333333333,4,2,2,20,0,0
591,-133.333333333333,4,2,2,40,0,0
10366,-133.333333333333,4,2,2,30,0,0
11040,-111.111111111111,4,2,5,50,0,0
13737,-111.111111111111,4,2,2,50,0,0
14074,-111.111111111111,4,2,5,50,0,0
16433,-111.111111111111,4,2,2,50,0,0
16602,-111.111111111111,4,2,5,50,0,0
19130,-111.111111111111,4,2,2,50,0,0
19298,-111.111111111111,4,2,5,50,0,0
19804,-111.111111111111,4,2,1,40,0,0
21489,-133.333333333333,4,2,2,30,0,0
21658,-133.333333333333,4,2,1,30,0,0
21827,-100,4,2,5,30,0,0
23006,-133.333333333333,4,2,5,20,0,0
23680,-133.333333333333,4,2,5,20,0,0
24523,-100,4,2,5,20,0,0
25703,-133.333333333333,4,2,2,30,0,0
26209,-133.333333333333,4,2,5,20,0,0
27220,-100,4,2,5,20,0,0
28400,-133.333333333333,4,2,2,20,0,0
28905,-133.333333333333,4,2,5,20,0,0
29242,-117.647058823529,4,2,5,20,0,0
29916,-117.647058823529,4,2,5,40,0,0
31265,-100,4,2,5,40,0,0
32613,-100,4,2,2,40,0,0
32782,-100,4,2,5,50,0,0
33961,-100,4,2,2,50,0,0
34298,-133.333333333333,4,2,5,30,0,0
34467,-133.333333333333,4,2,5,40,0,0
35310,-100,4,2,5,30,0,0
36489,-100,4,2,5,40,0,0
37501,-100,4,2,5,40,0,0
40703,-100,4,2,5,40,0,0
41377,-100,4,2,5,45,0,0
42051,-100,4,2,5,50,0,0
42725,-100,4,2,5,55,0,0
43400,-100,4,2,1,65,0,0
43568,-100,4,2,1,65,0,0
51489,-100,4,2,1,45,0,0
53175,-100,4,2,1,45,0,0
53343,-100,4,2,1,55,0,0
54186,-100,4,2,1,60,0,0
55703,-100,4,2,1,55,0,0
58737,-100,4,2,2,55,0,0
59579,-100,4,2,1,55,0,0
60928,-100,4,2,1,50,0,0
62276,-100,4,2,1,55,0,0
63624,-100,4,2,1,60,0,0
64130,-100,4,2,1,60,0,0
64298,-100,4,2,1,65,0,0
64973,-100,4,2,1,70,0,1
74916,-100,4,2,1,70,0,0
75759,-100,4,2,1,70,0,1
85871,-100,4,2,2,50,0,1
86546,-100,4,2,5,50,0,0
91939,-100,4,2,5,35,0,0
97332,-100,4,2,5,25,0,0
104748,-100,4,2,5,20,0,0
107107,-100,4,2,2,15,0,0
108456,-100,4,2,2,5,0,0

[Colours]
Combo1 : 255,255,128
Combo2 : 0,255,255
Combo3 : 128,128,255
Combo4 : 255,128,255

[HitObjects]
432,148,254,6,0,P|380:116|300:140,1,127.500004863739,4|0,0:0|0:0,0:0:0:0:
288,212,759,1,0,0:0:0:0:
136,220,1096,1,0,0:0:0:0:
80,304,1265,1,0,0:0:0:0:
44,212,1433,1,0,0:0:0:0:
144,240,1602,5,0,0:0:0:0:
56,292,1770,1,0,0:0:0:0:
68,188,1939,2,0,P|120:144|192:168,1,127.500004863739
256,196,2445,1,0,0:0:0:0:
224,280,2613,2,0,P|264:310|296:316,1,63.7500024318696
339,384,2950,6,0,P|367:327|357:265,1,127.500004863739,2|0,0:0|0:0,0:0:0:0:
357,266,3456,1,0,0:0:0:0:
300,116,3793,1,0,0:0:0:0:
316,16,3961,1,0,0:0:0:0:
396,80,4130,1,0,0:0:0:0:
300,116,4298,5,0,0:0:0:0:
288,132,4636,1,0,0:0:0:0:
316,264,4973,1,0,0:0:0:0:
236,316,5141,1,0,0:0:0:0:
140,320,5310,2,0,B|104:304|104:260,1,63.7500024318696
100,176,5647,6,0,B|176:184|196:256,1,127.500004863739,2|0,0:0|0:0,0:0:0:0:
280,296,6152,1,0,0:0:0:0:
228,164,6489,1,0,0:0:0:0:
260,45,6658,1,0,0:0:0:0:
305,161,6827,1,0,0:0:0:0:
200,92,6995,5,0,0:0:0:0:
323,87,7164,1,0,0:0:0:0:
200,92,7332,2,0,P|163:67|126:65,1,63.7500024318696
171,191,7669,2,0,P|201:181|228:164,1,63.7500024318696
112,128,8006,2,0,P|88:156|88:208,1,63.7500024318696
148,236,8343,5,2,0:0:0:0:
332,288,8680,1,0,0:0:0:0:
356,92,8849,1,0,0:0:0:0:
356,92,9018,2,0,L|328:164,1,63.7500024318696,0|0,0:0|0:0,0:0:0:0:
248,96,9355,1,0,0:0:0:0:
248,96,9523,2,0,L|220:168,1,63.7500024318696
148,104,9860,6,0,P|132:152|164:224,1,127.500004863739
284,252,10366,1,0,0:0:0:0:
391,196,10534,1,0,0:0:0:0:
383,317,10703,1,0,0:0:0:0:
284,252,10871,1,0,0:0:0:0:
253,134,11040,6,0,P|184:176|160:248,1,152.999995330811,4|2,0:0|0:0,0:0:0:0:
148,348,11546,2,0,P|108:344|76:308,1,76.4999976654053,0|0,0:0|0:0,0:0:0:0:
56,216,11883,1,0,0:0:0:0:
124,132,12051,1,2,0:0:0:0:
216,76,12220,1,0,0:0:0:0:
128,20,12388,5,0,0:0:0:0:
172,152,12557,1,0,0:0:0:0:
284,228,12725,2,0,P|356:232|400:148,1,152.999995330811,2|0,0:0|0:0,0:0:0:0:
384,60,13231,1,0,0:0:0:0:
320,156,13400,1,2,0:0:0:0:
480,128,13568,1,0,0:0:0:0:
472,260,13737,6,0,P|436:328|344:332,1,152.999995330811,2|8,0:0|0:0,0:0:0:0:
252,348,14242,2,0,P|236:304|252:252,1,76.4999976654053
272,160,14579,1,0,0:0:0:0:
192,64,14748,1,8,0:0:0:0:
152,180,14916,1,0,0:0:0:0:
272,160,15085,5,2,0:0:0:0:
284,180,15422,1,10,0:0:0:0:
100,312,15759,1,2,0:0:0:0:
208,240,15928,1,0,0:0:0:0:
348,248,16096,2,0,P|392:244|424:216,1,76.4999976654053,8|0,0:0|0:0,0:0:0:0:
340,128,16433,6,0,P|300:104|256:112,1,76.4999976654053,2|0,0:0|0:0,0:0:0:0:
216,236,16770,1,8,0:0:0:0:
128,148,16939,1,0,0:0:0:0:
188,32,17107,1,2,0:0:0:0:
248,124,17276,1,0,0:0:0:0:
324,232,17445,1,8,0:0:0:0:
404,120,17613,1,0,0:0:0:0:
248,124,17782,5,0,0:0:0:0:
404,196,17950,1,0,0:0:0:0:
248,204,18119,2,0,P|192:209|149:188,1,76.4999976654053,8|0,0:0|0:0,0:0:0:0:
35,36,18456,2,0,P|16:69|8:106,1,76.4999976654054,2|0,0:0|0:0,0:0:0:0:
88,216,18793,2,0,P|92:178|109:144,1,76.4999976654053,8|0,0:0|0:0,0:0:0:0:
232,80,19130,5,2,0:0:0:0:
248,204,19298,1,0,0:0:0:0:
331,293,19467,1,8,0:0:0:0:
452,309,19636,1,0,0:0:0:0:
404,196,19804,1,0,0:0:0:0:
331,293,19973,1,0,0:0:0:0:
452,309,20141,1,8,0:0:0:0:
404,196,20310,1,0,0:0:0:0:
404,196,20478,6,0,P|370:175|319:184,1,76.4999976654053,0|0,0:0|0:0,0:0:0:0:
279,347,20815,2,0,P|313:368|364:359,1,76.4999976654053,8|0,0:0|0:0,0:0:0:0:
452,309,21152,1,0,0:0:0:0:
404,196,21321,1,0,0:0:0:0:
224,36,21658,1,8,0:0:0:0:
224,36,21827,5,6,0:0:0:0:
104,76,21995,1,0,0:0:0:0:
224,156,22164,1,10,0:0:0:0:
168,256,22332,1,0,0:0:0:0:
84,160,22501,2,0,P|36:144|0:148,1,85
24,272,22838,1,10,0:0:0:0:
96,360,23006,1,0,0:0:0:0:
168,256,23175,6,0,P|204:224|288:220,1,127.500004863739,0|8,0:0|0:0,0:0:0:0:
376,224,23680,1,0,0:0:0:0:
424,308,23849,1,0,0:0:0:0:
328,308,24018,1,0,0:0:0:0:
376,224,24186,1,8,0:0:0:0:
238,204,24523,5,2,0:0:0:0:
120,148,24692,1,0,0:0:0:0:
244,124,24860,1,8,0:0:0:0:
160,216,25029,1,0,0:0:0:0:
174,92,25197,2,0,P|122:72|75:85,1,85,2|0,0:0|0:0,0:0:0:0:
44,184,25534,1,8,0:0:0:0:
104,276,25703,1,0,0:0:0:0:
196,336,25871,6,0,P|212:296|192:208,1,127.500004863739,0|8,0:0|0:0,0:0:0:0:
244,124,26377,1,0,0:0:0:0:
304,207,26546,1,0,0:0:0:0:
348,116,26714,1,8,0:0:0:0:
244,124,26883,1,8,0:0:0:0:
324,336,27220,5,2,0:0:0:0:
232,246,27388,1,0,0:0:0:0:
128,296,27557,1,8,0:0:0:0:
200,376,27725,1,0,0:0:0:0:
232,246,27894,2,0,P|272:235|304:207,1,85,2|0,0:0|0:0,0:0:0:0:
208,112,28231,1,8,0:0:0:0:
88,92,28400,1,0,0:0:0:0:
32,200,28568,6,0,P|60:236|144:256,1,127.500004863739,0|8,0:0|0:0,0:0:0:0:
340,224,29242,1,0,0:0:0:0:
192,48,29579,1,8,0:0:0:0:
192,48,29916,6,0,L|128:104,2,72.2500013780594,2|0|10,0:0|0:0|0:0,0:0:0:0:
276,128,30422,1,0,0:0:0:0:
276,128,30591,2,0,L|216:180,1,72.2500013780594,2|0,0:0|0:0,0:0:0:0:
192,328,30928,1,8,0:0:0:0:
120,240,31096,1,0,0:0:0:0:
300,280,31265,5,2,0:0:0:0:
404,208,31433,1,0,0:0:0:0:
404,208,31518,1,0,0:0:0:0:
404,208,31602,2,0,P|436:156|436:108,1,85,8|0,0:0|0:0,0:0:0:0:
300,112,31939,2,0,P|288:60|260:28,1,85,2|8,0:0|0:0,0:0:0:0:
164,128,32276,2,0,P|124:100|76:92,1,85,8|0,0:0|0:0,0:0:0:0:
60,228,32613,6,0,P|74:267|102:299,1,85,6|0,0:0|0:0,0:0:0:0:
228,324,32950,1,10,0:0:0:0:
320,236,33119,1,0,0:0:0:0:
300,112,33287,2,0,P|260:72|232:60,1,85
132,0,33624,1,10,0:0:0:0:
56,104,33793,1,0,0:0:0:0:
56,104,33877,1,0,0:0:0:0:
56,104,33961,6,0,P|68:188|136:236,1,170,2|10,0:0|0:0,0:0:0:0:
160,128,34467,1,0,0:0:0:0:
12,240,34636,1,2,0:0:0:0:
132,332,34804,1,0,0:0:0:0:
264,240,34973,2,0,P|288:216|304:184,1,63.7500024318696,10|0,0:0|0:0,0:0:0:0:
160,128,35310,5,2,0:0:0:0:
360,132,35478,1,0,0:0:0:0:
252,36,35647,1,10,0:0:0:0:
172,156,35815,1,0,0:0:0:0:
320,124,35984,1,2,0:0:0:0:
216,24,36152,1,0,0:0:0:0:
140,148,36321,1,10,0:0:0:0:
236,244,36489,1,0,0:0:0:0:
236,244,36574,1,0,0:0:0:0:
236,244,36658,6,0,P|328:252|392:192,1,170,2|10,0:0|0:0,0:0:0:0:
152,256,37164,1,0,0:0:0:0:
152,256,37332,1,2,0:0:0:0:
236,148,37501,1,8,0:0:0:0:
308,264,37669,1,10,0:0:0:0:
444,240,37838,1,0,0:0:0:0:
308,312,38006,6,0,P|260:316|224:308,1,85,2|0,0:0|0:0,0:0:0:0:
144,200,38343,2,0,P|204:208|240:200,1,85,10|0,0:0|0:0,0:0:0:0:
316,148,38680,1,2,0:0:0:0:
416,256,38849,1,0,0:0:0:0:
456,108,39018,1,10,0:0:0:0:
332,40,39186,1,0,0:0:0:0:
332,40,39270,1,0,0:0:0:0:
332,40,39355,6,0,P|276:32|224:44,1,85,2|0,0:0|0:0,0:0:0:0:
128,120,39692,1,10,0:0:0:0:
196,332,40029,1,2,0:0:0:0:
216,316,40366,1,10,0:0:0:0:
236,304,40703,5,2,0:0:0:0:
372,296,40871,1,0,0:0:0:0:
348,164,41040,1,8,0:0:0:0:
220,212,41209,1,0,0:0:0:0:
348,252,41377,5,2,0:0:0:0:
316,120,41546,1,0,0:0:0:0:
192,168,41714,1,8,0:0:0:0:
320,208,41883,1,0,0:0:0:0:
288,76,42051,5,2,0:0:0:0:
160,124,42220,1,0,0:0:0:0:
288,76,42388,2,0,P|340:64|388:68,1,85,8|0,0:0|0:0,0:0:0:0:
488,168,42725,2,0,P|424:168|384:180,1,85,2|0,0:0|0:0,0:0:0:0:
296,200,43062,1,10,0:0:0:0:
56,76,43231,1,2,0:0:0:0:
100,204,43400,6,0,P|168:180|200:184,1,85,6|0,0:0|0:0,0:0:0:0:
179,180,43652,1,0,0:0:0:0:
179,180,43737,1,10,0:0:0:0:
296,184,43905,1,0,0:0:0:0:
373,95,44074,2,0,P|337:74|295:71,1,85,2|0,0:0|0:0,0:0:0:0:
420,216,44411,1,8,0:0:0:0:
500,120,44579,1,0,0:0:0:0:
374,96,44748,5,2,0:0:0:0:
300,188,44916,1,0,0:0:0:0:
300,188,45001,1,0,0:0:0:0:
300,188,45085,1,8,0:0:0:0:
268,72,45253,1,0,0:0:0:0:
156,116,45422,2,0,L|76:155,1,85,2|0,0:0|0:0,0:0:0:0:
240,196,45759,2,0,L|320:160,1,85,8|0,0:0|0:0,0:0:0:0:
352,24,46096,5,2,0:0:0:0:
416,144,46265,1,2,0:0:0:0:
416,144,46349,1,0,0:0:0:0:
416,144,46433,1,8,0:0:0:0:
332,252,46602,1,2,0:0:0:0:
403,353,46770,2,0,P|433:323|451:285,1,85,0|2,0:0|0:0,0:0:0:0:
392,128,47107,1,8,0:0:0:0:
240,196,47276,1,2,0:0:0:0:
122,145,47445,6,0,L|48:96,1,85,2|0,0:0|0:0,0:0:0:0:
88,256,47782,2,0,L|161:299,1,85,8|0,0:0|0:0,0:0:0:0:
192,32,48119,1,2,0:0:0:0:
51,98,48287,1,2,0:0:0:0:
204,164,48456,1,8,0:0:0:0:
68,264,48624,1,2,0:0:0:0:
248,272,48793,5,2,0:0:0:0:
372,188,48961,1,2,0:0:0:0:
372,188,49046,1,0,0:0:0:0:
372,188,49130,1,8,0:0:0:0:
236,80,49298,1,0,0:0:0:0:
380,140,49467,1,2,0:0:0:0:
220,132,49636,1,0,0:0:0:0:
376,88,49804,1,8,0:0:0:0:
224,184,49973,1,0,0:0:0:0:
300,280,50141,6,0,P|260:304|220:312,1,85,2|0,0:0|0:0,0:0:0:0:
140,212,50478,2,0,P|92:188|64:148,1,85,8|0,0:0|0:0,0:0:0:0:
180,80,50815,2,0,P|204:25|233:3,1,85,2|0,0:0|0:0,0:0:0:0:
356,60,51152,2,0,P|387:49|438:55,1,85,8|0,0:0|0:0,0:0:0:0:
428,172,51489,5,2,0:0:0:0:
384,332,51658,1,0,0:0:0:0:
224,248,51827,1,8,0:0:0:0:
20,172,52164,5,2,0:0:0:0:
64,332,52332,1,0,0:0:0:0:
224,248,52501,1,8,0:0:0:0:
413,144,52838,6,0,P|397:200|368:228,1,85,2|0,0:0|0:0,0:0:0:0:
248,236,53175,1,8,0:0:0:0:
312,108,53343,1,8,0:0:0:0:
312,108,53428,1,0,0:0:0:0:
312,108,53512,1,8,0:0:0:0:
168,120,53680,1,2,0:0:0:0:
52,208,53849,1,8,0:0:0:0:
48,64,54018,1,2,0:0:0:0:
226,60,54186,6,0,P|188:88|168:120,1,85,4|0,0:0|0:0,0:0:0:0:
168,120,54439,1,0,0:0:0:0:
168,119,54523,1,8,0:0:0:0:
284,172,54692,1,2,0:0:0:0:
180,260,54860,1,0,0:0:0:0:
316,312,55029,1,2,0:0:0:0:
436,216,55197,2,0,P|456:172|460:132,1,85,8|2,0:0|0:0,0:0:0:0:
352,40,55534,5,0,0:0:0:0:
364,184,55703,1,0,0:0:0:0:
228,144,55871,1,8,0:0:0:0:
300,268,56040,1,0,0:0:0:0:
228,144,56209,2,0,P|204:100|164:72,1,85
32,76,56546,1,8,0:0:0:0:
128,180,56714,1,0,0:0:0:0:
268,144,56883,5,2,0:0:0:0:
208,256,57051,1,2,0:0:0:0:
208,256,57136,1,0,0:0:0:0:
208,256,57220,1,8,0:0:0:0:
160,80,57388,1,2,0:0:0:0:
28,204,57557,2,0,P|9:272|16:300,1,85,2|2,0:0|0:0,0:0:0:0:
176,344,57894,1,8,0:0:0:0:
224,196,58062,1,2,0:0:0:0:
380,220,58231,6,0,P|428:184|440:140,1,85
336,120,58568,2,0,P|296:84|236:76,1,85,8|2,0:0|0:0,0:0:0:0:
164,40,58905,1,2,0:0:0:0:
72,104,59074,1,2,0:0:0:0:
76,216,59242,1,2,0:0:0:0:
172,272,59411,1,2,0:0:0:0:
248,148,59579,6,0,P|200:140|152:152,1,85,2|0,0:0|0:0,0:0:0:0:
164,146,59832,1,0,0:0:0:0:
164,146,59916,1,10,0:0:0:0:
76,216,60085,1,0,0:0:0:0:
136,308,60253,1,2,0:0:0:0:
260,324,60422,1,0,0:0:0:0:
260,324,60591,2,0,P|316:296|336:268,1,85,10|0,0:0|0:0,0:0:0:0:
424,208,60928,5,2,0:0:0:0:
424,15,61096,1,0,0:0:0:0:
310,171,61265,1,8,0:0:0:0:
493,111,61433,1,0,0:0:0:0:
310,52,61602,1,2,0:0:0:0:
424,208,61770,1,0,0:0:0:0:
424,15,61939,1,8,0:0:0:0:
310,171,62107,1,0,0:0:0:0:
272,28,62276,5,2,0:0:0:0:
144,144,62445,1,0,0:0:0:0:
144,144,62529,1,0,0:0:0:0:
144,144,62613,2,0,P|164:192|220:224,1,85,8|0,0:0|0:0,0:0:0:0:
352,168,62950,2,0,P|300:161|244:193,1,85,2|0,0:0|0:0,0:3:0:0:
240,312,63287,1,8,0:0:0:0:
352,168,63456,1,0,0:0:0:0:
272,12,63624,5,2,0:0:0:0:
144,144,63793,1,2,0:0:0:0:
148,168,63877,1,0,0:0:0:0:
152,188,63961,1,8,0:0:0:0:
352,168,64130,1,8,0:0:0:0:
348,148,64214,1,0,0:0:0:0:
345,131,64298,5,10,0:0:0:0:
156,208,64467,1,8,0:0:0:0:
386,288,64636,1,8,0:0:0:0:
224,352,64804,1,10,0:0:0:0:
252,148,64973,6,0,P|276:100|316:68,1,85,4|0,0:0|0:0,0:0:0:0:
298,78,65225,1,0,0:0:0:0:
298,78,65310,1,8,0:0:0:0:
372,236,65478,1,0,0:0:0:0:
252,148,65647,1,2,0:0:0:0:
224,296,65815,1,0,0:0:0:0:
128,176,65984,1,8,0:0:0:0:
84,312,66152,1,0,0:0:0:0:
128,176,66321,6,0,P|154:124|154:80,1,85,2|0,0:0|0:0,0:0:0:0:
298,78,66658,2,0,P|338:46|390:38,1,85,8|0,0:0|0:0,0:0:0:0:
463,118,66995,1,2,0:0:0:0:
468,280,67164,1,0,0:0:0:0:
312,232,67332,1,8,0:0:0:0:
176,320,67501,1,0,0:0:0:0:
92,192,67669,6,0,P|100:132|132:96,1,85,2|0,0:0|0:0,0:0:0:0:
112,112,67922,1,0,0:0:0:0:
112,112,68006,1,8,0:0:0:0:
240,192,68175,2,0,P|280:224|324:232,1,85,0|2,0:0|0:0,0:0:0:0:
412,160,68512,1,0,0:0:0:0:
424,24,68680,1,10,0:0:0:0:
284,80,68849,1,2,0:0:0:0:
412,160,69018,5,2,0:0:0:0:
400,180,69355,1,10,0:0:0:0:
20,280,69692,2,0,L|100:320,1,85,2|0,0:0|0:0,0:0:0:0:
228,264,70029,2,0,L|149:223,1,85,8|0,0:0|0:0,0:0:0:0:
308,172,70366,5,2,0:0:0:0:
328,312,70534,1,0,0:0:0:0:
328,312,70619,1,0,0:0:0:0:
328,312,70703,1,8,0:0:0:0:
428,236,70871,1,0,0:0:0:0:
308,172,71040,1,2,0:0:0:0:
204,328,71209,1,0,0:0:0:0:
80,288,71377,2,0,P|56:240|72:180,1,85,8|0,0:0|0:0,0:0:0:0:
180,216,71714,5,2,0:0:0:0:
76,128,71883,1,0,0:0:0:0:
184,44,72051,1,8,0:0:0:0:
184,44,72388,2,0,L|284:72,1,85,2|0,0:0|0:0,0:0:0:0:
292,164,72725,2,0,L|204:140,1,85,10|0,0:0|0:0,0:0:0:0:
248,240,73062,6,0,L|336:264,1,85,2|0,0:0|0:0,0:0:0:0:
264,360,73400,1,8,0:0:0:0:
172,188,73568,1,0,0:0:0:0:
60,240,73737,2,0,P|92:284|140:304,1,85,2|0,0:0|0:0,0:0:0:0:
180,136,74074,1,10,0:0:0:0:
304,192,74242,1,0,0:0:0:0:
304,192,74327,1,0,0:0:0:0:
304,192,74411,5,2,0:0:0:0:
328,60,74579,1,0,0:0:0:0:
304,192,74748,1,8,0:0:0:0:
448,140,74916,1,10,0:0:0:0:
448,140,75001,1,0,0:0:0:0:
448,140,75085,1,0,0:0:0:0:
324,144,75253,1,0,0:0:0:0:
336,292,75422,1,10,0:0:0:0:
284,152,75591,1,0,0:0:0:0:
296,300,75759,6,0,P|264:344|228:356,1,85,6|0,0:0|0:0,0:0:0:0:
236,354,76012,1,0,0:0:0:0:
236,354,76096,1,8,0:0:0:0:
188,216,76265,1,0,0:0:0:0:
48,160,76433,1,2,0:0:0:0:
72,308,76602,1,0,0:0:0:0:
188,216,76770,1,8,0:0:0:0:
252,84,76939,1,0,0:0:0:0:
384,140,77107,5,2,0:0:0:0:
316,232,77276,1,0,0:0:0:0:
316,232,77360,1,0,0:0:0:0:
316,232,77445,2,0,P|280:248|248:292,1,85,8|0,0:0|0:0,0:0:0:0:
320,344,77782,1,2,0:0:0:0:
160,280,77950,1,0,0:0:0:0:
152,128,78119,1,8,0:0:0:0:
204,268,78287,1,0,0:0:0:0:
120,144,78456,6,0,P|88:120|40:112,1,85,2|0,0:0|0:0,0:0:0:0:
44,111,78709,1,0,0:0:0:0:
44,111,78793,1,8,0:0:0:0:
4,252,78961,1,0,0:0:0:0:
140,252,79130,1,2,0:0:0:0:
272,340,79298,1,0,0:0:0:0:
240,200,79467,1,8,0:0:0:0:
152,372,79636,1,0,0:0:0:0:
332,260,79804,6,0,P|349:207|338:156,1,85,2|0,0:0|0:0,0:0:0:0:
196,96,80141,1,8,0:0:0:0:
196,96,80478,1,2,0:0:0:0:
84,172,80647,1,0,0:0:0:0:
100,300,80815,1,8,0:0:0:0:
220,340,80984,1,0,0:0:0:0:
372,232,81152,6,0,P|328:208|280:212,1,85,2|0,0:0|0:0,0:0:0:0:
294,207,81405,1,0,0:0:0:0:
294,207,81489,1,8,0:0:0:0:
204,312,81658,1,0,0:0:0:0:
204,312,81742,1,0,0:0:0:0:
204,312,81827,1,2,0:0:0:0:
216,172,81995,1,0,0:0:0:0:
292,292,82164,1,8,0:0:0:0:
216,172,82332,1,0,0:0:0:0:
44,204,82501,6,0,P|68:160|104:136,1,85,2|0,0:0|0:0,0:0:0:0:
216,36,82838,1,10,0:0:0:0:
372,220,83175,2,0,L|308:280,1,85,2|0,0:0|0:0,0:0:0:0:
160,292,83512,2,0,L|222:233,1,85,10|0,0:0|0:0,0:0:0:0:
340,144,83849,5,2,0:0:0:0:
222,234,84018,1,0,0:0:0:0:
268,68,84186,1,8,0:0:0:0:
372,220,84355,1,0,0:0:0:0:
268,68,84523,2,0,P|216:48|176:48,2,85,2|0|8,0:0|0:0|0:0,0:0:0:0:
192,192,85029,1,0,0:0:0:0:
72,272,85197,6,0,P|48:220|52:168,1,85,2|0,0:0|0:0,0:0:0:0:
100,64,85534,1,8,0:0:0:0:
100,64,85871,2,0,L|164:128,1,85,2|0,0:0|0:0,0:0:0:0:
288,108,86209,2,0,L|224:48,1,85,2|0,0:0|0:0,0:0:0:0:
152,216,86546,6,0,P|200:244|312:240,1,170,4|8,0:0|0:0,0:0:0:0:
248,100,87051,1,0,0:0:0:0:
152,216,87220,1,2,0:0:0:0:
296,172,87388,1,0,0:0:0:0:
392,56,87557,1,8,0:0:0:0:
452,192,87725,1,0,0:0:0:0:
316,160,87894,5,2,0:0:0:0:
412,44,88062,1,0,0:0:0:0:
476,176,88231,1,8,0:0:0:0:
200,320,88568,2,0,L|116:280,1,85,2|0,0:0|0:0,0:0:0:0:
100,172,88905,2,0,L|188:216,1,85,10|0,0:0|0:0,0:0:0:0:
308,152,89242,6,0,P|384:188|476:168,1,170,2|8,0:0|0:0,0:0:0:0:
388,60,89748,1,0,0:0:0:0:
280,44,89916,2,0,P|232:68|204:104,1,85
120,152,90253,1,8,0:0:0:0:
104,280,90422,1,0,0:0:0:0:
216,340,90591,5,0,0:0:0:0:
216,340,90928,1,0,0:0:0:0:
360,320,91265,2,0,P|424:300|452:268,1,85,2|0,0:0|0:0,0:0:0:0:
392,188,91602,2,0,P|436:160|452:132,1,85,10|0,0:0|0:0,0:0:0:0:
356,52,91939,5,4,0:0:0:0:
260,168,92107,1,0,0:0:0:0:
260,168,92192,1,0,0:0:0:0:
260,168,92276,1,8,0:0:0:0:
148,232,92445,1,0,0:0:0:0:
244,316,92613,1,2,0:0:0:0:
364,276,92782,1,0,0:0:0:0:
440,176,92950,1,8,0:0:0:0:
320,136,93119,1,0,0:0:0:0:
344,248,93287,5,2,0:0:0:0:
440,148,93456,1,0,0:0:0:0:
312,104,93624,1,8,0:0:0:0:
56,40,93961,2,0,P|24:76|12:120,1,85,2|0,0:0|0:0,0:0:0:0:
107,120,94298,2,0,P|85:156|79:198,1,85,8|0,0:0|0:0,0:0:0:0:
176,188,94636,6,0,P|160:236|164:280,1,85,2|0,0:0|0:0,0:0:0:0:
308,260,94973,1,8,0:0:0:0:
424,344,95141,1,0,0:0:0:0:
280,352,95310,2,0,P|220:296|232:204,1,170,2|8,0:0|0:0,0:0:0:0:
280,80,95815,6,0,P|340:68|392:84,1,85,2|0,0:0|0:0,0:0:0:0:
480,156,96152,2,0,P|432:144|384:156,1,85,0|8,0:0|0:0,0:0:0:0:
332,228,96489,1,0,0:0:0:0:
228,304,96658,5,2,0:0:0:0:
136,240,96827,1,2,0:0:0:0:
108,132,96995,1,0,0:0:0:0:
152,28,97164,1,2,0:0:0:0:
272,56,97332,6,0,P|320:76|352:116,1,85,4|0,0:0|0:0,0:0:0:0:
342,99,97585,1,0,0:0:0:0:
342,99,97669,1,2,0:0:0:0:
444,116,97838,1,0,0:0:0:0:
366,314,98175,1,0,0:0:0:0:
292,384,98343,1,2,0:0:0:0:
224,308,98512,1,0,0:0:0:0:
132,336,98680,6,0,P|88:304|68:260,1,85,0|0,0:0|0:0,0:0:0:0:
73,278,99018,1,2,0:0:0:0:
276,268,99355,1,0,0:0:0:0:
368,224,99523,1,0,0:0:0:0:
324,132,99692,1,2,0:0:0:0:
232,176,99860,1,0,0:0:0:0:
356,268,100029,6,0,P|440:280|484:352,1,170,0|2,0:0|0:0,0:0:0:0:
388,360,100534,1,0,0:0:0:0:
180,324,100871,1,0,0:0:0:0:
248,248,101040,1,2,0:0:0:0:
220,148,101209,1,0,0:0:0:0:
248,248,101377,5,0,0:0:0:0:
212,260,101714,1,2,0:0:0:0:
60,124,102051,1,0,0:0:0:0:
128,48,102220,1,0,0:0:0:0:
228,36,102388,1,2,0:0:0:0:
320,84,102557,1,0,0:0:0:0:
228,36,102725,6,0,P|152:56|108:164,1,170,2|0,0:0|0:0,0:0:0:0:
188,192,103231,1,0,0:0:0:0:
348,316,103568,1,0,0:0:0:0:
424,248,103737,1,2,0:0:0:0:
340,188,103905,1,0,0:0:0:0:
372,284,104074,5,2,0:0:0:0:
448,216,104242,1,0,0:0:0:0:
364,156,104411,1,2,0:0:0:0:
180,68,104748,2,0,P|132:84|100:124,1,85,0|0,0:0|0:0,0:0:0:0:
188,172,105085,2,0,P|155:202|137:245,1,85,2|0,0:0|0:0,0:0:0:0:
240,260,105422,6,0,P|288:328|384:324,1,170
420,244,105928,1,0,0:0:0:0:
508,208,106096,2,0,P|432:148|348:184,1,170
280,220,106602,2,0,P|240:244|184:236,1,85
128,176,106939,1,0,0:0:0:0:
256,192,107107,12,0,108793,0:0:0:0:
