osu file format v9

[General]
AudioFilename: DJ Fresh - Gold Dust (Out NOW).mp3
AudioLeadIn: 0
PreviewTime: 45648
Countdown: 1
SampleSet: Normal
StackLeniency: 0.7
Mode: 0
LetterboxInBreaks: 1

[Editor]
Bookmarks: 24466,46161,67856
DistanceSpacing: 1.1
BeatDivisor: 4
GridSize: 4

[Metadata]
Title:Gold Dust
Artist:DJ Fresh
Creator:galvenize
Version:Normal
Source:
Tags:Kriers

[Difficulty]
HPDrainRate:4
CircleSize:3
OverallDifficulty:4
ApproachRate:5
SliderMultiplier:0.8
SliderTickRate:1

[Events]
//Background and Video events
0,0,"gdust.jpg"
//Break Periods
2,89746,93770
//Storyboard Layer 0 (Background)
//Storyboard Layer 1 (Fail)
//Storyboard Layer 2 (Pass)
//Storyboard Layer 3 (Foreground)
//Storyboard Sound Samples
//Background Colour Transformations
3,100,163,162,255

[TimingPoints]
55,338.983050847458,4,1,0,90,1,0
46156,-100,4,1,0,90,0,1
67851,-100,4,1,0,90,0,0
94927,-100,4,2,0,90,0,0
116622,-100,4,1,0,90,0,0
138360,-100,4,1,0,90,0,1
160055,-100,4,1,0,90,0,0

[Colours]
Combo1 : 112,143,150
Combo2 : 86,158,128
Combo3 : 160,149,208

[HitObjects]
120,56,24461,2,0,B|108:116|120:152,1,80,0|8
204,128,25139,2,0,B|212:184|196:228,1,80,0|8
176,292,25817,1,0
256,328,26156,1,8
336,288,26495,2,0,B|336:184,1,80,0|8
328,120,27173,5,0
256,76,27512,1,8
180,116,27851,2,0,B|84:116,1,80,0|8
72,200,28529,2,0,B|168:200,1,80,0|8
240,200,29207,1,0
256,288,29546,1,8
320,228,29885,6,0,B|384:248|400:296,1,80,0|8
448,208,30563,1,0
448,120,30902,1,8
360,136,31241,2,0,B|340:96|364:40,1,80,0|8
272,40,31919,1,0
184,40,32258,1,8
256,192,32597,12,0,34631
256,64,35309,5,0
256,152,35648,1,8
256,240,35987,2,0,B|256:344,1,80,0|8
176,292,36665,1,0
100,248,37004,2,0,B|72:292,2,40,8|0|0
148,172,37682,1,8
72,56,38021,5,0
160,40,38360,1,8
248,40,38699,2,0,B|344:40,1,80,0|8
416,44,39377,1,0
500,24,39716,1,8
476,108,40055,2,0,B|452:160|400:176,1,80,0|8
300,256,40732,6,0,B|272:224|268:184,1,80,0|8
244,100,41410,1,0
180,164,41749,1,8
156,80,42088,2,0,B|100:52|48:52,1,80,0|8
72,144,42766,6,0,B|76:232|144:312,1,160
256,172,44122,1,0
388,288,44800,1,0
256,136,46156,5,0
296,60,46495,2,0,B|229:33|159:67|149:146|197:201,1,240,8|0
256,256,47851,1,8
328,308,48190,1,0
400,256,48529,1,8
328,208,48868,2,0,B|328:96,2,80,0|8|0
80,120,50563,5,8
128,192,50902,1,0
128,280,51241,1,8
204,236,51580,1,0
232,152,51919,2,0,B|280:168|304:216|308:264|256:312,1,160,8|0
436,200,53275,6,0,B|436:96,1,80,8|0
368,64,53953,2,0,B|416:16,2,40,8|0|0
312,132,54631,1,8
276,52,54970,2,0,B|220:32|188:84|120:104,1,160
60,264,56326,1,0
236,248,57004,5,0
196,324,57343,2,0,B|263:351|333:317|343:238|295:183,1,240,8|0
256,112,58699,2,0,B|164:184,2,80,8|0|8
328,60,59716,1,0
404,104,60055,1,8
336,160,60393,1,0
72,192,61410,5,8
152,228,61749,2,0,B|132:272|76:280,2,80,0|8|0
152,140,62766,2,0,B|176:88|232:40|300:32|384:64,1,240,8|0
436,88,64122,1,8
364,140,64461,2,0,B|364:256,1,80,0|8
256,192,65139,12,0,67173
140,56,67851,5,0
192,128,68190,1,8
256,68,68529,1,0
320,128,68868,1,8
372,56,69207,2,0,B|412:96|404:144,1,80,0|8
360,204,69885,2,0,B|320:224|276:204,1,80,0|8
140,200,70563,5,0
92,272,70902,1,8
180,276,71241,2,0,B|236:276|260:304,1,80,0|8
332,340,71919,1,0
420,340,72258,1,8
372,264,72597,2,0,B|352:216|372:160,1,80,0|8
212,168,73275,6,0,B|248:144|256:100,2,80,0|8|0
160,96,74292,1,8
92,44,74631,2,0,B|40:104|64:200,1,160
108,272,75648,1,8
256,192,75987,12,0,78021
72,192,78699,5,0
160,192,79038,1,8
248,192,79377,1,0
204,116,79716,2,0,B|204:32,1,80,8|0
284,72,80393,2,0,B|284:16,2,40,8|0|0
336,140,81071,1,8
376,288,81410,6,0,B|332:320|276:308,1,80,0|8
316,224,82088,1,0
404,208,82427,2,0,B|452:192|456:132,1,80,8|0
432,64,83105,1,8
364,116,83444,2,0,B|336:72|360:20,2,80,0|8|0
292,164,84461,5,8
256,84,84800,2,0,B|212:116|208:160,1,80,0|8
168,224,85478,2,0,B|168:336,1,80,0|8
256,320,86156,1,0
340,292,86495,1,8
256,192,86834,12,0,89546
256,60,94970,5,0
256,192,95478,1,2
256,324,95987,1,0
144,256,96495,1,0
28,192,97004,2,2,B|28:68,1,120,2|0
68,52,97682,5,0
152,156,98190,1,2
228,48,98699,1,0
308,152,99207,1,0
388,44,99716,2,2,B|436:56|472:84|480:136|468:172,1,160,2|0
380,260,100902,5,2
256,216,101410,1,0
132,260,101919,1,0
44,164,102427,2,2,B|36:108|60:64|108:52|136:48,1,160,2|0
140,180,103614,5,2
256,240,104122,1,0
372,180,104631,1,0
256,120,105139,2,2,B|256:256,1,120,2|0
256,284,105817,5,0
164,192,106326,1,2
256,96,106834,1,0
348,192,107343,1,0
480,192,107851,6,2,B|480:248|456:288|388:292|344:256,1,160,2|0
292,244,108868,1,0
212,208,109207,1,2
132,172,109546,1,0
96,148,109716,2,0,B|48:160|24:216|40:264|88:304,1,160
92,312,110563,2,2,B|268:312,1,160,2|0
332,272,111580,6,0,B|360:236|364:200,1,80
368,112,112258,2,0,B|344:72|300:60,1,80
220,68,112936,1,0
140,108,113275,1,0
256,192,113953,12,0,115987
76,268,116665,5,0
116,188,117004,1,8
204,188,117343,2,0,B|304:188,1,80,0|8
352,132,118021,1,0
400,204,118360,2,0,B|444:168,2,40,8|0|0
336,268,119038,2,0,B|312:316|236:312,1,80,8|0
184,296,119716,5,8
148,216,120055,2,0,B|92:248|44:232,1,80,0|8
88,152,120732,2,0,B|136:120|200:140,1,80,0|8
236,184,121410,1,0
256,100,121749,1,8
444,80,122088,6,0,B|448:128|424:168,1,80,0|8
348,192,122766,1,0
412,252,123105,1,8
396,292,123275,1,0
360,316,123444,2,0,B|308:336|268:328,1,80,0|8
200,300,124122,2,0,B|140:288|88:300,1,80,0|8
256,192,124800,12,0,126834
132,128,127512,5,0
176,204,127851,1,8
88,204,128190,1,0
132,128,128529,2,0,B|176:104|224:128,1,80,8|0
268,188,129207,2,0,B|280:228|268:264,2,40,8|0|0
296,104,129885,1,8
408,256,130224,5,0
336,308,130563,1,8
248,308,130902,2,0,B|156:308,1,80,0|8
112,240,131580,1,0
56,308,131919,1,8
24,228,132258,2,0,B|12:168|44:120,1,80,0|8
140,36,132936,5,0
140,124,133275,1,8
216,76,133614,1,0
216,164,133953,2,0,B|192:200|156:208,2,40,8|0|0
296,124,134631,1,8
340,124,134800,1,0
384,124,134970,2,0,B|384:236,1,80,0|8
256,192,135648,12,0,137682
380,168,138360,5,0
420,244,138699,2,0,B|353:271|283:237|273:158|321:103,1,240,8|0
380,48,140055,1,8
296,24,140393,1,0
224,76,140732,1,8
136,80,141071,2,0,B|88:56|72:92|36:44,2,80,0|8|0
84,152,142088,2,0,B|76:192,1,40,8|0
188,264,142766,5,8
228,184,143105,1,0
280,256,143444,1,8
316,232,143614,1,0
352,204,143783,1,0
396,276,144122,2,0,B|451:229|454:151|389:105|317:122,1,240,8|0
240,96,145478,6,0,B|276:56,2,40,8|0|0
184,164,146156,1,8
152,196,146326,1,0
120,228,146495,2,0,B|84:268,2,40,0|0|8
192,280,147173,2,0,B|230:218|208:143|132:120|70:158,1,240
352,256,149207,5,0
440,256,149546,2,0,B|448:196|416:136|352:108|280:120,1,240,8|0
200,120,150902,1,8
112,120,151241,1,0
156,196,151580,1,8
156,240,151749,1,0
156,284,151919,5,0
240,316,152258,1,8
324,284,152597,2,0,B|488:284,1,160
476,196,153614,6,0,B|476:116,1,80,8|0
436,36,154292,1,8
376,100,154631,1,0
340,20,154970,2,0,B|248:40|220:132,1,160,8|0
60,184,156326,5,8
20,264,156665,2,0,B|68:288|116:256,1,80,0|8
156,200,157343,1,0
196,276,157682,1,8
244,200,158021,1,0
256,192,158190,12,0,159716
196,88,160055,6,0,B|152:112|148:156,2,80,0|8|0
256,152,161071,1,8
316,88,161410,2,0,B|360:112|364:156,2,80,0|8|0
256,152,162427,5,8
256,196,162597,2,0,B|240:244|276:244|256:320,1,120,0|8
104,232,163783,5,8
104,188,163953,2,0,B|100:148|120:148|104:68,1,120,0|8
192,68,164800,2,0,B|272:68,1,80,0|8
328,136,165478,6,0,B|368:112|372:64,2,80,0|8|0
256,192,166495,1,8
184,248,166834,2,0,B|144:272|140:320,2,80,0|8|0
256,192,167851,5,8
288,224,168021,2,0,B|312:264|328:248|384:304,1,120,0|8
256,192,169207,5,8
224,160,169377,2,0,B|200:120|184:136|128:80,1,120,0|8
72,148,170224,1,0
72,236,170563,1,8
148,192,170902,6,0,B|240:192,1,80,0|8
316,192,171580,1,0
404,192,171919,2,0,B|456:192,2,40,8|0|0
316,192,172597,1,8
256,128,172936,1,0
188,72,173275,5,8
152,100,173444,2,0,B|108:140|104:212,1,120,0|8
324,312,174631,5,8
360,284,174800,2,0,B|404:244|408:172,1,120,0|8
384,92,175648,1,0
308,48,175987,1,8
256,120,176326,6,0,B|256:184,2,40,0|0|8
180,76,177004,1,0
112,132,177343,1,8
112,220,177682,2,0,B|40:220,2,40,0|0|8
200,220,178360,1,0
288,220,178699,1,8
256,192,179038,12,0,181410
