osu file format v9

[General]
AudioFilename: DJ Fresh - Gold Dust (Out NOW).mp3
AudioLeadIn: 0
PreviewTime: 45648
Countdown: 0
SampleSet: Soft
StackLeniency: 0.7
Mode: 0
LetterboxInBreaks: 1

[Editor]
Bookmarks: 24466,46161,67856,89546,138699
DistanceSpacing: 1
BeatDivisor: 4
GridSize: 4

[Metadata]
Title:Gold Dust
Artist:DJ Fresh
Creator:galvenize
Version:Easy
Source:
Tags:Kriers

[Difficulty]
HPDrainRate:2
CircleSize:3
OverallDifficulty:2
ApproachRate:3
SliderMultiplier:0.6
SliderTickRate:1

[Events]
//Background and Video events
0,0,"gdust.jpg"
//Break Periods
2,89746,93530
//Storyboard Layer 0 (Background)
//Storyboard Layer 1 (Fail)
//Storyboard Layer 2 (Pass)
//Storyboard Layer 3 (Foreground)
//Storyboard Sound Samples
//Background Colour Transformations
3,100,163,162,255

[TimingPoints]
55,338.983050847458,4,1,0,90,1,0
46156,-100,4,1,0,90,0,1
67851,-100,4,1,0,90,0,0
94927,-100,4,2,0,90,0,0
116495,-100,4,1,0,90,0,0
138360,-100,4,1,0,90,0,1
160055,-100,4,1,0,90,0,0

[Colours]
Combo1 : 112,143,150
Combo2 : 86,158,128
Combo3 : 160,149,208

[HitObjects]
256,72,24461,1,0
256,192,25139,1,8
256,312,25817,1,0
152,248,26495,2,0,B|108:192|164:104,1,120,8|0
256,80,27851,5,8
376,80,28529,1,0
316,184,29207,2,0,B|316:316,1,120,8|0
200,328,30563,1,8
128,232,31241,1,0
204,136,31919,1,8
256,192,32597,12,0,34631
232,104,35309,6,0,B|168:120|152:184,1,120,0|8
256,244,36665,2,0,B|256:368,2,120,0|8|0
312,140,38699,1,8
420,192,39377,1,0
312,240,40055,2,0,B|176:240,1,120,8|0
84,192,41410,5,8
84,312,42088,1,0
196,264,42766,2,0,B|208:168|312:152,1,120,8|0
256,192,43614,12,0,45478
352,132,46156,6,0,B|252:96|152:140,1,180,4|8
196,248,47851,5,0
256,248,48190,1,0
316,248,48529,1,8
376,248,48868,2,0,B|500:248,2,120,4|0|0
320,140,50902,6,0,B|320:64,1,60,0|8
284,32,51580,1,4
232,60,51919,2,0,B|164:80|88:52,1,120,0|8
52,172,53275,6,0,B|52:304,1,120,0|8
76,348,54292,1,4
132,324,54631,1,0
188,348,54970,2,0,B|436:348,1,240,0|8
440,228,57004,5,4
440,168,57343,2,0,B|400:104|304:116,1,120,0|8
220,112,58699,2,0,B|220:240,1,120,0|8
220,292,59716,2,4,B|220:380,2,60,4|0|0
112,148,61410,5,0
160,112,61749,1,0
208,148,62088,1,8
260,116,62427,2,0,B|408:116,2,120,4|0|0
148,76,64461,1,8
256,192,65139,12,0,67173
256,284,67851,5,0
144,236,68529,1,8
256,188,69207,1,0
368,144,69885,2,0,B|348:80|276:52,1,120,0|0
168,60,71241,5,8
88,152,71919,1,0
168,244,72597,2,0,B|208:292|284:296,1,120,8|0
336,192,73953,5,8
456,192,74631,1,0
336,192,75309,2,0,B|208:192,1,120,8|0
256,192,76156,12,0,78021
188,268,78699,6,0,B|168:316|128:324,2,60,0|0|8
116,172,80055,2,0,B|156:120|228:108,1,120,0|8
324,268,81410,6,0,B|344:316|384:324,2,60,0|0|8
396,172,82766,2,0,B|356:120|284:108,1,120,0|8
256,224,84122,5,0
168,308,84800,1,8
84,224,85478,1,0
168,140,86156,2,0,B|252:140,1,60,8|0
256,192,86834,12,4,89546
400,104,94970,6,0,B|308:104,1,90,0|0
220,108,95987,1,0
376,196,97004,1,0
348,312,97682,6,0,B|252:336|160:312,1,180
92,268,99207,2,0,B|72:216|92:156,1,90
144,76,100393,1,0
312,144,101410,5,0
400,160,101919,2,0,B|424:64,1,90
304,60,103105,5,0
132,116,104122,1,0
128,296,105139,2,0,B|232:316|268:304,1,120
316,252,106326,5,0
384,192,106834,2,0,B|484:192,2,90
276,144,108529,6,0,B|228:116|208:52,1,90
136,116,109546,1,0
136,208,110055,1,0
88,284,110563,2,0,B|152:308|224:304,1,120
256,192,111580,12,0,115987
132,72,116665,5,0
144,192,117343,2,0,B|200:208|292:196,1,120,8|0
364,132,118699,2,0,B|388:192|364:264,1,120,8|0
256,296,120055,5,8
144,252,120732,1,0
40,312,121410,1,8
36,192,122088,6,0,B|60:128|136:112,1,120,0|8
212,36,123444,2,0,B|252:100|324:112,1,120,0|8
256,192,124800,12,0,126834
76,192,127512,5,4
160,108,128190,2,0,B|224:96|288:108,1,120,8|0
376,180,129546,1,8
268,236,130224,5,0
376,284,130902,1,8
268,340,131580,1,0
156,292,132258,2,0,B|104:256|92:176,1,120,8|0
164,92,133614,5,8
256,172,134292,1,0
348,92,134970,1,8
256,192,135648,12,0,137682
352,252,138360,6,0,B|252:288|152:244,1,180,4|8
196,136,140055,5,0
256,136,140394,1,0
316,136,140733,1,8
376,136,141072,2,0,B|500:136,2,120,4|0|0
320,244,143106,6,0,B|320:320,1,60,0|8
284,352,143784,1,4
232,324,144123,2,0,B|164:304|88:332,1,120,0|8
52,212,145479,6,0,B|52:80,1,120,0|8
76,36,146496,1,4
132,60,146835,1,8
188,36,147174,6,0,B|436:36,1,240,0|8
440,156,149208,5,4
440,216,149547,2,0,B|400:280|304:268,1,120,0|8
220,272,150903,2,0,B|220:144,1,120,0|8
220,92,151919,2,0,B|220:4,2,60,4|0|0
112,236,153614,5,0
160,272,153953,1,0
208,236,154292,1,8
260,268,154631,2,0,B|408:268,2,120,4|0|0
148,308,156665,1,8
256,192,157343,12,0,159377
144,60,160055,6,0,B|104:116|120:192,1,120,0|8
204,256,161410,2,0,B|276:224|304:160,1,120,0|8
360,80,162766,2,0,B|408:80,2,30
180,80,164122,2,0,B|152:80,2,30
252,244,165478,6,0,B|288:304|360:324,1,120,0|8
376,204,166834,2,0,B|392:132|452:80,1,120,0|8
256,192,168190,12,0,170224
256,48,170902,5,0
256,168,171580,1,8
156,232,172258,1,0
256,300,172936,1,8
352,228,173614,6,0,B|388:196|408:144,1,90
252,160,174970,2,0,B|224:116|228:68,1,90
312,44,175987,1,0
256,192,176326,12,0,181410
