osu file format v14

[General]
AudioFilename: Flashlight (Radio Edit)-DJ Fresh.mp3
AudioLeadIn: 0
PreviewTime: 65509
Countdown: 0
SampleSet: Soft
StackLeniency: 0.4
Mode: 0
LetterboxInBreaks: 0
WidescreenStoryboard: 0

[Editor]
Bookmarks: 120714,131686
DistanceSpacing: 1.3
BeatDivisor: 4
GridSize: 4
TimelineZoom: 1

[Metadata]
Title:Flashlight (Radio Edit)
TitleUnicode:Flashlight (Radio Edit)
Artist:DJ Fresh (feat. Ellie Goulding)
ArtistUnicode:DJ Fresh (feat. Ellie Goulding)
Creator:Frey
Version:Insane
Source:
Tags:HootOwlStar Halcyon Days dnb drum'n'bass drum and bass dubstep synthpop
BeatmapID:622287
BeatmapSetID:274035

[Difficulty]
HPDrainRate:7
CircleSize:4
OverallDifficulty:8
ApproachRate:9
SliderMultiplier:1.8
SliderTickRate:1

[Events]
//Background and Video events
0,0,"night.jpg",0,0
//Break Periods
2,120909,131081
//Storyboard Layer 0 (Background)
//Storyboard Layer 1 (Fail)
//Storyboard Layer 2 (Pass)
//Storyboard Layer 3 (Foreground)
//Storyboard Sound Samples

[TimingPoints]
9624,342.857142857143,4,2,0,80,1,0
10995,-100,4,1,0,80,0,0
32938,-100,4,2,0,80,0,0
43052,-100,4,1,0,80,0,0
43909,-125,4,1,0,80,0,0
65509,-100,4,1,0,80,0,0
87795,-100,4,2,0,80,0,0
98081,-100,4,1,0,80,0,0
98766,-125,4,1,0,80,0,0
131681,-100,4,2,0,80,0,0
139909,-100,4,2,0,75,0,0
140595,-100,4,2,0,70,0,0
141281,-100,4,2,0,65,0,0
141966,-100,4,2,0,60,0,0
148138,-100,4,1,0,15,0,0
148824,-100,4,1,0,20,0,0
149166,-100,4,1,0,30,0,0
149509,-100,4,1,0,40,0,0
149852,-100,4,1,0,50,0,0
150195,-100,4,1,0,60,0,0
150538,-100,4,1,0,70,0,0
150881,-100,4,1,0,75,0,0
153624,-125,4,1,0,80,0,0
175566,-125,4,2,0,80,0,0
177624,-200,4,2,0,80,0,0
178309,-100,4,1,0,80,0,1
208481,-100,4,2,0,80,0,0

[Colours]
Combo1 : 0,64,128
Combo2 : 0,128,255
Combo3 : 128,255,255

[HitObjects]
64,160,10481,5,2,0:0:0:0:
168,192,10652,1,0,0:0:0:0:
272,224,10824,1,0,0:0:0:0:
240,140,10995,5,0,0:0:0:0:
176,348,11338,1,8,0:0:0:0:
92,320,11509,1,0,0:0:0:0:
156,260,11681,2,0,P|244:240|364:244,1,180,0|8,0:0|0:0,0:0:0:0:
452,308,12195,1,0,0:0:0:0:
488,152,12366,6,0,P|424:168|384:184,1,90
256,20,12709,2,0,P|298:35|342:45,1,90,8|0,0:0|0:0,0:0:0:0:
256,192,13052,1,0,0:0:0:0:
192,104,13224,1,0,0:0:0:0:
320,280,13395,1,8,0:0:0:0:
344,128,13566,1,0,0:0:0:0:
192,104,13738,6,0,P|147:94|104:83,1,90,0|0,0:0|0:0,0:0:0:0:
168,212,14081,2,0,P|212:203|255:192,1,90,8|0,0:0|0:0,0:0:0:0:
192,300,14424,1,0,0:0:0:0:
80,240,14595,1,0,0:0:0:0:
140,128,14766,1,8,0:0:0:0:
168,212,14938,1,0,0:0:0:0:
80,240,15109,6,0,L|48:140,1,90
256,16,15452,2,0,L|256:120,1,90,8|0,0:0|0:0,0:0:0:0:
432,240,15795,2,0,L|464:140,1,90
336,264,16138,1,8,0:0:0:0:
404,336,16309,1,0,0:0:0:0:
364,168,16481,6,0,P|272:172|164:208,1,180,0|8,0:0|0:0,0:0:0:0:
4,32,16995,2,0,P|76:68|208:84,1,180
256,136,17509,2,0,L|235:223,1,90,8|0,0:0|0:0,0:0:0:0:
96,324,17852,6,0,P|48:252|96:152,1,180,0|8,0:0|0:0,0:0:0:0:
416,60,18366,2,0,P|464:132|416:232,1,180
335,291,18881,1,8,0:0:0:0:
256,192,19052,1,0,0:0:0:0:
322,57,19224,6,0,P|233:68|144:76,1,180,0|8,0:0|0:0,0:0:0:0:
189,326,19738,2,0,P|278:315|368:308,1,180
472,160,20252,1,8,0:0:0:0:
348,184,20424,1,0,0:0:0:0:
368,308,20595,6,0,P|456:320|480:320,1,90
348,184,20938,1,8,0:0:0:0:
296,256,21109,1,0,0:0:0:0:
164,200,21281,1,0,0:0:0:0:
216,128,21452,1,0,0:0:0:0:
296,256,21624,1,8,0:0:0:0:
124,120,21966,6,0,P|64:132|32:136,1,90
112,260,22309,2,0,P|148:300|192:340,1,90,8|0,0:0|0:0,0:0:0:0:
256,132,22652,2,0,P|264:72|268:24,1,90
408,152,22995,1,8,0:0:0:0:
236,220,23166,1,0,0:0:0:0:
168,160,23338,6,0,P|172:104|180:52,1,90
344,224,23681,2,0,P|340:280|332:332,1,90,8|0,0:0|0:0,0:0:0:0:
256,364,24024,1,0,0:0:0:0:
168,276,24195,1,0,0:0:0:0:
256,188,24366,1,8,0:0:0:0:
344,108,24538,1,0,0:0:0:0:
256,20,24709,6,0,P|172:32|128:36,1,90
48,184,25052,1,8,0:0:0:0:
36,92,25224,1,0,0:0:0:0:
135,201,25395,2,0,P|131:156|124:111,1,90
168,32,25738,1,8,0:0:0:0:
256,136,25909,1,0,0:0:0:0:
135,201,26081,6,0,P|68:188|32:176,1,90
120,352,26424,2,0,P|180:336|236:332,1,90,8|0,0:0|0:0,0:0:0:0:
344,256,26766,1,0,0:0:0:0:
168,132,26938,1,0,0:0:0:0:
256,236,27109,1,8,0:0:0:0:
256,148,27281,1,0,0:0:0:0:
180,272,27452,6,0,P|96:256|8:220,1,180,0|8,0:0|0:0,0:0:0:0:
156,44,27966,2,0,P|256:20|376:20,1,180
404,220,28481,1,8,0:0:0:0:
256,192,28652,1,0,0:0:0:0:
108,164,28824,6,0,B|56:244|128:252|76:344,1,180,0|8,0:0|0:0,0:0:0:0:
404,220,29338,2,0,B|456:140|384:132|436:40,1,180,0|0,0:0|0:0,0:0:0:0:
504,104,29852,1,8,0:0:0:0:
328,160,30024,1,0,0:0:0:0:
372,308,30195,6,0,P|240:296|156:284,1,180,0|8,0:0|0:0,0:0:0:0:
0,136,30709,2,0,P|132:124|216:112,1,180
256,192,31224,1,8,0:0:0:0:
332,266,31395,1,0,0:0:0:0:
124,332,31566,5,12,0:0:0:0:
456,84,32938,6,0,P|366:83|278:102,1,180,0|2,0:0|0:0,0:0:0:0:
256,192,33452,1,0,0:0:0:0:
188,132,33624,2,0,P|177:88|168:44,1,90
324,252,33966,2,0,P|334:295|343:339,1,90,2|0,0:0|0:0,0:0:0:0:
168,284,34309,6,0,P|100:272|60:264,1,90
188,132,34652,2,0,P|232:124|277:116,1,90,2|0,0:0|0:0,0:0:0:0:
436,148,34995,1,0,0:0:0:0:
324,268,35166,1,0,0:0:0:0:
344,180,35338,1,2,0:0:0:0:
504,216,35509,1,0,3:0:0:0:
392,336,35681,6,0,P|308:324|208:284,1,180,0|2,3:0|0:0,0:0:0:0:
219,290,36195,1,0,0:0:0:0:
296,156,36366,2,0,P|340:136|388:128,1,90
364,216,36709,1,2,0:0:0:0:
219,290,36881,1,0,0:0:0:0:
152,144,37052,6,0,P|144:96|152:52,1,90
256,28,37395,1,2,0:0:0:0:
256,136,37566,1,0,0:0:0:0:
256,248,37738,1,0,0:0:0:0:
256,356,37909,1,0,0:0:0:0:
361,328,38081,2,0,P|368:284|360:240,1,90,2|0,0:0|0:0,0:0:0:0:
151,56,38424,6,0,P|131:136|151:232,1,180,0|2,3:0|0:0,0:0:0:0:
361,328,38938,2,0,P|381:248|361:152,1,180,0|0,0:0|0:0,0:0:0:0:
256,192,39452,1,2,0:0:0:0:
150,153,39624,1,0,0:0:0:0:
256,320,39795,6,0,B|308:320|340:288|340:288|388:284|420:256,1,180,0|2,0:0|0:0,0:0:0:0:
256,64,40309,2,0,B|204:64|172:96|172:96|124:100|92:128,1,180
160,188,40824,1,2,0:0:0:0:
76,220,40995,1,0,0:0:0:0:
108,304,41166,6,0,P|244:324|304:332,1,180,0|2,0:0|0:0,0:0:0:0:
476,144,41681,2,0,P|380:176|268:168,1,180
220,136,42195,1,2,0:0:0:0:
256,52,42366,1,0,0:0:0:0:
302,175,42538,6,0,L|250:295,1,90,0|0,0:0|0:0,0:0:0:0:
232,340,42881,1,2,0:0:0:0:
176,268,43052,5,0,0:0:0:0:
320,332,43224,1,0,0:0:0:0:
212,184,43395,1,0,0:0:0:0:
68,248,43566,2,0,P|56:180|48:112,1,135,8|0,0:0|2:0,0:0:0:0:
108,48,43909,6,0,P|183:61|251:73,1,144,6|0,0:0|0:0,0:0:0:0:
440,108,44424,1,2,0:0:0:0:
360,200,44595,2,0,P|351:164|346:129,1,72,8|0,0:0|0:0,0:0:0:0:
440,108,44938,1,0,0:0:0:0:
360,200,45109,6,0,L|289:212|218:224,1,144,2|0,0:0|0:0,0:0:0:0:
48,160,45624,1,2,0:0:0:0:
464,224,45966,1,8,0:0:0:0:
256,356,46309,1,2,0:0:0:0:
256,260,46481,1,2,0:0:0:0:
256,164,46652,6,0,P|320:136|392:152,1,144,4|0,0:0|0:0,0:0:0:0:
336,304,47166,1,0,0:0:0:0:
256,356,47338,2,0,P|148:340|92:328,1,144,8|0,0:0|0:0,0:0:0:0:
8,192,47852,1,2,0:0:0:0:
92,232,48024,5,0,0:0:0:0:
164,88,48195,1,2,0:0:0:0:
84,140,48366,1,0,0:0:0:0:
168,184,48538,1,0,0:0:0:0:
168,184,48624,1,0,0:0:0:0:
168,184,48709,2,0,P|228:176|264:168,1,72,8|0,0:0|0:0,0:0:0:0:
448,92,49052,1,0,0:0:0:0:
332,152,49224,1,0,0:0:0:0:
384,272,49395,6,0,P|284:268|212:260,1,144,6|0,0:0|0:0,0:0:0:0:
172,340,49909,1,0,0:0:0:0:
136,216,50081,1,8,0:0:0:0:
256,172,50252,1,0,0:0:0:0:
100,292,50424,1,0,0:0:0:0:
24,112,50595,6,0,L|104:92|176:72,1,144,6|0,0:0|0:0,0:0:0:0:
236,16,51109,2,0,P|246:50|251:85,1,72
216,256,51452,1,8,0:0:0:0:
128,288,51624,1,0,0:0:0:0:
144,196,51795,1,0,0:0:0:0:
312,220,51966,1,0,0:0:0:0:
256,56,52138,6,0,P|180:64|84:72,1,144,6|0,0:0|0:0,0:0:0:0:
256,192,52652,1,2,0:0:0:0:
256,192,52824,2,0,P|292:180|340:172,1,72,8|0,0:0|0:0,0:0:0:0:
316,268,53166,1,0,0:0:0:0:
196,316,53338,6,0,P|120:316|40:296,1,144,2|2,0:0|0:0,0:0:0:0:
40,208,53852,1,0,0:0:0:0:
132,188,54024,1,0,0:0:0:0:
53,301,54195,1,8,0:0:0:0:
262,359,54366,1,0,0:0:0:0:
148,280,54538,2,0,P|160:188|164:152,1,108,0|0,0:0|2:0,0:0:0:0:
212,108,54881,6,0,P|256:96|340:148,1,144,6|0,0:0|0:0,0:0:0:0:
256,192,55395,1,2,0:0:0:0:
108,112,55566,2,0,L|120:16,1,72,8|0,0:0|0:0,0:0:0:0:
96,204,55909,1,0,0:0:0:0:
4,184,56081,6,0,P|12:255|15:327,1,144,2|0,0:0|0:0,0:0:0:0:
16,92,56595,1,2,0:0:0:0:
256,300,56938,1,8,0:0:0:0:
496,92,57281,1,2,0:0:0:0:
348,36,57452,1,2,0:0:0:0:
300,188,57624,6,0,P|372:180|452:168,1,144
496,92,58138,1,0,0:0:0:0:
464,296,58309,2,0,L|412:288|364:276,1,72,8|0,0:0|0:0,0:0:0:0:
300,188,58652,1,0,0:0:0:0:
316,96,58824,1,2,0:0:0:0:
388,156,58995,5,0,0:0:0:0:
108,104,59166,1,2,0:0:0:0:
172,36,59338,1,0,0:0:0:0:
196,124,59509,1,0,0:0:0:0:
196,124,59595,1,0,0:0:0:0:
196,124,59681,2,0,P|204:192|204:224,1,72,8|0,0:0|0:0,0:0:0:0:
140,316,60024,1,0,0:0:0:0:
12,276,60195,1,0,0:0:0:0:
112,184,60366,6,0,P|200:196|256:200,1,144,6|0,0:0|0:0,0:0:0:0:
316,128,60881,1,0,0:0:0:0:
256,56,61052,1,8,0:0:0:0:
156,192,61224,1,0,0:0:0:0:
256,328,61395,1,0,0:0:0:0:
412,264,61566,6,0,P|416:192|408:96,1,144,6|0,0:0|0:0,0:0:0:0:
288,172,62081,1,0,0:0:0:0:
304,280,62252,1,0,0:0:0:0:
412,264,62424,2,0,L|496:252,1,72,8|0,0:0|0:0,0:0:0:0:
256,192,63109,5,0,0:0:0:0:
256,192,63195,12,0,64995,2:0:0:0:
480,148,65509,5,8,0:0:0:0:
416,72,65681,1,0,0:0:0:0:
324,104,65852,6,0,P|316:188|348:276,1,180,0|8,0:0|0:0,0:0:0:0:
444,308,66366,1,0,0:0:0:0:
480,148,66538,1,0,0:0:0:0:
324,104,66709,1,0,0:0:0:0:
280,260,66881,2,0,P|231:267|187:271,1,90,8|0,0:0|0:0,0:0:0:0:
24,120,67224,6,0,P|64:164|96:192,1,90
256,148,67566,2,0,P|223:117|193:83,1,90,8|0,0:0|0:0,0:0:0:0:
256,20,67909,1,0,0:0:0:0:
372,128,68081,1,0,0:0:0:0:
256,236,68252,1,8,0:0:0:0:
192,300,68424,1,0,0:0:0:0:
256,364,68595,6,0,P|324:356|364:348,1,90
500,236,68938,2,0,P|432:228|392:220,1,90,8|0,0:0|0:0,0:0:0:0:
328,188,69281,1,0,0:0:0:0:
400,132,69452,1,0,0:0:0:0:
340,276,69624,1,8,0:0:0:0:
500,236,69795,1,0,0:0:0:0:
456,76,69966,6,0,P|412:88|336:104,1,90
144,52,70309,1,8,0:0:0:0:
256,76,70481,1,0,0:0:0:0:
256,192,70652,2,0,P|172:176|132:160,1,90
88,136,70995,1,8,0:0:0:0:
256,76,71166,1,0,0:0:0:0:
228,256,71338,6,0,P|144:268|32:272,1,180,0|8,0:0|0:0,0:0:0:0:
176,32,71852,2,0,P|256:64|352:116,1,180
308,232,72366,1,8,0:0:0:0:
432,264,72538,1,0,0:0:0:0:
432,264,72709,6,0,P|464:184|440:80,1,180,0|8,0:0|0:0,0:0:0:0:
256,192,73224,2,0,P|224:272|248:376,1,180,0|0,0:0|0:0,0:0:0:0:
352,168,73738,2,0,P|340:100|332:60,1,90,8|0,0:0|0:0,0:0:0:0:
132,38,74081,6,0,P|147:126|160:216,1,180,0|8,0:0|0:0,0:0:0:0:
379,345,74595,2,0,P|364:257|352:168,1,180,0|0,0:0|0:0,0:0:0:0:
256,192,75109,1,8,0:0:0:0:
460,248,75281,1,0,0:0:0:0:
438,142,75452,6,0,P|395:156|352:168,1,90
460,248,75795,1,8,0:0:0:0:
468,48,75966,1,0,0:0:0:0:
424,40,76052,1,0,0:0:0:0:
380,32,76138,1,8,0:0:0:0:
192,96,76309,1,0,0:0:0:0:
356,208,76481,1,8,0:0:0:0:
168,268,76652,1,8,0:0:0:0:
180,180,76824,6,0,P|228:204|252:240,1,90
236,320,77166,1,8,0:0:0:0:
168,268,77338,1,0,0:0:0:0:
320,292,77509,1,0,0:0:0:0:
404,160,77681,1,0,0:0:0:0:
336,100,77852,2,0,P|316:148|324:196,1,90,8|0,0:0|0:0,0:0:0:0:
176,284,78195,6,0,P|199:199|172:114,1,180,0|8,0:0|0:0,0:0:0:0:
80,92,78709,1,0,0:0:0:0:
0,212,78881,2,0,P|104:196|124:192,1,90
265,297,79224,2,0,P|220:291|176:284,1,90,8|0,0:0|0:0,0:0:0:0:
79,92,79566,6,0,P|165:72|240:117,1,180,0|8,0:0|0:0,0:0:0:0:
144,200,80081,1,0,0:0:0:0:
144,200,80252,1,0,0:0:0:0:
80,92,80424,1,0,0:0:0:0:
241,117,80595,1,8,0:0:0:0:
220,276,80766,1,0,0:0:0:0:
408,208,80938,6,0,P|332:196|296:192,1,90
104,208,81281,2,0,P|180:196|216:192,1,90,8|0,0:0|0:0,0:0:0:0:
428,120,81624,1,0,0:0:0:0:
336,104,81795,1,0,0:0:0:0:
319,194,81966,2,0,P|309:238|302:282,1,90,8|0,0:0|0:0,0:0:0:0:
184,144,82309,6,0,P|180:56|256:24,1,180,0|8,0:0|0:0,0:0:0:0:
444,116,82824,2,0,P|452:200|448:324,1,180
204,248,83338,1,8,0:0:0:0:
292,264,83509,1,0,0:0:0:0:
236,336,83681,6,0,P|148:320|16:304,1,180,0|8,0:0|0:0,0:0:0:0:
276,48,84195,2,0,P|364:64|496:80,1,180,0|0,0:0|0:0,0:0:0:0:
328,192,84709,1,8,0:0:0:0:
256,136,84881,1,0,0:0:0:0:
184,192,85052,6,0,P|152:256|200:352,1,180,0|8,0:0|0:0,0:0:0:0:
328,192,85566,2,0,P|360:128|312:32,1,180
166,108,86081,2,0,P|211:116|256:120,1,90,8|0,0:0|0:0,0:0:0:0:
92,24,86424,5,0,0:0:0:0:
40,128,86595,1,0,0:0:0:0:
116,216,86766,1,0,0:0:0:0:
152,216,86852,1,0,0:0:0:0:
188,212,86938,1,0,0:0:0:0:
224,204,87024,1,0,0:0:0:0:
256,192,87109,1,12,0:0:0:0:
492,108,87795,6,0,P|448:56|336:92,1,180,0|2,0:0|0:0,0:0:0:0:
324,164,88309,2,0,P|325:208|340:252,1,90
412,140,88652,1,0,0:0:0:0:
260,100,88824,1,2,0:0:0:0:
156,216,88995,1,0,0:0:0:0:
228,272,89166,6,0,P|244:228|232:164,1,90
172,128,89509,1,2,0:0:0:0:
12,208,89681,1,0,0:0:0:0:
100,364,89852,1,0,0:0:0:0:
136,244,90024,1,0,0:0:0:0:
56,288,90195,1,2,0:0:0:0:
180,324,90366,1,0,3:0:0:0:
220,200,90538,5,0,3:0:0:0:
144,156,90709,1,0,0:0:0:0:
136,244,90881,2,0,P|184:280|220:296,1,90,2|0,0:0|0:0,0:0:0:0:
376,140,91224,2,0,P|328:104|292:88,1,90,0|0,0:0|0:0,0:0:0:0:
368,232,91566,1,2,0:0:0:0:
472,112,91738,1,0,0:0:0:0:
386,64,91909,6,0,P|344:79|301:91,1,90,0|0,0:0|0:0,0:0:0:0:
125,319,92252,2,0,P|167:304|210:292,1,90,2|0,0:0|0:0,0:0:0:0:
256,192,92595,1,0,0:0:0:0:
76,136,92766,1,0,0:0:0:0:
56,224,92938,2,0,P|100:224|140:200,1,90,2|0,0:0|0:0,0:0:0:0:
336,64,93281,6,0,P|256:32|172:68,1,180,0|2,3:0|0:0,0:0:0:0:
256,192,93795,2,0,P|336:224|420:188,1,180,0|0,0:0|0:0,0:0:0:0:
176,68,94309,2,0,L|48:84,1,90,2|0,0:0|0:0,0:0:0:0:
12,252,94652,6,0,P|104:252|192:284,1,180,0|2,0:0|0:0,0:0:0:0:
256,340,95166,1,0,0:0:0:0:
300,176,95338,2,0,P|255:180|210:186,1,90
448,196,95681,2,0,P|442:150|432:104,1,90,2|0,0:0|0:0,0:0:0:0:
256,16,96024,6,2,P|261:61|272:108,1,90,0|0,0:0|0:0,0:0:0:0:
380,40,96366,1,2,0:0:0:0:
380,40,96538,1,0,0:0:0:0:
180,100,96709,6,2,P|192:143|211:187,1,90,0|0,0:0|0:0,0:0:0:0:
380,40,97052,1,2,0:0:0:0:
380,40,97224,1,0,0:0:0:0:
120,196,97395,6,2,P|140:236|166:276,1,90,0|0,0:0|0:0,0:0:0:0:
380,40,97738,1,2,0:0:0:0:
380,40,97909,1,0,0:0:0:0:
200,36,98081,5,0,0:0:0:0:
120,196,98252,1,0,0:0:0:0:
268,296,98424,2,0,P|260:216|248:136,1,135,8|0,0:0|2:0,0:1:0:0:
200,96,98766,6,0,P|120:92|68:136,1,144,6|0,0:0|0:0,0:0:0:0:
28,328,99281,1,2,0:0:0:0:
120,324,99452,2,0,P|104:280|88:252,1,72,8|0,0:0|0:0,0:0:0:0:
200,96,99795,1,0,0:0:0:0:
200,96,99966,6,0,P|184:152|188:248,1,144,2|0,0:0|0:0,0:0:0:0:
256,24,100481,1,2,0:0:0:0:
64,192,100824,1,8,0:0:0:0:
256,360,101166,1,2,0:0:0:0:
356,344,101338,1,2,0:0:0:0:
456,328,101509,6,0,L|436:172,1,144,4|0,0:0|0:0,0:0:0:0:
412,12,102024,1,0,0:0:0:0:
240,36,102195,2,0,L|250:107,1,72,8|0,0:0|0:0,0:0:0:0:
328,24,102538,1,0,0:0:0:0:
152,52,102709,1,2,0:0:0:0:
96,208,102881,5,0,0:0:0:0:
184,236,103052,1,2,0:0:0:0:
256,176,103224,1,0,0:0:0:0:
168,144,103395,1,0,0:0:0:0:
168,144,103481,1,0,0:0:0:0:
168,144,103566,2,0,P|120:148|76:160,1,72,8|0,0:0|0:0,0:0:0:0:
200,328,103909,1,0,0:0:0:0:
344,208,104081,1,0,0:0:0:0:
256,36,104252,6,0,B|228:108|284:108|256:176,1,144,6|0,0:0|0:0,0:0:0:0:
372,80,104766,1,0,0:0:0:0:
140,144,104938,1,8,0:0:0:0:
372,208,105109,1,0,0:0:0:0:
140,272,105281,1,0,0:0:0:0:
256,348,105452,6,0,P|360:336|416:328,1,144,6|0,0:0|0:0,0:0:0:0:
488,364,105966,2,0,P|500:304|508:272,1,72,0|0,0:0|0:0,0:0:0:0:
348,104,106309,1,8,0:0:0:0:
320,192,106481,1,0,0:0:0:0:
412,172,106652,1,0,0:0:0:0:
256,124,106824,1,0,0:0:0:0:
220,284,106995,6,0,P|340:296|396:296,1,144,6|0,0:0|0:0,0:0:0:0:
152,212,107509,1,2,0:0:0:0:
112,372,107681,2,0,P|120:340|132:284,1,72,8|0,0:0|0:0,0:0:0:0:
80,96,108024,1,0,0:0:0:0:
80,96,108195,2,0,P|64:168|48:252,1,144,2|2,0:0|0:0,0:0:0:0:
152,212,108709,5,0,0:0:0:0:
256,100,108881,1,0,0:0:0:0:
360,212,109052,1,8,0:0:0:0:
256,192,109224,1,0,0:0:0:0:
296,20,109395,2,0,P|352:32|424:44,1,108,0|0,0:0|2:0,0:0:0:0:
488,20,109738,6,0,P|464:132|456:188,1,144,6|0,0:0|0:0,0:0:0:0:
442,352,110252,1,2,0:0:0:0:
359,212,110424,2,0,P|369:246|382:280,1,72,8|0,0:0|0:0,0:0:0:0:
472,260,110766,1,0,0:0:0:0:
336,124,110938,6,0,P|264:140|168:156,1,144,2|0,0:0|0:0,0:0:0:0:
256,40,111452,1,2,0:0:0:0:
256,344,111795,1,8,0:0:0:0:
0,192,112138,1,2,0:0:0:0:
96,160,112309,1,2,0:0:0:0:
192,128,112481,6,0,L|160:288,1,144
256,344,112995,1,0,0:0:0:0:
348,269,113166,2,0,L|320:128,1,144,8|0,0:0|0:0,0:0:0:0:
256,248,113681,1,2,0:0:0:0:
408,160,113852,5,0,0:0:0:0:
508,304,114024,1,2,0:0:0:0:
424,344,114195,1,0,0:0:0:0:
432,252,114366,1,0,0:0:0:0:
432,252,114452,1,0,0:0:0:0:
432,252,114538,2,0,P|428:204|416:152,1,72,8|0,0:0|0:0,0:0:0:0:
372,32,114881,1,0,0:0:0:0:
504,76,115052,1,0,0:0:0:0:
348,124,115224,6,0,P|276:119|204:112,1,144,6|0,0:0|0:0,0:0:0:0:
116,88,115738,1,0,0:0:0:0:
4,196,115909,1,8,0:0:0:0:
72,336,116081,2,0,P|132:328|168:320,1,72
256,192,116424,6,0,P|256:112|216:36,1,144,6|0,0:0|0:0,0:0:0:0:
164,216,116938,2,0,L|184:300,1,72
348,168,117281,2,0,L|328:84,1,72,8|0,0:0|0:0,0:0:0:0:
216,32,117624,1,0,0:0:0:0:
164,216,117795,1,0,0:0:0:0:
352,264,117966,6,0,L|516:244,1,144,6|0,0:0|0:0,0:0:0:0:
240,112,118481,1,2,0:0:0:0:
252,204,118652,2,0,L|264:300,1,72,8|0,0:0|0:0,0:0:0:0:
152,368,118995,1,0,0:0:0:0:
80,244,119166,6,0,P|88:188|92:96,1,144,2|2,0:0|0:0,0:0:0:0:
0,96,119681,1,0,0:0:0:0:
80,244,119852,1,0,0:0:0:0:
120,248,119938,1,0,0:0:0:0:
160,252,120024,1,8,0:0:0:0:
256,80,120195,1,0,0:0:0:0:
92,100,120366,1,8,0:0:0:0:
420,284,120709,5,0,0:0:0:0:
64,268,131681,6,0,P|72:200|96:84,1,180,0|2,0:0|0:0,0:0:0:0:
292,124,132195,1,0,0:0:0:0:
232,192,132366,2,0,P|208:156|204:100,1,90
320,212,132709,1,2,0:0:0:0:
180,268,132881,1,0,0:0:0:0:
116,128,133052,6,0,P|132:72|156:32,1,90
272,192,133395,1,2,0:0:0:0:
183,206,133566,1,0,0:0:0:0:
256,28,133738,2,0,P|296:69|319:110,1,90
216,112,134081,1,2,0:0:0:0:
380,32,134252,1,0,0:0:0:0:
388,168,134424,6,0,P|380:240|372:288,1,90
356,344,134766,1,2,0:0:0:0:
356,344,134938,1,0,0:0:0:0:
156,264,135109,1,0,0:0:0:0:
156,264,135281,1,0,0:0:0:0:
240,236,135452,1,2,0:0:0:0:
104,340,135624,1,0,0:0:0:0:
68,256,135795,6,0,P|72:212|68:160,1,90
56,76,136138,1,2,0:0:0:0:
208,156,136309,1,0,0:0:0:0:
68,256,136481,1,0,0:0:0:0:
12,176,136652,1,0,0:0:0:0:
160,68,136824,2,0,P|136:120|112:168,1,90,2|0,0:0|0:0,0:0:0:0:
288,280,137166,6,0,P|260:204|264:96,1,180,0|2,0:0|0:0,0:0:0:0:
484,28,137681,2,0,P|448:100|364:192,1,180
416,268,138195,1,2,0:0:0:0:
512,148,138366,1,0,0:0:0:0:
380,64,138538,6,0,P|280:76|160:84,1,180,0|2,0:0|0:0,0:0:0:0:
132,320,139052,2,0,P|232:308|352:300,1,180,0|0,0:0|0:0,0:0:0:0:
256,192,139566,2,0,P|176:200|148:200,1,90,2|0,0:0|0:0,0:0:0:0:
352,148,139909,6,0,P|344:232|340:260,1,90
256,364,140252,1,2,0:0:0:0:
236,256,140424,1,0,0:0:0:0:
344,236,140595,6,0,P|409:247|457:251,1,90
364,92,140938,1,2,0:0:0:0:
276,152,141109,1,0,0:0:0:0:
344,236,141281,6,0,P|344:304|336:352,1,90
168,148,141624,2,0,P|168:80|176:32,1,90,2|0,0:0|0:0,0:0:0:0:
256,12,141966,1,0,0:0:0:0:
256,192,142652,6,0,P|340:180|448:180,1,180
472,260,143166,1,0,0:0:0:0:
404,320,143338,2,0,P|348:312|308:304,1,90,2|0,0:0|0:0,0:0:0:0:
197,79,143681,1,0,0:0:0:0:
76,204,144024,6,0,P|166:204|256:192,1,180
312,120,144538,1,0,0:0:0:0:
256,284,144709,2,0,P|214:302|173:319,1,90,2|0,0:0|0:0,0:0:0:0:
84,96,145052,1,0,0:0:0:0:
428,288,145395,6,0,P|412:220|416:100,1,180
500,84,145909,1,0,0:0:0:0:
324,136,146081,2,0,P|236:128|192:120,1,90,2|0,0:0|0:0,0:0:0:0:
428,288,146424,1,0,0:0:0:0:
84,288,146766,6,0,P|148:244|224:172,1,180
312,288,147281,1,0,0:0:0:0:
171,309,147452,2,0,P|127:300|84:288,1,90,2|0,0:0|0:0,0:0:0:0:
222,173,147795,1,0,0:0:0:0:
222,173,148138,6,0,P|228:96|236:56,1,90
304,208,148481,1,0,0:0:0:0:
232,260,148652,1,0,0:0:0:0:
140,136,148824,6,0,P|146:59|154:19,1,90
256,8,149166,1,0,0:0:0:0:
336,96,149338,1,0,0:0:0:0:
304,208,149509,6,0,P|224:240|192:248,1,90
140,136,149852,1,0,0:0:0:0:
260,84,150024,1,0,0:0:0:0:
304,208,150195,6,0,P|296:288|288:336,1,90
168,368,150538,1,0,0:0:0:0:
96,244,150709,1,0,0:0:0:0:
140,136,150881,5,0,0:0:0:0:
153,124,150966,1,0,0:0:0:0:
169,116,151052,1,0,0:0:0:0:
187,112,151138,1,0,0:0:0:0:
205,112,151224,1,0,0:0:0:0:
222,117,151309,1,0,0:0:0:0:
237,127,151395,1,0,0:0:0:0:
250,139,151481,1,0,0:0:0:0:
256,155,151566,1,0,0:0:0:0:
267,169,151652,1,0,0:0:0:0:
281,180,151738,1,0,0:0:0:0:
297,187,151824,1,0,0:0:0:0:
315,190,151909,1,0,0:0:0:0:
333,188,151995,1,0,0:0:0:0:
350,182,152081,1,0,0:0:0:0:
365,172,152166,1,0,0:0:0:0:
376,159,152252,1,0,0:0:0:0:
376,332,153624,6,0,P|372:232|360:160,1,144,6|0,0:0|0:0,0:0:0:0:
213,29,154138,1,2,0:0:0:0:
188,120,154309,2,0,P|222:129|257:137,1,72,8|0,0:0|0:0,0:0:0:0:
120,52,154652,1,0,0:0:0:0:
24,220,154824,6,0,P|96:217|167:213,1,144,2|0,0:0|0:0,0:0:0:0:
456,192,155338,1,2,0:0:0:0:
256,360,155681,1,8,0:0:0:0:
56,192,156024,1,2,0:0:0:0:
108,96,156195,1,2,0:0:0:0:
200,156,156366,6,0,P|180:236|172:308,1,144,4|0,0:0|0:0,0:0:0:0:
256,360,156881,1,0,0:0:0:0:
339,296,157052,2,0,P|330:225|312:156,1,144,8|0,0:0|0:0,0:0:0:0:
112,80,157566,1,2,0:0:0:0:
207,116,157738,5,0,0:0:0:0:
276,44,157909,1,2,0:0:0:0:
180,8,158081,1,0,0:0:0:0:
112,80,158252,1,0,0:0:0:0:
112,80,158338,1,0,0:0:0:0:
112,80,158424,2,0,P|108:144|108:168,1,72,8|0,0:0|0:0,0:0:0:0:
192,284,158766,1,0,0:0:0:0:
320,192,158938,1,0,0:0:0:0:
256,48,159109,6,0,B|188:16|188:80|108:48,1,144,6|0,0:0|0:0,0:0:0:0:
256,144,159624,1,0,0:0:0:0:
336,96,159795,1,8,0:0:0:0:
176,192,159966,1,0,0:0:0:0:
336,288,160138,1,0,0:0:0:0:
496,192,160309,6,0,B|425:163|425:227|357:195,1,144,6|0,0:0|0:0,0:0:0:0:
228,360,160824,2,0,L|240:288,1,72
358,195,161166,1,8,0:0:0:0:
376,288,161338,1,0,0:0:0:0:
256,164,161509,2,0,P|204:148|172:132,1,72
28,280,161852,6,0,P|98:263|170:256,1,144,6|0,0:0|0:0,0:0:0:0:
120,92,162366,1,2,0:0:0:0:
40,140,162538,1,8,0:0:0:0:
90,305,162709,1,0,0:0:0:0:
170,257,162881,1,0,0:0:0:0:
250,209,163052,6,0,P|256:296|276:364,1,144,2|2,0:0|0:0,0:0:0:0:
415,182,163566,2,0,L|344:192,1,72
184,136,163909,1,8,0:0:0:0:
276,280,164081,1,0,0:0:0:0:
415,182,164252,2,0,P|404:124|404:60,1,108,0|0,0:0|2:0,0:0:0:0:
336,16,164595,6,0,P|276:44|184:60,1,144,6|0,0:0|0:0,0:0:0:0:
44,176,165109,1,2,0:0:0:0:
224,252,165281,2,0,L|212:164,1,72,8|0,0:0|0:0,0:0:0:0:
200,60,165624,1,0,0:0:0:0:
44,176,165795,6,0,L|64:328,1,144,2|0,0:0|0:0,0:0:0:0:
256,284,166309,1,2,0:0:0:0:
44,176,166652,1,8,0:0:0:0:
256,68,166995,1,2,0:0:0:0:
160,124,167166,1,2,0:0:0:0:
256,184,167338,6,0,P|320:180|424:156,1,144
480,124,167852,1,0,0:0:0:0:
360,280,168024,2,0,L|256:268,1,72,8|0,0:0|0:0,0:0:0:0:
200,260,168366,1,0,0:0:0:0:
352,376,168538,1,2,0:0:0:0:
240,352,168709,5,0,0:0:0:0:
256,184,168881,1,2,0:0:0:0:
104,252,169052,1,0,0:0:0:0:
200,260,169224,1,0,0:0:0:0:
200,260,169309,1,0,0:0:0:0:
200,260,169395,2,0,P|176:208|164:164,1,72,8|0,0:0|0:0,0:0:0:0:
256,104,169738,1,0,0:0:0:0:
380,204,169909,1,0,0:0:0:0:
276,324,170081,6,0,P|124:356|108:360,1,144,6|0,0:0|0:0,0:0:0:0:
48,124,170595,1,0,0:0:0:0:
16,304,170766,1,8,0:0:0:0:
188,244,170938,1,0,0:0:0:0:
32,216,171109,1,0,0:0:0:0:
204,152,171281,6,0,P|296:144|356:132,1,144,6|0,0:0|0:0,0:0:0:0:
256,320,171795,2,0,P|188:308|152:304,1,72
104,216,172138,1,8,0:0:0:0:
140,100,172309,1,0,0:0:0:0:
256,64,172481,2,0,L|291:70|326:76,1,72
172,196,172824,6,0,P|120:216|12:244,1,144,6|0,0:0|0:0,0:0:0:0:
116,40,173338,1,2,0:0:0:0:
155,126,173509,2,0,P|167:160|172:196,1,72,8|0,0:0|0:0,0:0:0:0:
60,116,173852,1,0,0:0:0:0:
256,140,174024,6,0,P|340:136|424:128,1,144,2|2,0:0|0:0,0:0:0:0:
388,36,174538,1,0,0:0:0:0:
500,184,174709,1,0,0:0:0:0:
323,87,174881,1,8,0:0:0:0:
434,236,175052,1,0,0:0:0:0:
256,140,175224,1,8,0:0:0:0:
388,36,175566,6,0,P|399:106|388:177,1,144,2|0,0:0|0:0,0:0:0:0:
124,348,176081,2,0,P|112:277|123:206,1,144,2|0,0:0|0:0,0:0:0:0:
256,88,176595,1,0,0:0:0:0:
256,88,176766,2,0,L|424:80,1,144,2|0,0:0|0:0,0:0:0:0:
432,172,177281,1,2,0:0:0:0:
256,296,177624,6,2,L|84:304,1,157.5,2|0,0:1|0:1,0:1:0:0:
98,303,178309,6,0,L|124:212,1,90
180,24,178652,1,8,0:0:0:0:
96,64,178824,1,0,0:0:0:0:
120,104,178909,1,0,0:0:0:0:
144,144,178995,2,0,P|244:132|256:132,1,90
368,24,179338,2,0,P|268:36|256:36,1,90,8|0,0:0|0:0,0:0:0:0:
392,192,179681,5,0,0:0:0:0:
504,92,179852,1,0,0:0:0:0:
368,24,180024,1,8,0:0:0:0:
256,128,180195,2,0,P|260:180|272:236,1,90
344,112,180538,1,0,0:0:0:0:
180,232,180709,1,8,0:0:0:0:
364,316,180881,1,0,0:0:0:0:
352,201,181052,6,0,L|336:16,1,180,6|8,0:0|0:0,0:0:0:0:
256,64,181566,1,0,0:0:0:0:
256,64,181652,1,0,0:0:0:0:
256,64,181738,2,0,P|184:88|140:100,1,90,0|0,0:0|0:0,0:0:0:0:
256,320,182081,2,0,P|328:296|372:284,1,90,8|0,0:0|0:0,0:0:0:0:
456,124,182424,6,0,P|372:140|256:188,1,180,6|8,0:0|0:0,0:0:0:0:
416,304,182938,1,0,0:0:0:0:
456,124,183109,2,0,P|404:104|344:76,1,90
392,204,183452,1,8,0:0:0:0:
256,320,183624,1,0,0:0:0:0:
120,204,183795,5,6,0:0:0:0:
188,144,183966,2,0,P|208:184|204:248,1,90,0|8,0:0|0:0,0:0:0:0:
144,292,184309,1,0,0:0:0:0:
144,292,184395,1,0,0:0:0:0:
144,292,184481,1,0,0:0:0:0:
232,316,184652,1,0,0:0:0:0:
275,123,184824,2,0,P|232:135|188:144,1,90,8|0,0:0|0:0,0:0:0:0:
252,232,185166,5,0,0:0:0:0:
380,96,185338,1,0,0:0:0:0:
289,35,185509,2,0,P|284:79|276:123,1,90,8|0,0:0|0:0,0:0:0:0:
268,160,185766,1,0,0:0:0:0:
256,196,185852,1,0,0:0:0:0:
176,236,186024,1,0,0:0:0:0:
364,148,186195,2,0,P|416:140|464:136,1,90,8|0,0:0|0:0,0:0:0:0:
324,300,186538,6,0,P|264:284|212:260,1,90,4|0,0:0|0:0,0:0:0:0:
168,216,186881,1,8,0:0:0:0:
192,128,187052,1,0,0:0:0:0:
192,128,187138,1,0,0:0:0:0:
192,128,187224,1,0,0:0:0:0:
276,256,187395,1,0,0:0:0:0:
136,312,187566,2,0,P|68:316|16:316,1,90,8|0,0:0|0:0,0:0:0:0:
224,104,187909,6,0,P|269:105|314:109,1,90,0|0,0:0|0:0,0:0:0:0:
104,204,188252,1,8,0:0:0:0:
72,52,188424,1,0,0:0:0:0:
224,104,188595,1,0,0:0:0:0:
193,191,188766,1,0,0:0:0:0:
132,120,188938,1,8,0:0:0:0:
260,248,189109,1,0,0:0:0:0:
279,161,189281,5,0,0:0:0:0:
104,203,189452,2,0,P|148:198|192:191,1,90,0|8,0:0|0:0,0:0:0:0:
332,312,189795,1,0,0:0:0:0:
332,312,189881,1,0,0:0:0:0:
332,312,189966,1,0,0:0:0:0:
364,132,190138,1,0,0:0:0:0:
192,191,190309,2,0,L|256:215|276:220,1,90,8|0,0:0|0:0,0:0:0:0:
256,80,190652,5,0,0:0:0:0:
192,191,190824,2,0,P|180:234|175:278,1,90,0|8,0:0|0:0,0:0:0:0:
320,192,191166,1,0,0:0:0:0:
320,192,191252,1,0,0:0:0:0:
320,192,191338,1,0,0:0:0:0:
156,100,191509,1,0,0:0:0:0:
56,260,191681,2,0,P|112:252|164:240,1,90,8|0,0:0|0:0,0:0:0:0:
328,152,192024,6,0,P|242:123|156:100,1,180,6|8,0:0|0:0,0:0:0:0:
80,192,192538,1,0,0:0:0:0:
69,226,192624,1,0,0:0:0:0:
56,260,192709,1,0,0:0:0:0:
256,360,192881,1,0,0:0:0:0:
240,272,193052,2,0,P|200:292|168:344,1,90,8|0,0:0|0:0,0:0:0:0:
328,304,193395,6,0,P|332:256|224:180,1,180,6|8,0:0|0:0,0:0:0:0:
173,327,193909,1,0,0:0:0:0:
328,304,194081,2,0,P|372:297|416:286,1,90
456,88,194424,1,8,0:0:0:0:
380,204,194595,1,0,0:0:0:0:
504,264,194766,5,0,0:0:0:0:
468,180,194938,1,0,0:0:0:0:
380,204,195109,2,0,P|332:200|284:192,1,90,8|0,0:0|0:0,0:0:0:0:
290,193,195366,1,0,0:0:0:0:
290,193,195452,1,0,0:0:0:0:
140,72,195624,1,0,0:0:0:0:
288,100,195795,1,8,0:0:0:0:
240,272,195966,1,0,0:0:0:0:
380,204,196138,6,0,P|376:156|392:108,1,90
464,168,196481,1,8,0:0:0:0:
380,204,196652,1,0,0:0:0:0:
340,224,196738,1,0,0:0:0:0:
300,244,196824,1,0,0:0:0:0:
132,96,196995,1,8,0:0:0:0:
172,116,197081,1,0,0:0:0:0:
212,136,197166,1,8,0:0:0:0:
124,216,197338,1,0,0:0:0:0:
24,152,197509,6,0,P|16:104|16:52,1,90,4|0,0:0|0:0,0:0:0:0:
204,272,197852,1,8,0:0:0:0:
115,305,198024,2,0,P|116:260|124:216,1,90,0|0,0:0|0:0,0:0:0:0:
208,180,198366,1,0,0:0:0:0:
36,252,198538,1,8,0:0:0:0:
184,364,198709,1,0,0:0:0:0:
236,265,198881,6,0,P|223:222|208:180,1,90
275,118,199224,2,0,P|288:161|304:204,1,90,8|0,0:0|0:0,0:0:0:0:
184,92,199566,1,0,0:0:0:0:
80,192,199738,1,0,0:0:0:0:
256,332,199909,1,8,0:0:0:0:
432,192,200081,1,0,0:0:0:0:
432,192,200252,6,0,P|348:208|304:216,1,90
167,52,200595,2,0,P|211:44|256:36,1,90,8|0,0:0|0:0,0:0:0:0:
296,28,200852,1,0,0:0:0:0:
296,28,200938,1,0,0:0:0:0:
192,172,201109,1,0,0:0:0:0:
100,136,201281,2,0,P|76:92|64:36,1,90,8|0,0:0|0:0,0:0:0:0:
176,76,201624,5,0,0:0:0:0:
116,232,201795,1,0,0:0:0:0:
24,200,201966,1,8,0:0:0:0:
192,172,202138,1,0,0:0:0:0:
132,328,202309,1,0,0:0:0:0:
100,136,202481,1,0,0:0:0:0:
280,212,202652,1,8,0:0:0:0:
60,244,202824,1,0,0:0:0:0:
100,136,202995,6,0,P|208:168|280:168,1,180,6|8,0:0|0:0,0:0:0:0:
368,136,203509,1,0,0:0:0:0:
256,52,203681,1,0,0:0:0:0:
144,248,203852,1,0,0:0:0:0:
256,332,204024,1,8,0:0:0:0:
368,136,204195,1,0,0:0:0:0:
256,52,204366,6,0,P|168:68|72:68,1,180,6|8,0:0|0:0,0:0:0:0:
36,212,204881,1,0,0:0:0:0:
186,180,205052,2,0,P|148:157|104:152,1,90
89,326,205395,2,0,P|120:216|120:208,1,90,8|0,0:0|0:0,0:0:0:0:
256,40,205738,6,0,P|272:100|296:152,1,90
340,196,206081,1,8,0:0:0:0:
384,72,206252,1,0,0:0:0:0:
256,40,206424,2,0,P|180:56|136:60,1,90
340,196,206766,2,0,P|416:212|460:216,1,90,8|0,0:0|0:0,0:0:0:0:
172,188,207109,6,0,P|96:172|52:168,1,90,0|0,0:0|0:0,0:0:0:0:
104,312,207452,1,8,0:0:0:0:
256,272,207624,1,0,0:0:0:0:
256,112,207795,1,0,0:0:0:0:
408,72,207966,1,0,0:0:0:0:
352,256,208138,1,8,0:0:0:0:
172,188,208309,1,0,0:0:0:0:
256,112,208481,6,0,B|344:148|344:80|440:116,1,180,4|2,0:0|0:0,0:0:0:0:
468,254,208995,2,0,L|504:172,1,90
431,112,209338,1,0,0:0:0:0:
320,264,209509,1,2,0:0:0:0:
492,344,209681,1,0,0:0:0:0:
468,254,209852,6,0,P|368:248|264:224,1,180,4|0,0:0|0:0,0:0:0:0:
222,153,210366,1,0,0:0:0:0:
320,136,210538,1,2,0:0:0:0:
192,248,210709,1,0,0:0:0:0:
256,192,211224,5,4,0:0:0:0:
256,192,211309,12,2,213624,0:0:0:0:
