osu file format v14

[General]
AudioFilename: Flashlight (Radio Edit)-DJ Fresh.mp3
AudioLeadIn: 0
PreviewTime: 65509
Countdown: 0
SampleSet: Normal
StackLeniency: 0.4
Mode: 0
LetterboxInBreaks: 0
WidescreenStoryboard: 0

[Editor]
DistanceSpacing: 1.4
BeatDivisor: 4
GridSize: 4
TimelineZoom: 1.6

[Metadata]
Title:Flashlight (Radio Edit)
TitleUnicode:Flashlight (Radio Edit)
Artist:DJ Fresh (feat. Ellie Goulding)
ArtistUnicode:DJ Fresh (feat. Ellie Goulding)
Creator:Frey
Version:Advanced
Source:
Tags:HootOwlStar Halcyon Days dnb drum'n'bass drum and bass dubstep synthpop
BeatmapID:672345
BeatmapSetID:274035

[Difficulty]
HPDrainRate:5
CircleSize:3.5
OverallDifficulty:5
ApproachRate:6
SliderMultiplier:1.2
SliderTickRate:1

[Events]
//Background and Video events
0,0,"night.jpg",0,0
//Break Periods
2,120909,130631
//Storyboard Layer 0 (Background)
//Storyboard Layer 1 (Fail)
//Storyboard Layer 2 (Pass)
//Storyboard Layer 3 (Foreground)
//Storyboard Sound Samples

[TimingPoints]
9624,342.857142857143,4,2,0,80,1,0
10995,-100,4,1,0,80,0,0
32938,-100,4,2,0,80,0,0
43052,-100,4,1,0,80,0,0
87795,-100,4,2,0,80,0,0
98081,-100,4,1,0,80,0,0
131681,-100,4,2,0,80,0,0
139909,-100,4,2,0,75,0,0
140595,-100,4,2,0,70,0,0
141281,-100,4,2,0,65,0,0
141966,-100,4,2,0,60,0,0
148138,-100,4,1,0,15,0,0
148824,-100,4,1,0,20,0,0
149166,-100,4,1,0,30,0,0
149509,-100,4,1,0,40,0,0
149852,-100,4,1,0,50,0,0
150195,-100,4,1,0,60,0,0
150538,-100,4,1,0,70,0,0
150881,-100,4,1,0,75,0,0
153624,-100,4,1,0,80,0,0
175566,-100,4,2,0,80,0,0
178309,-100,4,1,0,80,0,1
208481,-100,4,2,0,80,0,0

[Colours]
Combo1 : 0,64,128
Combo2 : 0,128,255
Combo3 : 128,255,255

[HitObjects]
32,104,10481,5,2,0:0:0:0:
104,144,10652,2,0,L|192:136,1,60
220,76,10995,6,0,P|248:128|228:192,1,120,0|8,0:0|0:0,0:0:0:0:
176,340,11681,2,0,P|148:288|168:224,1,120,0|8,0:0|0:0,0:0:0:0:
233,184,12195,1,0,0:0:0:0:
296,240,12366,2,0,L|428:224,2,120,0|8|0,0:0|0:0|0:0,0:0:0:0:
128,216,13395,2,0,P|128:168|140:136,1,60,8|0,0:0|0:0,0:0:0:0:
160,80,13738,6,0,P|236:64|288:88,2,120,0|8|0,0:0|0:0|0:0,0:0:0:0:
40,196,14766,1,8,0:0:0:0:
64,276,14938,1,0,0:0:0:0:
144,304,15109,2,0,P|208:296|272:284,2,120,0|8|0,0:0|0:0|0:0,0:0:0:0:
196,144,16138,2,0,P|248:152|268:156,1,60,8|0,0:0|0:0,0:0:0:0:
324,204,16481,6,0,P|388:220|440:180,1,120,0|8,0:0|0:0,0:0:0:0:
476,120,16995,2,0,P|412:104|360:144,1,120
324,204,17509,1,8,0:0:0:0:
444,320,17852,2,0,L|468:176,1,120,0|8,0:0|0:0,0:0:0:0:
476,120,18366,2,0,P|388:132|340:128,1,120
276,104,18881,1,8,0:0:0:0:
228,264,19224,6,0,P|169:253|109:253,1,120,0|8,0:0|0:0,0:0:0:0:
32,292,19738,2,0,P|4:244|4:164,1,120
8,96,20252,1,8,0:0:0:0:
172,56,20595,2,0,P|172:120|156:176,1,120,0|8,0:0|0:0,0:0:0:0:
112,244,21109,2,0,P|140:259|172:272,2,60
56,180,21624,1,8,0:0:0:0:
172,56,21966,6,0,L|308:44,2,120,0|8|0,0:0|0:0|0:0,0:0:0:0:
56,180,22995,1,8,0:0:0:0:
140,172,23166,1,0,0:0:0:0:
208,224,23338,2,0,P|224:280|220:344,2,120,0|8|0,0:0|0:0|0:0,0:0:0:0:
88,104,24366,2,0,P|96:72|108:40,1,60,8|0,0:0|0:0,0:0:0:0:
180,8,24709,5,0,0:0:0:0:
256,44,24881,1,0,0:0:0:0:
256,128,25052,2,0,P|296:164|360:164,2,120,8|0|8,0:0|0:0|0:0,0:0:0:0:
180,88,25909,1,0,0:0:0:0:
256,44,26081,2,0,L|396:32,2,120,0|8|0,0:0|0:0|0:0,0:0:0:0:
184,196,27109,1,8,0:0:0:0:
256,240,27281,1,0,0:0:0:0:
328,196,27452,6,0,P|424:184|464:184,1,120,0|8,0:0|0:0,0:0:0:0:
508,240,27966,2,0,P|508:296|460:356,1,120
388,352,28481,1,8,0:0:0:0:
328,196,28824,2,0,P|320:124|284:64,1,120,0|8,0:0|0:0,0:0:0:0:
213,82,29338,2,0,P|188:136|184:196,1,120
196,280,29852,1,8,0:0:0:0:
52,368,30195,6,0,P|76:313|81:254,1,120,0|8,0:0|0:0,0:0:0:0:
4,224,30709,2,0,P|52:176|120:180,1,120
160,232,31224,1,8,0:0:0:0:
92,80,31566,1,12,0:0:0:0:
352,48,32938,6,0,L|220:64,1,120,0|2,0:0|0:0,0:0:0:0:
216,148,33452,1,0,0:0:0:0:
200,232,33624,2,0,L|319:217,1,120,0|2,0:0|0:0,0:0:0:0:
488,228,34309,2,0,P|500:160|472:108,1,120,0|2,0:0|0:0,0:0:0:0:
400,268,34995,2,0,P|392:336|428:384,1,120,0|2,0:0|0:0,0:0:0:0:
476,312,35509,1,0,3:0:0:0:
488,228,35681,6,0,P|444:180|380:172,1,120,0|2,3:0|0:0,0:0:0:0:
320,216,36195,1,0,0:0:0:0:
308,132,36366,2,0,P|312:84|320:56,2,60,0|0|2,0:0|0:0|0:0,0:0:0:0:
280,300,37052,2,0,P|196:332|144:336,1,120,0|2,0:0|0:0,0:0:0:0:
36,232,37738,2,0,P|16:176|64:112,1,120,0|2,0:0|0:0,0:0:0:0:
184,32,38424,6,0,P|204:88|156:152,1,120,0|2,3:0|0:0,0:0:0:0:
142,216,38938,2,0,L|256:256,1,120
336,284,39452,1,2,0:0:0:0:
416,136,39795,2,0,P|436:80|408:20,1,120,0|2,0:0|0:0,0:0:0:0:
352,80,40309,2,0,P|330:134|350:189,1,120
416,240,40824,1,2,0:0:0:0:
300,360,41166,6,0,L|168:348,1,120,0|2,0:0|0:0,0:0:0:0:
96,364,41681,2,0,P|64:312|80:240,1,120
152,236,42195,1,2,0:0:0:0:
248,96,42538,2,0,L|129:123,1,120,0|2,0:0|0:0,0:0:0:0:
48,112,43052,2,0,P|52:148|68:184,2,60
100,44,43566,1,8,0:0:0:0:
192,184,43909,6,0,P|196:244|168:320,1,120,6|0,0:0|0:0,0:0:0:0:
256,336,44424,1,2,0:0:0:0:
336,364,44595,2,0,L|412:356,1,60,8|0,0:0|0:0,0:0:0:0:
508,232,45109,2,0,L|376:212,1,120,2|0,0:0|0:0,0:0:0:0:
316,172,45624,2,0,P|304:112|340:48,2,120,2|8|2,0:0|0:0|0:0,0:0:0:0:
412,308,46652,5,4,0:0:0:0:
256,372,46995,2,0,L|176:356,1,60
112,368,47338,2,0,P|92:312|100:248,1,120,8|0,0:0|0:0,0:0:0:0:
148,184,47852,2,0,P|154:124|134:68,1,120,2|2,0:0|0:0,0:0:0:0:
52,56,48366,1,0,0:0:0:0:
20,224,48709,1,8,0:0:0:0:
184,260,49052,1,0,0:0:0:0:
224,96,49395,6,0,L|343:82,1,120,6|0,0:0|0:0,0:0:0:0:
420,116,49909,2,0,P|440:60|444:36,1,60,0|8,0:0|0:0,0:0:0:0:
472,224,50424,1,0,0:0:0:0:
392,196,50595,2,0,P|336:188|264:200,1,120,6|0,0:0|0:0,0:0:0:0:
208,252,51109,1,0,0:0:0:0:
84,140,51452,1,8,0:0:0:0:
24,200,51624,2,0,P|7:256|31:310,1,120
104,352,52138,6,0,P|164:354|252:364,2,120,6|0|8,0:0|0:0|0:0,0:0:0:0:
184,204,53166,1,0,0:0:0:0:
256,248,53338,2,0,P|272:192|220:128,1,120,2|2,0:0|0:0,0:0:0:0:
160,120,53852,2,0,P|192:68|264:56,2,120,0|8|0,0:0|0:0|0:0,0:0:0:0:
256,260,54881,6,0,B|320:252|320:308|384:300,1,120,2|0,0:0|0:0,0:0:0:0:
448,296,55395,1,2,0:0:0:0:
476,216,55566,2,0,P|480:184|472:144,1,60,8|0,0:0|0:0,0:0:0:0:
352,44,56081,2,0,P|329:98|346:154,1,120,2|0,0:0|0:0,0:0:0:0:
336,240,56595,2,0,L|200:224,2,120,2|8|2,0:0|0:0|0:0,0:0:0:0:
436,104,57624,5,0,0:0:0:0:
280,40,57966,2,0,L|196:56,1,60
196,132,58309,2,0,L|60:116,1,120,8|0,0:0|0:0,0:0:0:0:
16,60,58824,2,0,P|-4:116|24:180,1,120,2|2,0:0|0:0,0:0:0:0:
92,204,59338,1,0,0:0:0:0:
260,224,59681,1,8,0:0:0:0:
112,300,60024,1,0,0:0:0:0:
188,148,60366,6,0,P|284:140|324:132,1,120,6|0,0:0|0:0,0:0:0:0:
376,84,60881,2,0,L|456:96,1,60,0|8,0:0|0:0,0:0:0:0:
500,248,61395,1,0,0:0:0:0:
468,172,61566,2,0,P|424:216|428:288,1,120,6|0,0:0|0:0,0:0:0:0:
360,328,62081,2,0,P|296:320|236:308,1,120,0|8,0:0|0:0,0:0:0:0:
164,280,62595,1,0,0:0:0:0:
256,192,63109,5,0,0:0:0:0:
256,192,63281,12,0,64481,2:0:0:0:
160,248,65852,6,0,L|40:233,2,120,0|8|0,0:0|0:0|0:0,0:0:0:0:
256,108,66881,1,8,0:0:0:0:
340,120,67052,1,0,0:0:0:0:
396,184,67224,2,0,P|424:132|408:68,2,120,0|8|0,0:0|0:0|0:0,0:0:0:0:
308,328,68252,2,0,L|280:252,1,60,8|0,0:0|0:0,0:0:0:0:
256,192,68595,6,0,P|196:212|124:220,2,120,0|8|0,0:0|0:0|0:0,0:0:0:0:
256,24,69624,1,8,0:0:0:0:
184,64,69795,1,0,0:0:0:0:
256,108,69966,2,0,P|320:112|392:104,2,120,0|8|0,0:0|0:0|0:0,0:0:0:0:
96,52,70995,2,0,P|83:82|76:128,1,60,8|0,0:0|0:0,0:0:0:0:
144,160,71338,6,0,P|144:224|96:272,1,120,0|8,0:0|0:0,0:0:0:0:
63,192,71852,2,0,P|27:238|29:297,1,120
96,352,72366,1,8,0:0:0:0:
256,304,72709,2,0,P|256:236|244:180,1,120,0|8,0:0|0:0,0:0:0:0:
192,120,73224,2,0,P|240:100|308:128,1,120
360,60,73738,1,8,0:0:0:0:
504,148,74081,6,0,P|496:212|492:296,1,120,0|8,0:0|0:0,0:0:0:0:
420,312,74595,2,0,P|372:296|308:260,1,120
236,304,75109,1,8,0:0:0:0:
124,180,75452,2,0,P|120:116|148:60,2,120,0|8|8,0:0|0:0|0:0,0:0:0:0:
188,236,76309,1,0,0:0:0:0:
256,184,76481,2,0,L|248:104,1,60,8|8,0:0|0:0,0:0:0:0:
276,44,76824,6,0,P|328:56|416:64,2,120,0|8|0,0:0|0:0|0:0,0:0:0:0:
132,132,77852,1,8,0:0:0:0:
48,116,78024,1,0,0:0:0:0:
76,196,78195,2,0,P|100:252|136:304,2,120,0|8|0,0:0|0:0|0:0,0:0:0:0:
192,72,79224,2,0,P|244:84|268:88,1,60,8|0,0:0|0:0,0:0:0:0:
336,88,79566,6,0,P|392:68|468:72,2,120,0|8|0,0:0|0:0|0:0,0:0:0:0:
256,236,80595,2,0,P|264:276|272:304,1,60,8|0,0:0|0:0,0:0:0:0:
336,348,80938,1,0,0:0:0:0:
472,252,81281,1,8,0:0:0:0:
324,176,81624,2,0,P|256:156|188:168,1,120,0|8,0:0|0:0,0:0:0:0:
136,204,82138,1,0,0:0:0:0:
64,160,82309,6,0,L|80:32,1,120,0|8,0:0|0:0,0:0:0:0:
160,24,82824,2,0,P|200:32|284:36,1,120
316,112,83338,1,8,0:0:0:0:
204,236,83681,2,0,P|140:248|64:256,1,120,0|8,0:0|0:0,0:0:0:0:
16,208,84195,2,0,P|8:280|44:328,1,120
112,336,84709,1,8,0:0:0:0:
92,168,85052,6,0,P|151:160|210:149,1,120,0|8,0:0|0:0,0:0:0:0:
260,80,85566,2,0,P|328:84|356:140,1,120
328,204,86081,1,8,0:0:0:0:
452,316,86424,2,0,P|462:232|472:180,1,120
344,308,87109,1,12,0:0:0:0:
132,48,87795,6,0,P|121:131|112:184,1,120,0|2,0:0|0:0,0:0:0:0:
56,228,88309,2,0,P|72:272|92:300,2,60
32,148,88824,1,2,0:0:0:0:
196,172,89166,2,0,P|208:228|188:296,1,120,0|2,0:0|0:0,0:0:0:0:
316,172,89852,2,0,P|300:114|312:56,1,120,0|2,0:0|0:0,0:0:0:0:
392,32,90366,1,0,3:0:0:0:
456,88,90538,5,0,3:0:0:0:
440,172,90709,2,0,P|452:216|472:240,2,60,0|2|0,0:0|0:0|0:0,0:0:0:0:
376,120,91224,1,0,0:0:0:0:
256,236,91566,1,2,0:0:0:0:
136,120,91909,2,0,P|104:128|8:140,1,120,0|2,0:0|0:0,0:0:0:0:
56,304,92595,2,0,P|115:310|174:323,1,120,0|2,0:0|0:0,0:0:0:0:
324,244,93281,6,0,P|368:192|348:84,2,180,0|2|0,3:0|0:0|0:0,0:0:0:0:
188,140,94652,2,0,P|144:192|164:300,2,180,0|2|0,0:0|0:0|0:0,0:0:0:0:
324,244,96024,6,0,P|396:260|464:268,1,120,0|2,0:0|0:0,0:0:0:0:
484,104,96709,2,0,P|412:120|344:128,1,120,0|2,0:0|0:0,0:0:0:0:
228,28,97395,2,0,P|196:80|200:156,1,120,0|2,0:0|0:0,0:0:0:0:
324,244,98081,2,0,P|318:285|308:316,1,60
256,368,98424,1,8,0:0:0:0:
128,260,98766,6,0,P|112:204|116:136,1,120,6|0,0:0|0:0,0:0:0:0:
188,100,99281,1,2,0:0:0:0:
112,60,99452,2,0,P|72:72|48:100,1,60,8|0,0:0|0:0,0:0:0:0:
204,180,99966,2,0,P|262:186|310:152,1,120,2|0,0:0|0:0,0:0:0:0:
380,204,100481,2,0,L|512:192,2,120,2|8|2,0:0|0:0|0:0,0:0:0:0:
256,320,101509,5,4,0:0:0:0:
188,164,101852,2,0,P|196:120|196:92,1,60
164,28,102195,2,0,P|88:24|44:68,1,120,8|0,0:0|0:0,0:0:0:0:
20,124,102709,2,0,P|20:180|32:260,1,120,2|2,0:0|0:0,0:0:0:0:
52,324,103224,1,0,0:0:0:0:
168,200,103566,1,8,0:0:0:0:
20,124,103909,1,0,0:0:0:0:
112,264,104252,6,0,P|180:292|252:308,1,120,6|0,0:0|0:0,0:0:0:0:
288,360,104766,2,0,P|336:344|364:336,1,60,0|8,0:0|0:0,0:0:0:0:
468,224,105281,1,0,0:0:0:0:
456,140,105452,2,0,P|404:168|384:232,1,120,6|0,0:0|0:0,0:0:0:0:
420,296,105966,1,0,0:0:0:0:
256,248,106309,1,8,0:0:0:0:
256,164,106481,2,0,B|280:104|232:104|256:48,1,120
332,16,106995,6,0,P|376:32|456:48,2,120,6|0|8,0:0|0:0|0:0,0:0:0:0:
176,76,108024,1,0,0:0:0:0:
208,152,108195,2,0,P|266:163|323:183,1,120,2|2,0:0|0:0,0:0:0:0:
376,248,108709,2,0,P|408:199|396:140,2,120,0|8|0,0:0|0:0|0:0,0:0:0:0:
256,364,109738,6,0,L|112:348,1,120,6|0,0:0|0:0,0:0:0:0:
52,364,110252,1,2,0:0:0:0:
24,284,110424,2,0,P|12:244|8:204,1,60,8|0,0:0|0:0,0:0:0:0:
28,56,110938,2,0,P|80:84|160:96,1,120,2|0,0:0|0:0,0:0:0:0:
180,168,111452,2,0,P|224:144|308:132,2,120,2|8|2,0:0|0:0|0:0,0:0:0:0:
72,296,112481,5,0,0:0:0:0:
224,368,112824,2,0,L|296:356,1,60
312,280,113166,2,0,L|448:304,1,120,8|0,0:0|0:0,0:0:0:0:
476,372,113681,2,0,P|508:320|500:252,1,120,2|2,0:0|0:0,0:0:0:0:
436,216,114195,1,0,0:0:0:0:
320,96,114538,1,8,0:0:0:0:
480,144,114881,1,0,0:0:0:0:
356,256,115224,6,0,L|220:244,1,120,6|0,0:0|0:0,0:0:0:0:
160,284,115738,1,0,0:0:0:0:
112,216,115909,2,0,P|140:160|116:96,1,120,8|0,0:0|0:0,0:0:0:0:
52,152,116424,2,0,P|24:208|48:272,1,120,6|0,0:0|0:0,0:0:0:0:
84,332,116938,1,0,0:0:0:0:
232,252,117281,2,0,P|240:204|240:168,1,60,8|0,0:0|0:0,0:0:0:0:
132,64,117795,1,0,0:0:0:0:
64,116,117966,6,0,P|116:148|192:128,2,120,6|0|8,0:0|0:0|0:0,0:0:0:0:
220,48,118995,1,0,0:0:0:0:
304,64,119166,2,0,P|340:128|336:180,1,120,2|2,0:0|0:0,0:0:0:0:
284,240,119681,2,0,P|293:272|308:304,1,60
380,336,120024,2,0,P|412:326|444:312,1,60,8|0,0:0|0:0,0:0:0:0:
472,240,120366,1,8,0:0:0:0:
340,136,120709,5,0,0:0:0:0:
424,100,131681,6,0,L|288:88,1,120,0|2,0:0|0:0,0:0:0:0:
228,128,132195,2,0,L|168:122,2,60
296,180,132709,1,2,0:0:0:0:
204,320,133052,2,0,P|132:332|64:332,1,120,0|2,0:0|0:0,0:0:0:0:
0,188,133738,2,0,P|72:176|140:176,1,120,0|2,0:0|0:0,0:0:0:0:
260,80,134424,5,0,0:0:0:0:
176,92,134595,2,0,P|120:84|96:76,2,60,0|2|0,0:0|0:0|0:0,0:0:0:0:
228,160,135109,1,0,0:0:0:0:
340,36,135452,1,2,0:0:0:0:
392,196,135795,2,0,P|384:256|352:328,1,120,0|2,0:0|0:0,0:0:0:0:
476,188,136481,2,0,P|440:124|384:112,1,120,0|2,0:0|0:0,0:0:0:0:
232,112,137166,6,0,P|140:136|56:148,2,180,0|2|0,0:0|0:0|0:0,0:0:0:0:
280,272,138538,2,0,P|372:248|456:236,2,180,0|2|0,0:0|0:0|0:0,0:0:0:0:
144,372,139909,6,0,P|88:312|116:228,1,180,0|2,0:0|0:0,0:0:0:0:
200,204,140595,2,0,P|229:123|172:59,1,180,0|2,0:0|0:0,0:0:0:0:
92,40,141281,2,0,P|56:68|44:200,1,180,0|2,0:0|0:0,0:0:0:0:
116,227,141966,1,0,0:0:0:0:
372,20,142652,6,0,L|384:148,1,120,0|2,0:0|0:0,0:0:0:0:
328,204,143166,2,0,L|336:284,2,60
256,160,143681,1,2,0:0:0:0:
104,232,144024,2,0,P|116:168|152:108,1,120,0|2,0:0|0:0,0:0:0:0:
220,84,144538,2,0,P|237:51|241:7,2,60
256,160,145052,1,2,0:0:0:0:
256,328,145395,6,0,L|404:312,1,120,0|2,0:0|0:0,0:0:0:0:
424,248,145909,2,0,P|412:208|408:176,2,60
456,328,146424,1,2,0:0:0:0:
504,160,146766,2,0,P|512:104|480:48,1,120,0|2,0:0|0:0,0:0:0:0:
400,40,147281,2,0,L|340:48,2,60
424,120,147795,1,2,0:0:0:0:
332,260,148138,5,0,0:0:0:0:
196,160,148481,2,0,P|132:148|60:124,1,120
32,292,149166,1,0,0:0:0:0:
192,244,149509,2,0,P|300:232|332:232,1,120
420,104,150195,1,0,0:0:0:0:
256,136,150537,1,0,0:0:0:0:
256,192,150881,12,0,152252,2:0:0:0:
376,76,153624,6,0,P|356:136|364:196,1,120,6|0,0:0|0:0,0:0:0:0:
400,268,154138,1,2,0:0:0:0:
316,260,154309,2,0,L|236:252,1,60,8|0,0:0|0:0,0:0:0:0:
100,316,154824,1,2,0:0:0:0:
36,160,155166,1,0,0:0:0:0:
104,108,155338,2,0,P|120:172|80:232,2,120,2|8|2,0:0|0:0|0:0,0:0:0:0:
244,16,156366,6,0,P|220:69|237:126,1,120,4|0,0:0|0:0,0:0:0:0:
300,184,156881,1,0,0:0:0:0:
368,136,157052,2,0,P|432:128|504:124,1,120,8|0,0:0|0:0,0:0:0:0:
512,204,157566,2,0,P|486:263|432:280,1,120,2|2,0:0|0:0,0:0:0:0:
372,336,158081,1,0,0:0:0:0:
300,184,158424,1,8,0:0:0:0:
456,120,158766,1,0,0:0:0:0:
356,256,159109,6,0,P|296:268|224:280,1,120,6|0,0:0|0:0,0:0:0:0:
156,264,159624,2,0,L|168:192,1,60,0|8,0:0|0:0,0:0:0:0:
56,76,160138,1,0,0:0:0:0:
40,160,160309,2,0,L|17:277,1,120,6|0,0:0|0:0,0:0:0:0:
64,348,160824,2,0,P|128:356|180:324,1,120,0|8,0:0|0:0,0:0:0:0:
216,256,161338,2,0,P|279:255|336:264,1,120
412,296,161852,6,0,P|436:240|436:168,2,120,6|0|8,0:0|0:0|0:0,0:0:0:0:
256,364,162881,1,0,0:0:0:0:
208,296,163052,2,0,P|210:236|234:181,1,120,2|2,0:0|0:0,0:0:0:0:
300,128,163566,2,0,P|248:96|172:124,2,120,0|8|0,0:0|0:0|0:0,0:0:0:0:
392,268,164595,6,0,L|512:248,1,120,6|0,0:0|0:0,0:0:0:0:
496,164,165109,1,2,0:0:0:0:
480,80,165281,2,0,L|468:12,1,60,8|0,0:0|0:0,0:0:0:0:
316,100,165795,2,0,P|252:96|184:80,1,120,2|0,0:0|0:0,0:0:0:0:
139,143,166309,2,0,P|116:88|132:32,2,120,2|8|2,0:0|0:0|0:0,0:0:0:0:
256,264,167338,6,0,P|271:320|247:374,1,120
188,316,167852,1,0,0:0:0:0:
176,232,168024,2,0,P|216:188|288:184,1,120,8|0,0:0|0:0,0:0:0:0:
332,240,168538,2,0,P|390:245|460:248,1,120,2|2,0:0|0:0,0:0:0:0:
512,188,169052,1,0,0:0:0:0:
352,136,169395,1,8,0:0:0:0:
512,84,169738,1,0,0:0:0:0:
352,32,170081,6,0,P|280:44|224:48,1,120,6|0,0:0|0:0,0:0:0:0:
156,12,170595,2,0,P|148:52|152:80,1,60,0|8,0:0|0:0,0:0:0:0:
204,228,171109,1,0,0:0:0:0:
248,156,171281,2,0,P|180:148|124:196,1,120,6|0,0:0|0:0,0:0:0:0:
112,252,171795,2,0,P|123:312|136:372,1,120,0|8,0:0|0:0,0:0:0:0:
216,352,172309,1,0,0:0:0:0:
312,212,172652,1,0,0:0:0:0:
248,156,172824,6,0,P|168:152|112:140,1,120,6|0,0:0|0:0,0:0:0:0:
52,112,173338,1,0,0:0:0:0:
84,36,173509,2,0,P|143:26|203:24,1,120,8|0,0:0|0:0,0:0:0:0:
284,50,174024,2,0,P|283:109|248:156,1,120,2|2,0:0|0:0,0:0:0:0:
168,184,174538,2,0,P|153:209|144:244,1,60
176,316,174881,2,0,P|201:330|236:340,1,60,8|0,0:0|0:0,0:0:0:0:
312,356,175224,1,8,0:0:0:0:
448,256,175566,6,0,P|408:212|328:208,1,120,2|0,0:0|0:0,0:0:0:0:
272,232,176081,2,0,P|240:148|232:92,1,120,2|0,0:0|0:0,0:0:0:0:
368,16,176766,2,0,P|400:100|408:156,1,120,2|0,0:0|0:0,0:0:0:0:
388,212,177281,1,2,0:0:0:0:
256,316,177624,1,2,0:0:0:0:
256,316,178309,6,0,B|202:296|198:332|138:312,1,120,0|8,0:0|0:0,0:0:0:0:
20,192,178995,2,0,P|40:136|48:120,1,60
80,64,179338,1,8,0:0:0:0:
240,112,179681,2,0,P|252:184|216:236,1,120,0|8,0:0|0:0,0:0:0:0:
148,244,180195,2,0,P|136:271|127:300,2,60
108,168,180709,2,0,P|119:140|128:111,1,60,8|0,0:0|0:0,0:0:0:0:
152,32,181052,6,0,P|224:28|280:20,1,120,6|8,0:0|0:0,0:0:0:0:
328,84,181566,2,0,P|316:132|312:164,2,60
392,28,182081,2,0,P|421:33|450:41,1,60,8|0,0:0|0:0,0:0:0:0:
484,120,182424,2,0,P|472:196|444:240,1,120,6|8,0:0|0:0,0:0:0:0:
368,252,182938,2,0,P|340:248|288:220,1,60
252,176,183281,2,0,P|172:176|128:220,1,120
116,280,183795,6,0,P|68:244|60:176,2,120,6|8|0,0:0|0:0|0:0,0:0:0:0:
200,268,184652,2,0,P|212:316|208:344,1,60,0|8,0:0|0:0,0:0:0:0:
312,192,185166,2,0,P|300:144|316:60,1,120,0|8,0:0|0:0,0:0:0:0:
380,24,185681,1,0,0:0:0:0:
460,44,185852,2,0,P|472:92|476:120,1,60
484,188,186195,1,8,0:0:0:0:
312,192,186538,6,0,P|236:176|172:160,1,120,4|8,0:0|0:0,0:0:0:0:
168,88,187052,2,0,P|116:76|48:112,1,120
36,184,187566,1,8,0:0:0:0:
20,268,187738,2,0,P|72:280|140:244,1,120
216,268,188252,1,8,0:0:0:0:
316,132,188595,1,0,0:0:0:0:
152,104,188938,1,8,0:0:0:0:
288,208,189281,6,0,P|348:216|432:220,2,120,0|8|0,0:0|0:0|0:0,0:0:0:0:
212,244,190138,1,0,0:0:0:0:
216,160,190309,1,8,0:0:0:0:
336,44,190652,2,0,P|400:40|456:60,1,120,0|8,0:0|0:0,0:0:0:0:
460,140,191166,2,0,P|472:180|488:208,2,60
384,176,191681,2,0,P|396:216|412:244,1,60,8|0,0:0|0:0,0:0:0:0:
428,312,192024,6,0,P|368:312|284:320,1,120,6|8,0:0|0:0,0:0:0:0:
228,348,192538,2,0,P|180:340|152:328,2,60
236,264,193052,2,0,P|244:220|248:204,1,60,8|0,0:0|0:0,0:0:0:0:
316,156,193395,2,0,P|268:120|192:144,1,120,6|8,0:0|0:0,0:0:0:0:
164,196,193909,2,0,L|96:208,1,60
41,150,194252,1,0,0:0:0:0:
0,224,194424,2,0,P|0:264|8:308,1,60,8|0,0:0|0:0,0:0:0:0:
72,332,194766,6,0,L|191:347,1,120,0|8,0:0|0:0,0:0:0:0:
256,192,195452,2,0,L|173:181,2,60,0|0|8,0:0|0:0|0:0,0:0:0:0:
408,260,196138,2,0,P|392:208|400:128,2,120,0|8|0,0:0|0:0|0:0,0:0:0:0:
460,328,196995,1,8,0:0:0:0:
492,252,197166,1,8,0:0:0:0:
324,272,197509,6,0,P|252:264|188:248,1,120,4|8,0:0|0:0,0:0:0:0:
56,328,198195,2,0,P|48:272|44:248,1,60
36,184,198538,1,8,0:0:0:0:
128,44,198881,2,0,L|144:162,2,120,0|8|0,0:0|0:0|0:0,0:0:0:0:
212,28,199738,1,0,0:0:0:0:
256,100,199909,1,8,0:0:0:0:
156,240,200252,6,0,P|96:236|24:212,2,120,0|8|0,0:0|0:0|0:0,0:0:0:0:
236,220,201109,1,0,0:0:0:0:
304,268,201281,1,8,0:0:0:0:
396,128,201624,2,0,P|320:128|272:160,1,120,0|8,0:0|0:0,0:0:0:0:
236,220,202138,2,0,P|188:224|164:224,2,60
304,268,202652,2,0,P|352:272|376:272,1,60,8|0,0:0|0:0,0:0:0:0:
440,308,202995,6,0,P|452:244|456:180,1,120,6|8,0:0|0:0,0:0:0:0:
440,108,203509,2,0,P|444:60|448:36,2,60
380,168,204024,2,0,P|350:164|320:162,1,60,8|0,0:0|0:0,0:0:0:0:
268,96,204366,2,0,P|236:144|256:216,1,120,6|8,0:0|0:0,0:0:0:0:
304,268,204881,2,0,L|292:336,1,60
224,372,205224,1,0,0:0:0:0:
140,380,205395,2,0,P|110:377|76:372,1,60,8|0,0:0|0:0,0:0:0:0:
48,296,205738,6,0,P|86:221|111:170,1,120,0|8,0:0|0:0,0:0:0:0:
176,36,206424,1,0,0:0:0:0:
92,40,206595,2,0,P|92:88|96:120,1,60,0|8,0:0|0:0,0:0:0:0:
192,236,207109,2,0,P|264:232|336:224,1,120,0|8,0:0|0:0,0:0:0:0:
396,212,207624,2,0,P|400:240|404:284,2,60
340,148,208138,2,0,P|344:120|348:76,1,60,8|0,0:0|0:0,0:0:0:0:
280,36,208481,6,0,P|204:48|136:48,1,120,4|2,0:0|0:0,0:0:0:0:
76,36,208995,2,0,P|36:44|8:52,2,60
100,116,209509,2,0,P|107:145|113:174,1,60,2|0,0:0|0:0,0:0:0:0:
80,252,209852,2,0,P|152:264|216:288,1,120,4|0,0:0|0:0,0:0:0:0:
256,340,210366,2,0,P|300:336|344:328,1,60,0|2,0:0|0:0,0:0:0:0:
360,260,210709,1,0,0:0:0:0:
256,192,211224,5,4,0:0:0:0:
256,192,211395,12,2,213624,0:0:0:0:
