osu file format v7

[General]
AudioFilename: 22.DjDain-NeverDie.mp3
AudioLeadIn: 0
PreviewTime: 123789
Countdown: 1
SampleSet: Normal
StackLeniency: 0.7
Mode: 0
LetterboxInBreaks: 1

[Editor]
Bookmarks: 164210
DistanceSpacing: 0.800000011920929
BeatDivisor: 4
GridSize: 32

[Metadata]
Title:Never Die
Artist:DJ Dain
Creator:crazymario
Version:Normal
Source:Cave Story Remix Project
Tags:cave story final boss theme remix project never die

[Difficulty]
HPDrainRate:5
CircleSize:4
OverallDifficulty:4
SliderMultiplier:1.5
SliderTickRate:2

[Events]
//Background and Video events
0,0,"CS10.png.jpg"
//Break Periods
2,103778,122469
2,144200,152785
//Storyboard Layer 0 (Background)
//Storyboard Layer 1 (Fail)
//Storyboard Layer 2 (Pass)
//Storyboard Layer 3 (Foreground)
//Storyboard Sound Samples
//Background Colour Transformations
3,100,163,162,255

[TimingPoints]
0,315.789473684211,4,2,0,80,1,0
60473,-100,4,1,0,80,0,0
82342,-100,4,2,0,80,0,0
122526,-100,4,1,0,80,0,0
152842,-100,4,2,0,80,0,0
161526,-100,4,1,0,80,0,0

[Colours]
Combo1 : 0,0,176
Combo2 : 0,64,128
Combo3 : 17,166,238

[HitObjects]
128,64,40736,1,0
384,64,41368,1,0
384,320,42000,1,0
128,320,42631,1,0
128,64,43263,5,0
384,64,43894,1,0
384,320,44526,1,0
128,320,45157,1,0
128,64,45789,5,0
384,64,46421,1,0
384,320,47052,1,0
128,320,47684,1,0
128,64,48315,5,0
384,64,48947,1,0
384,320,49578,1,0
128,320,50210,1,0
128,64,50842,5,0
384,64,51473,1,0
384,320,52105,1,0
128,320,52736,1,0
128,64,53368,5,0
384,64,54000,1,0
384,320,54631,1,0
128,320,55263,1,0
128,64,55894,5,0
384,64,56526,1,0
384,320,57157,1,0
128,320,57789,1,0
128,64,58421,5,0
384,64,59052,2,0,B|384:224,1,150,0|8
384,320,59684,1,8
288,224,60000,2,0,B|224:160,3,75,0|8|8|8
192,128,60631,6,0,B|32:128,1,150
96,224,61263,2,0,B|256:224,1,150
160,320,61894,2,0,B|320:320,1,150
416,320,62526,2,0,B|288:192,1,150
416,192,63157,6,0,B|416:32,1,150
320,96,63789,2,0,B|320:256,1,150
224,192,64421,2,0,B|224:32,1,150
96,32,65052,1,0
96,32,65368,1,2
192,128,65684,6,0,B|32:128,1,150
96,224,66316,2,0,B|256:224,1,150
160,320,66947,2,0,B|320:320,1,150
416,320,67579,2,0,B|288:192,1,150
416,192,68210,6,0,B|416:32,1,150
320,96,68842,2,0,B|320:256,1,150
224,192,69474,2,0,B|224:32,1,150
96,32,70105,1,0
96,32,70421,1,2
192,128,70736,6,0,B|32:128,1,150
96,224,71368,2,0,B|256:224,1,150
160,320,71999,2,0,B|320:320,1,150
416,320,72631,2,0,B|288:192,1,150
416,192,73262,6,0,B|416:32,1,150
320,96,73894,2,0,B|320:256,1,150
224,192,74526,2,0,B|224:32,1,150
96,32,75157,1,0
96,32,75473,1,2
192,128,75789,6,0,B|32:128,1,150,0|2
96,224,76421,2,0,B|256:224,1,150,0|2
160,320,77052,2,0,B|320:320,1,150,0|2
416,320,77684,2,0,B|288:192,1,150,0|2
416,192,78315,6,0,B|416:32,1,150,0|2
320,96,78947,2,0,B|320:256,1,150,0|2
224,192,79579,2,0,B|224:32,1,150,0|2
96,32,80210,1,4
96,32,80526,1,14
64,64,82736,5,2
192,64,83052,1,2
128,160,83368,6,0,B|128:256,1,75,6|8
256,256,83842,2,0,B|256:160,1,75,0|8
384,160,84315,2,0,B|384:256,1,75,0|8
448,320,85263,6,0,B|352:320,3,75
320,320,85894,2,0,B|224:320,1,75,0|8
192,320,86210,2,0,B|32:320,1,150,0|2
96,224,86842,2,0,B|256:224,1,150,0|2
192,128,87473,2,0,B|32:128,1,150,0|2
128,32,88105,1,2
128,160,88421,6,0,B|128:256,1,75,0|8
256,256,88895,2,0,B|256:160,1,75,0|8
384,160,89368,2,0,B|384:256,1,75,0|8
448,320,90316,6,0,B|352:320,3,75
320,320,90947,2,0,B|224:320,1,75,0|8
192,320,91263,2,0,B|32:320,1,150,0|2
96,224,91895,2,0,B|256:224,1,150,0|2
192,128,92526,2,0,B|32:128,1,150,0|2
128,32,93158,1,2
128,160,93473,6,0,B|128:256,1,75,0|8
256,256,93947,2,0,B|256:160,1,75,0|8
384,160,94420,2,0,B|384:256,1,75,0|8
448,320,95368,6,0,B|352:320,3,75
320,320,95999,2,0,B|224:320,1,75,0|8
192,320,96315,2,0,B|32:320,1,150,0|2
96,224,96947,2,0,B|256:224,1,150,0|2
192,128,97578,2,0,B|32:128,1,150,0|2
128,32,98210,1,2
128,160,98526,6,0,B|128:256,1,75,0|8
256,256,99000,2,0,B|256:160,1,75,0|8
384,160,99473,2,0,B|384:256,1,75,0|8
448,320,100421,6,0,B|352:320,3,75
320,320,101052,2,0,B|224:320,1,75,0|8
192,320,101368,2,0,B|32:320,1,150,0|2
96,224,102000,2,0,B|256:224,1,150,0|2
192,128,102631,2,0,B|32:128,1,150,0|2
96,32,103263,2,0,B|256:32,1,150,0|4
64,64,123789,6,0,B|160:64,7,75
192,64,125052,6,0,B|288:64,7,75
320,64,126315,1,2
448,192,126789,1,2
320,320,127263,1,2
256,320,127421,6,0,B|160:320,4,75,2|0|0|0|0
224,256,128210,6,0,B|128:256,3,75
128,192,128842,6,0,B|128:96,7,75
192,96,130105,6,0,B|192:192,7,75
256,192,131368,5,2
448,192,131842,1,2
256,192,132315,1,2
192,192,132473,6,0,B|96:192,4,75,2|0|0|0|0
160,128,133263,6,0,B|64:128,3,75
64,64,133894,6,0,B|160:64,7,75
192,64,135157,6,0,B|288:64,7,75
320,64,136420,1,2
448,192,136894,1,2
320,320,137368,1,2
256,320,137526,6,0,B|160:320,4,75,2|0|0|0|0
224,256,138315,6,0,B|128:256,3,75
128,192,138947,6,0,B|128:96,7,75
192,96,140210,6,0,B|192:192,7,75
256,192,141473,5,2
448,192,141947,1,2
256,192,142420,1,2
192,192,142578,6,0,B|96:192,4,75,2|0|0|0|0
160,128,143368,6,0,B|64:128,3,75
64,64,144000,1,14
64,64,154105,5,0
64,192,154421,2,0,B|64:288,1,75,0|8
128,320,154815,2,0,B|256:320,1,112.5,0|8
352,320,155368,5,0
480,320,155684,2,0,B|480:224,1,75,0|8
480,128,156157,2,0,B|384:128,1,75,0|8
288,128,156631,5,0
160,128,156947,2,0,B|64:128,1,75,0|8
0,128,157421,2,0,B|0:224,1,75,0|8
32,320,157894,2,0,B|256:416|448:224,1,450,0|4
480,128,159157,5,0
352,128,159473,2,0,B|256:128,1,75,0|8
160,128,159947,2,0,B|96:192,1,75,0|8
32,288,160421,5,0
160,288,160736,2,0,B|256:288,1,75,0|8
352,288,161210,2,0,B|416:224,1,75,0|8
256,192,161684,12,14,163894
