osu file format v7

[General]
AudioFilename: 22.DjDain-NeverDie.mp3
AudioLeadIn: 0
PreviewTime: 123789
Countdown: 1
SampleSet: Normal
StackLeniency: 0.7
Mode: 0
LetterboxInBreaks: 1

[Editor]
Bookmarks: 164210
DistanceSpacing: 0.800000011920929
BeatDivisor: 4
GridSize: 32

[Metadata]
Title:Never Die
Artist:DJ Dain
Creator:crazymario
Version:Hard
Source:Cave Story Remix Project
Tags:cave story final boss theme remix project never die

[Difficulty]
HPDrainRate:6
CircleSize:5
OverallDifficulty:7
SliderMultiplier:1.5
SliderTickRate:2

[Events]
//Background and Video events
0,0,"CS10.png.jpg"
//Break Periods
2,103778,122889
2,144199,153205
//Storyboard Layer 0 (Background)
//Storyboard Layer 1 (Fail)
//Storyboard Layer 2 (Pass)
//Storyboard Layer 3 (Foreground)
//Storyboard Sound Samples
//Background Colour Transformations
3,100,163,162,255

[TimingPoints]
0,315.789473684211,4,2,0,80,1,0
60473,-100,4,1,0,80,0,0
82342,-100,4,2,0,80,0,0
122526,-100,4,1,0,80,0,0
152842,-100,4,2,0,80,0,0
161526,-100,4,1,0,80,0,0

[Colours]
Combo1 : 0,0,176
Combo2 : 0,64,128
Combo3 : 17,166,238

[HitObjects]
64,64,40736,1,0
64,320,41368,1,0
256,192,42000,1,0
448,64,42631,1,0
448,320,43263,1,0
256,192,43894,5,0
64,64,44526,1,0
64,320,45157,1,0
256,192,45789,5,0
448,64,46421,1,0
448,320,47052,1,0
256,192,47684,5,0
64,64,48315,1,0
64,320,48947,1,0
256,192,49578,5,0
448,64,50210,1,0
448,320,50842,1,0
256,192,51473,5,0
64,64,52105,1,0
64,320,52736,1,0
256,192,53368,5,0
448,64,54000,1,0
448,320,54631,1,0
256,192,55263,5,0
64,64,55894,1,0
64,320,56526,1,0
256,192,57157,5,0
448,64,57789,1,0
448,320,58421,1,0
256,192,59052,6,4,B|96:192,1,150,0|8
32,128,59684,1,8
96,64,60000,1,4
160,64,60157,1,8
160,64,60315,1,8
288,64,60631,6,0,B|448:64,1,150
448,192,61263,2,0,B|448:352,1,150
288,320,61894,6,0,B|288:224,2,75,0|0|0
160,320,62526,2,0,B|160:224,2,75,0|0|2
32,320,63157,6,0,B|32:160,1,150
32,64,63789,2,0,B|192:64,1,150
288,64,64421,6,0,B|384:64,2,75
288,192,65052,2,0,B|384:192,2,75,0|0|2
288,64,65684,6,0,B|448:64,1,150
448,192,66315,2,0,B|448:352,1,150
288,320,66947,6,0,B|288:224,2,75
160,320,67578,2,0,B|160:224,2,75,0|0|2
32,320,68210,6,0,B|32:160,1,150
32,64,68842,2,0,B|192:64,1,150
288,64,69473,6,0,B|384:64,2,75
288,192,70105,2,0,B|384:192,2,75,0|0|2
288,64,70736,6,0,B|448:64,1,150
448,192,71368,2,0,B|448:352,1,150
288,320,72000,6,0,B|288:224,2,75
160,320,72631,2,0,B|160:224,2,75,0|0|2
32,320,73263,6,0,B|32:160,1,150
32,64,73894,2,0,B|192:64,1,150
288,64,74526,6,0,B|384:64,2,75
288,192,75157,2,0,B|384:192,2,75,0|0|2
288,64,75789,6,0,B|448:64,1,150
448,192,76421,2,0,B|448:352,1,150
288,320,77052,6,0,B|288:224,2,75
160,320,77684,2,0,B|160:224,2,75,0|0|2
32,320,78315,6,0,B|32:160,1,150
32,64,78947,2,0,B|192:64,1,150
288,64,79578,6,0,B|384:64,2,75
288,192,80210,2,0,B|384:192,3,75,0|0|2|6
64,64,82736,5,0
64,64,82894,1,0
64,64,83052,1,0
64,64,83210,1,0
128,64,83368,6,0,B|224:64,1,75,4|8
160,160,83842,2,0,B|64:160,1,75,0|8
128,256,84315,2,0,B|224:256,1,75,0|8
352,288,85263,2,0,B|416:224,3,75
448,192,85894,2,0,B|384:128,1,75,0|8
352,96,86210,6,0,B|192:96,1,150,0|2
288,192,86842,2,0,B|128:192,1,150,0|2
224,288,87473,2,0,B|64:288,1,150,0|2
32,192,88105,1,2
128,64,88421,6,0,B|224:64,1,75,0|8
160,160,88894,2,0,B|64:160,1,75,0|8
128,256,89368,2,0,B|224:256,1,75,0|8
352,288,90315,6,0,B|416:224,3,75
448,192,90946,2,0,B|384:128,1,75,0|8
352,96,91262,6,0,B|192:96,1,150,0|2
288,192,91894,2,0,B|128:192,1,150,0|2
224,288,92525,2,0,B|64:288,1,150,0|2
32,192,93157,1,2
128,64,93473,6,0,B|224:64,1,75,0|8
160,160,93946,2,0,B|64:160,1,75,0|8
128,256,94420,2,0,B|224:256,1,75,0|8
352,288,95367,6,0,B|416:224,3,75
448,192,95998,2,0,B|384:128,1,75,0|8
352,96,96314,6,0,B|192:96,1,150,0|2
288,192,96946,2,0,B|128:192,1,150,0|2
224,288,97577,2,0,B|64:288,1,150,0|2
32,192,98209,1,2
128,64,98526,6,0,B|224:64,1,75,0|8
160,160,98999,2,0,B|64:160,1,75,0|8
128,256,99473,2,0,B|224:256,1,75,0|8
352,288,100420,6,0,B|416:224,3,75
448,192,101051,2,0,B|384:128,1,75,0|8
352,96,101367,6,0,B|192:96,1,150,0|2
288,192,101999,2,0,B|128:192,1,150,0|2
224,288,102630,2,0,B|64:288,1,150,0|2
32,192,103262,1,2
96,96,103578,1,4
256,320,123789,5,0
320,320,123947,2,0,B|416:320,2,75
256,320,124421,1,0
192,320,124578,2,0,B|96:320,2,75
224,256,125052,2,0,B|288:192,3,75
352,192,125684,2,0,B|448:192,3,75
448,96,126315,5,2
256,96,126789,1,2
64,96,127263,1,2
64,160,127421,6,0,B|64:256,3,75,0|0|0|0
128,256,128052,2,0,B|224:256,3,75
256,224,128684,2,0,B|256:320,1,75
320,320,129000,6,0,B|416:320,2,75
256,320,129474,1,0
192,320,129631,2,0,B|96:320,2,75
224,256,130105,2,0,B|288:192,3,75
352,192,130737,2,0,B|448:192,3,75
448,96,131368,5,2
256,96,131842,1,2
64,96,132316,1,2
64,160,132474,6,0,B|64:256,3,75
128,256,133105,2,0,B|224:256,3,75
256,256,133737,2,0,B|256:352,1,75
320,320,134052,6,0,B|416:320,2,75
256,320,134526,1,0
192,320,134683,2,0,B|96:320,2,75
224,256,135157,2,0,B|288:192,3,75
352,192,135789,2,0,B|448:192,3,75
448,96,136420,5,2
256,96,136894,1,2
64,96,137368,1,2
64,160,137526,6,0,B|64:256,3,75
128,256,138157,2,0,B|224:256,3,75
256,256,138789,2,0,B|256:352,1,75
320,320,139105,6,0,B|416:320,2,75
256,320,139579,1,0
192,320,139736,2,0,B|96:320,2,75
224,256,140210,2,0,B|288:192,3,75
352,192,140842,2,0,B|448:192,3,75
448,96,141473,5,2
256,96,141947,1,2
64,96,142421,1,2
64,160,142579,6,0,B|64:256,3,75
128,256,143210,2,0,B|224:256,3,75
256,256,143842,2,4,B|256:352,1,75,4|4
160,192,154105,5,8
256,128,154421,2,0,B|352:128,1,75,0|8
288,256,154894,2,0,B|192:256,1,75,0|8
160,192,155368,5,8
256,128,155684,2,0,B|352:128,1,75,0|8
288,256,156157,2,0,B|192:256,1,75,0|8
160,192,156631,5,8
256,128,156947,2,0,B|352:128,1,75,0|8
384,224,157421,2,0,B|320:288,1,75,0|8
224,320,157894,2,4,B|64:320|64:160,1,225
160,64,158842,1,6
160,192,159157,5,12
256,128,159473,2,0,B|352:128,1,75,0|8
288,256,159947,2,0,B|192:256,1,75,0|8
160,192,160421,5,8
256,128,160736,2,0,B|352:128,1,75,0|8
288,256,161210,2,0,B|192:256,1,75,0|8
256,192,161684,12,14,163894
