osu file format v7

[General]
AudioFilename: 22.DjDain-NeverDie.mp3
AudioLeadIn: 0
PreviewTime: 123789
Countdown: 1
SampleSet: Soft
StackLeniency: 0.7
Mode: 0
LetterboxInBreaks: 1

[Editor]
Bookmarks: 164210
DistanceSpacing: 0.800000011920929
BeatDivisor: 4
GridSize: 32

[Metadata]
Title:Never Die
Artist:DJ Dain
Creator:crazymario
Version:Crazy!
Source:Cave Story Remix Project
Tags:cave story final boss theme remix project never die

[Difficulty]
HPDrainRate:6
CircleSize:6
OverallDifficulty:8
SliderMultiplier:1.8
SliderTickRate:2

[Events]
//Background and Video events
0,0,"CS10.png.jpg"
//Break Periods
2,103778,123039
2,144200,153355
//Storyboard Layer 0 (Background)
//Storyboard Layer 1 (Fail)
//Storyboard Layer 2 (Pass)
//Storyboard Layer 3 (Foreground)
//Storyboard Sound Samples
//Background Colour Transformations
3,100,163,162,255

[TimingPoints]
0,315.789473684211,4,2,0,80,1,0
60473,-100,4,1,0,80,0,0
82342,-100,4,2,0,80,0,0
122526,-100,4,1,0,80,0,0
152842,-100,4,2,0,80,0,0
161526,-100,4,1,0,80,0,0

[Colours]
Combo1 : 0,0,176
Combo2 : 0,64,128
Combo3 : 17,166,238

[HitObjects]
96,32,40736,1,0
416,32,41368,1,0
416,352,42000,1,0
96,352,42631,1,0
96,32,43263,5,0
416,32,43894,1,0
416,352,44526,1,0
96,352,45157,1,0
96,32,45789,5,0
416,32,46421,1,0
416,352,47052,1,0
96,352,47684,1,0
96,32,48315,5,0
416,32,48947,1,0
416,352,49578,1,0
96,352,50210,1,0
96,32,50842,5,0
416,32,51474,1,0
416,352,52105,1,0
96,352,52737,1,0
96,32,53368,5,0
416,32,54000,1,0
416,352,54631,1,0
96,352,55263,1,0
96,32,55894,5,0
416,32,56526,1,0
416,352,57157,1,0
96,352,57789,1,0
96,32,58421,5,0
416,32,59052,2,0,B|480:128|384:192,1,180,0|8
256,192,59684,1,8
96,192,60000,1,8
128,128,60157,1,0
192,96,60315,1,8
224,96,60394,1,4
256,96,60473,1,0
288,96,60552,1,0
320,96,60631,6,0,B|416:96,7,90
416,160,61894,2,0,B|416:256,7,90
352,256,63157,6,0,B|256:256,7,90
192,224,64421,2,0,B|96:128,3,90
160,96,65052,2,0,B|256:96,3,90
320,96,65684,6,0,B|416:96,7,90
416,160,66947,2,0,B|416:256,7,90
352,256,68210,6,0,B|256:256,7,90
192,224,69474,2,0,B|96:128,3,90
160,96,70105,2,0,B|256:96,3,90
320,96,70736,6,0,B|416:96,7,90
416,160,71999,2,0,B|416:256,7,90
352,256,73262,6,0,B|256:256,7,90
192,224,74526,2,0,B|96:128,3,90
160,96,75157,2,0,B|256:96,3,90
320,96,75789,6,0,B|416:96,7,90
416,160,77052,2,0,B|416:256,7,90
352,256,78315,6,0,B|256:256,7,90
192,224,79579,2,0,B|96:128,3,90
160,96,80210,2,0,B|256:96,3,90
256,192,80842,12,0,82105
256,192,82736,5,0
256,192,82894,1,0
320,192,83052,1,0
320,192,83131,1,0
320,192,83210,1,0
384,192,83368,6,0,B|384:64,1,90,0|8
256,192,83842,2,0,B|256:96,1,90,0|8
128,192,84315,2,0,B|128:96,1,90,0|8
448,320,85263,5,0
384,288,85421,1,0
320,320,85578,1,0
256,288,85736,1,0
192,288,85894,2,0,B|96:288,1,90,0|8
32,288,86210,5,0
32,160,86526,1,2
32,32,86842,1,0
160,32,87157,1,2
288,32,87473,1,0
416,32,87789,1,2
512,128,88105,1,2
384,192,88421,6,0,B|384:64,1,90,0|8
256,192,88895,2,0,B|256:96,1,90,0|8
128,192,89368,2,0,B|128:96,1,90,0|8
448,320,90316,5,0
384,288,90474,1,0
320,320,90631,1,0
256,288,90789,1,0
192,288,90947,2,0,B|96:288,1,90,0|8
32,288,91263,5,0
32,160,91579,1,2
32,32,91895,1,0
160,32,92210,1,2
288,32,92526,1,0
416,32,92842,1,2
512,128,93158,1,2
384,192,93473,6,0,B|384:64,1,90,0|8
256,192,93947,2,0,B|256:96,1,90,0|8
128,192,94420,2,0,B|128:96,1,90,0|8
448,320,95368,5,0
384,288,95526,1,0
320,320,95683,1,0
256,288,95841,1,0
192,288,95999,2,0,B|96:288,1,90,0|8
32,288,96315,5,0
32,160,96631,1,2
32,32,96947,1,0
160,32,97262,1,2
288,32,97578,1,0
416,32,97894,1,2
512,128,98210,1,2
384,192,98526,6,0,B|384:64,1,90,0|8
256,192,99000,2,0,B|256:96,1,90,0|8
128,192,99473,2,0,B|128:96,1,90,0|8
448,320,100421,5,0
384,288,100579,1,0
320,320,100736,1,0
256,288,100894,1,0
192,288,101052,2,0,B|96:288,1,90,0|8
32,288,101368,5,0
32,160,101684,1,2
32,32,102000,1,0
160,32,102315,1,2
288,32,102631,1,0
416,32,102947,1,2
512,128,103263,1,2
416,224,103578,1,14
256,32,123789,5,0
320,32,123947,2,0,B|384:32|384:96,2,90
256,96,124421,1,0
192,32,124578,2,0,B|128:32|128:96,2,90
256,96,125052,6,0,B|352:192,3,90
320,224,125684,2,0,B|224:320,3,90
192,320,126315,6,0,B|128:320|128:256,1,90,2|0
128,192,126631,1,0
128,128,126789,2,0,B|128:64|224:64,1,90,2|0
256,64,127105,1,0
320,64,127263,2,0,B|384:64|384:128,1,90,2|0
384,192,127578,6,0,B|288:192,3,90
256,128,128210,6,0,B|256:32,3,90
256,32,128842,5,0
320,32,129000,2,0,B|384:32|384:96,2,90
256,96,129474,1,0
192,32,129631,2,0,B|128:32|128:96,2,90
256,96,130105,6,0,B|352:192,3,90
320,224,130737,2,0,B|224:320,3,90
192,320,131368,6,0,B|128:320|128:256,1,90,2|0
128,192,131684,1,0
128,128,131842,2,0,B|128:64|224:64,1,90,2|0
256,64,132158,1,0
320,64,132316,2,0,B|384:64|384:128,1,90,2|0
384,192,132631,6,0,B|288:192,3,90
256,128,133263,6,0,B|256:32,3,90
256,32,133894,5,0
320,32,134052,2,0,B|384:32|384:96,2,90
256,96,134526,1,0
192,32,134683,2,0,B|128:32|128:96,2,90
256,96,135157,6,0,B|352:192,3,90
320,224,135789,2,0,B|224:320,3,90
192,320,136420,6,0,B|128:320|128:256,1,90,2|0
128,192,136736,1,0
128,128,136894,2,0,B|128:64|224:64,1,90,2|0
256,64,137210,1,0
320,64,137368,2,0,B|384:64|384:128,1,90,2|0
384,192,137683,6,0,B|288:192,3,90
256,128,138315,6,0,B|256:32,3,90
256,32,138947,5,0
320,32,139105,2,0,B|384:32|384:96,2,90
256,96,139579,1,0
192,32,139736,2,0,B|128:32|128:96,2,90
256,96,140210,6,0,B|352:192,3,90
320,224,140842,2,0,B|224:320,3,90
192,320,141473,6,0,B|128:320|128:256,1,90,2|0
128,192,141789,1,0
128,128,141947,2,0,B|128:64|224:64,1,90,2|0
256,64,142263,1,0
320,64,142421,2,0,B|384:64|384:128,1,90,2|0
384,192,142736,6,0,B|288:192,3,90
256,128,143368,6,0,B|256:32,3,90
256,38,144000,1,4
32,192,154105,5,8
128,96,154421,2,0,B|224:96,1,90,0|8
352,96,154894,2,0,B|416:96|416:160,1,90,0|8
416,288,155368,5,8
288,288,155684,2,0,B|192:288,1,90,0|8
64,288,156157,2,0,B|64:224|128:224,1,90,0|8
256,192,156631,5,8
384,192,156947,2,0,B|448:192|448:96,1,90,0|8
320,96,157421,2,0,B|224:96,1,90,0|8
128,192,157894,6,0,B|224:192,1,90,4|0
288,192,158210,2,0,B|352:192|352:256,1,90,4|0
352,320,158526,2,0,B|256:320,1,90,4|0
192,288,158842,2,0,B|96:288|96:224,1,90,4|0
32,192,159157,5,12
160,192,159473,2,0,B|256:192,1,90,0|8
384,192,159947,2,0,B|448:192|448:128,1,90,0|8
352,32,160421,5,8
224,32,160736,2,0,B|160:32|160:96,1,90,0|8
160,224,161210,2,0,B|160:288|64:288,1,90,0|8
256,192,161684,12,14,163894
