osu file format v14

[General]
AudioFilename: Dj CUTMAN - Goodnight, My Friends.mp3
AudioLeadIn: 0
PreviewTime: 33649
Countdown: 0
SampleSet: Soft
StackLeniency: 0.7
Mode: 0
LetterboxInBreaks: 1
WidescreenStoryboard: 1

[Editor]
Bookmarks: 17787,34094,128363
DistanceSpacing: 1.2
BeatDivisor: 4
GridSize: 8
TimelineZoom: 1

[Metadata]
Title:Goodnight, My Friends
TitleUnicode:Goodnight, My Friends
Artist:DJ Cutman
ArtistUnicode:DJ Cutman
Creator:HoundOfTindalos
Version:Normal
Source:
Tags:DJ Cutman Pokemon remix
BeatmapID:659072
BeatmapSetID:290283

[Difficulty]
HPDrainRate:4
CircleSize:3
OverallDifficulty:4
ApproachRate:4
SliderMultiplier:1.4
SliderTickRate:1

[Events]
//Background and Video events
0,0,"under_the_moon_wallpaper_by_dragonsdenda-d69j43o.jpg",0,0
//Break Periods
2,22744,33589
2,93108,103407
//Storyboard Layer 0 (Background)
//Storyboard Layer 1 (Fail)
//Storyboard Layer 2 (Pass)
//Storyboard Layer 3 (Foreground)
//Storyboard Sound Samples

[TimingPoints]
0,727.272727272727,4,2,0,100,1,0
34909,-100,4,2,0,100,0,1
58181,-100,4,2,0,100,0,0
69818,-100,4,2,0,100,0,1
93090,-100,4,2,0,100,0,0
104727,-100,4,2,0,100,0,1
127999,-100,4,2,0,100,0,0

[Colours]
Combo1 : 229,229,229
Combo2 : 1,55,243
Combo3 : 11,155,116

[HitObjects]
136,264,0,5,0,0:0:0:0:
120,176,727,2,0,L|109:96,2,70,8|0|8,0:0|0:0|0:0,0:0:0:0:
192,72,2181,2,0,P|227:53|272:66,2,70,8|0|8,0:0|0:0|0:0,0:0:0:0:
336,104,3636,2,0,P|352:134|348:168,6,70,8|0|0|0|8|8|0,0:0|0:0|0:0|0:0|0:0|0:0|0:0,0:0:0:0:
248,80,6545,2,0,L|167:79,2,70,8|0|0,0:0|0:0|0:0,0:0:0:0:
280,160,7999,2,0,L|231:224,2,70,8|0|0,0:0|0:0|0:0,0:0:0:0:
368,200,9454,2,0,L|368:280,4,70,8|0|0|0|0,0:0|0:0|0:0|0:0|0:0,0:0:0:0:
368,80,11636,1,0,0:0:0:0:
272,80,12363,2,0,P|232:95|216:139,2,70,8|0|0,0:0|0:0|0:0,0:0:0:0:
352,128,13818,2,0,P|386:151|393:198,2,70,8|0|0,0:0|0:0|0:0,0:0:0:0:
288,168,15272,2,0,P|266:202|278:248,6,70,8|0|0|0|8|8|0,0:0|0:0|0:0|0:0|0:0|0:0|0:0,0:0:0:0:
368,112,18181,2,0,L|436:68,2,70,8|0|0,0:0|0:0|0:0,0:0:0:0:
280,128,19636,2,0,L|280:48,2,70,8|0|0,0:0|0:0|0:0,0:0:0:0:
192,136,21090,2,0,L|142:72,4,70,8|0|0|0|0,0:0|0:0|0:0|0:0|0:0,0:0:0:0:
368,104,34909,6,0,L|416:56,2,35
304,160,35636,1,8,0:0:0:0:
240,120,35999,2,0,L|200:88,1,35
240,200,36545,2,0,L|208:240,1,35
304,160,37090,1,0,0:0:0:0:
384,160,37454,6,0,L|440:160,4,35
304,160,38545,1,8,0:0:0:0:
224,112,38909,2,0,L|192:88,1,35
120,120,39454,2,0,L|88:168,1,35
160,208,39999,2,0,L|192:232,6,35
224,144,41454,5,8,0:0:0:0:
304,88,41818,2,0,L|304:32,1,35
360,144,42363,2,0,L|416:144,1,35
272,144,42909,1,0,0:0:0:0:
192,144,43272,2,0,L|152:144,2,35
232,208,43999,6,0,L|208:240,2,35,0|0|8,0:0|0:0|0:0,0:0:0:0:
336,184,44727,2,0,L|368:152,1,35
304,104,45272,2,0,L|264:80,1,35
200,64,45818,2,0,L|160:64,6,35
288,64,47272,5,8,0:0:0:0:
352,144,47636,2,0,L|352:192,1,35
320,248,48181,2,0,L|296:288,1,35
224,304,48727,1,0,0:0:0:0:
144,304,49090,6,0,L|104:304,4,35
216,264,50181,1,8,0:0:0:0:
216,176,50545,2,0,L|168:176,1,35
240,104,51090,2,0,L|208:80,1,35
320,72,51636,2,0,L|320:32,6,35
320,144,53090,5,8,0:0:0:0:
320,216,53454,2,0,L|320:256,1,35
248,256,53999,2,0,L|216:288,1,35
152,304,54545,1,0,0:0:0:0:
112,232,54909,2,0,L|88:192,2,35
184,208,55636,6,0,L|184:152,2,35,0|0|8,0:0|0:0|0:0,0:0:0:0:
264,176,56363,2,0,L|264:120,1,35
264,104,56909,2,0,L|264:48,1,35
184,64,57454,2,0,L|144:64,3,35
264,64,58545,6,0,L|424:64,1,140
408,144,59636,2,0,L|408:288,2,140
336,144,61454,6,0,L|176:144,1,140
152,216,62545,2,0,P|120:160|152:64,2,140
224,256,64363,6,0,P|288:272|384:256,1,140
360,176,65454,2,0,B|336:152|384:80|360:32,2,140
360,264,67272,2,0,B|320:296|296:272|224:272,3,140
168,216,69818,6,0,L|168:152,2,35
216,280,70545,1,8,0:0:0:0:
288,232,70909,2,0,L|336:232,1,35
376,176,71454,2,0,L|416:128,1,35
344,72,71999,1,0,0:0:0:0:
280,136,72363,6,0,L|248:176,4,35
320,80,73454,1,8,0:0:0:0:
400,72,73818,2,0,L|400:8,1,35
400,136,74363,2,0,L|400:176,1,35
312,136,74909,2,0,L|280:176,6,35
360,80,76363,5,8,0:0:0:0:
280,64,76727,2,0,L|240:64,1,35
176,64,77272,2,0,L|136:64,1,35
88,128,77818,1,0,0:0:0:0:
88,208,78181,2,0,L|88:256,2,35
160,160,78908,6,0,L|216:160,2,35,0|0|8,0:0|0:0|0:0,0:0:0:0:
192,240,79636,2,0,L|224:264,1,35
288,216,80181,2,0,L|288:176,1,35
224,112,80727,2,0,L|192:88,6,35
296,160,82181,5,8,0:0:0:0:
376,144,82545,2,0,L|416:144,1,35
352,232,83090,2,0,L|384:256,1,35
272,216,83636,1,0,0:0:0:0:
272,136,83999,6,0,L|272:72,4,35
272,216,85090,1,8,0:0:0:0:
192,192,85454,2,0,L|152:152,1,35
160,88,85999,2,0,L|104:88,1,35
80,160,86545,2,0,L|56:208,6,35
160,152,87999,5,8,0:0:0:0:
240,152,88363,2,0,L|280:152,1,35
352,152,88909,2,0,L|400:152,1,35
392,232,89454,1,0,0:0:0:0:
392,304,89818,2,0,L|392:344,2,35
392,224,90545,6,0,L|424:184,2,35,0|0|8,0:0|0:0|0:0,0:0:0:0:
312,224,91272,2,0,L|272:224,1,35
208,224,91818,2,0,L|160:224,1,35
128,152,92363,2,0,L|112:120,3,35
160,264,104727,6,0,L|112:264,2,35
224,216,105454,1,8,0:0:0:0:
312,216,105817,2,0,L|360:216,1,35
312,144,106363,2,0,L|360:144,1,35
424,144,106908,1,0,0:0:0:0:
360,96,107272,6,0,L|320:56,4,35
384,176,108363,1,8,0:0:0:0:
392,256,108727,2,0,L|392:312,1,35
296,256,109272,2,0,L|296:312,1,35
344,192,109817,6,0,L|344:144,6,35
280,256,111272,1,8,0:0:0:0:
192,256,111636,2,0,L|152:256,1,35
208,176,112181,2,0,L|176:144,1,35
240,80,112727,1,0,0:0:0:0:
328,80,113090,2,0,L|368:80,2,35
304,160,113818,6,0,L|336:184,2,35,0|0|8,0:0|0:0|0:0,0:0:0:0:
224,128,114545,2,0,L|168:160,1,35
152,216,115090,2,0,L|176:248,1,35
256,264,115636,2,0,L|296:264,6,35
192,208,117090,5,8,0:0:0:0:
224,120,117454,2,0,L|224:64,1,35
272,48,117999,2,0,L|312:48,1,35
376,112,118545,1,0,0:0:0:0:
304,160,118909,6,0,L|264:160,4,35
376,160,119999,1,8,0:0:0:0:
424,224,120363,2,0,L|464:256,1,35
352,264,120908,2,0,L|352:304,1,35
272,240,121454,2,0,L|240:272,6,35
328,184,122909,5,8,0:0:0:0:
328,104,123272,2,0,L|280:104,1,35
224,136,123818,2,0,L|200:168,1,35
240,240,124363,1,0,0:0:0:0:
320,264,124727,2,0,L|352:296,2,35
232,208,125454,6,0,L|184:184,2,35,0|0|8,0:0|0:0|0:0,0:0:0:0:
304,168,126181,2,0,L|328:120,1,35
256,88,126727,2,0,L|200:56,1,35
176,144,127272,2,0,L|152:192,4,35,0|0|0|0|4,0:0|0:0|0:0|0:0|0:0,0:0:0:0:
