osu file format v14

[General]
AudioFilename: Dj CUTMAN - Goodnight, My Friends.mp3
AudioLeadIn: 0
PreviewTime: 33649
Countdown: 0
SampleSet: Soft
StackLeniency: 0.7
Mode: 0
LetterboxInBreaks: 1
WidescreenStoryboard: 0

[Editor]
Bookmarks: 17787,34094,128363
DistanceSpacing: 1.4
BeatDivisor: 4
GridSize: 8
TimelineZoom: 1

[Metadata]
Title:Goodnight, My Friends
TitleUnicode:Goodnight, My Friends
Artist:DJ Cutman
ArtistUnicode:DJ Cutman
Creator:HoundOfTindalos
Version:Hard
Source:
Tags:DJ Cutman Pokemon remix
BeatmapID:654004
BeatmapSetID:290283

[Difficulty]
HPDrainRate:6
CircleSize:4
OverallDifficulty:5
ApproachRate:6
SliderMultiplier:1.4
SliderTickRate:1

[Events]
//Background and Video events
0,0,"under_the_moon_wallpaper_by_dragonsdenda-d69j43o.jpg",0,0
//Break Periods
2,23272,33859
//Storyboard Layer 0 (Background)
//Storyboard Layer 1 (Fail)
//Storyboard Layer 2 (Pass)
//Storyboard Layer 3 (Foreground)
//Storyboard Sound Samples

[TimingPoints]
0,727.272727272727,4,2,0,100,1,0
100,-133.333333333333,4,2,0,100,0,0
34909,-100,4,2,0,100,0,1
46423,-100,4,2,0,40,0,1
46683,-100,4,2,0,100,0,1
58106,-100,4,2,0,40,0,0
58356,-133.333333333333,4,2,0,100,0,0
69818,-100,4,2,0,100,0,1
69918,-100,4,2,0,100,0,1
81332,-100,4,2,0,40,0,1
81572,-100,4,2,0,100,0,1
92975,-100,4,2,0,40,0,1
93090,-133.333333333333,4,2,0,40,0,0
93275,-133.333333333333,4,2,0,100,0,0
104709,-100,4,2,0,40,0,0
104727,-100,4,2,0,100,0,1
116252,-100,4,2,0,40,0,1
116502,-100,4,2,0,100,0,1
127915,-100,4,2,0,40,0,0
127999,-100,4,2,0,40,0,0

[Colours]
Combo1 : 229,229,229
Combo2 : 1,55,243
Combo3 : 11,155,116

[HitObjects]
128,80,0,5,0,0:0:0:0:
272,72,727,1,8,0:0:0:0:
336,112,1090,1,0,0:0:0:0:
376,184,1454,1,0,0:0:0:0:
256,136,2181,5,8,0:0:0:0:
144,192,2545,1,0,0:0:0:0:
256,240,2909,1,0,0:0:0:0:
216,56,3636,5,8,0:0:0:0:
144,96,3999,1,0,0:0:0:0:
96,168,4363,1,0,0:0:0:0:
104,256,4727,1,0,0:0:0:0:
192,304,5090,1,0,0:0:0:0:
280,320,5454,1,8,0:0:0:0:
360,296,5818,5,8,0:0:0:0:
312,72,6545,2,0,P|328:80|368:112,2,52.5000020027161
144,152,8000,5,8,0:0:0:0:
184,224,8363,1,0,0:0:0:0:
232,296,8727,1,0,0:0:0:0:
336,272,9454,5,8,0:0:0:0:
384,216,9818,1,0,0:0:0:0:
400,144,10181,1,0,0:0:0:0:
368,72,10545,2,0,P|347:51|304:40,1,52.5000020027161
192,88,11636,5,0,0:0:0:0:
288,136,12363,1,8,0:0:0:0:
264,208,12727,1,0,0:0:0:0:
208,256,13090,1,0,0:0:0:0:
88,200,13818,5,8,0:0:0:0:
104,136,14181,2,0,P|120:104|144:88,1,52.5000020027161
296,96,15272,5,8,0:0:0:0:
352,152,15636,1,0,0:0:0:0:
408,208,15999,1,0,0:0:0:0:
344,272,16363,1,0,0:0:0:0:
272,296,16727,2,0,P|232:296|200:288,2,52.5000020027161
280,48,18181,5,8,0:0:0:0:
352,64,18545,1,0,0:0:0:0:
408,112,18909,1,0,0:0:0:0:
384,216,19636,5,8,0:0:0:0:
328,264,19999,1,0,0:0:0:0:
256,280,20363,1,0,0:0:0:0:
168,240,21090,5,8,0:0:0:0:
136,176,21454,1,0,0:0:0:0:
168,112,21818,1,0,0:0:0:0:
232,80,22181,2,0,P|272:72|296:72,1,52.5000020027161
224,64,34909,5,0,0:0:0:0:
176,120,35090,1,0,0:0:0:0:
144,192,35272,2,0,L|224:192,1,70,0|8,0:0|0:0,0:0:0:0:
328,304,35999,1,0,0:0:0:0:
376,248,36181,1,0,0:0:0:0:
400,96,36545,1,0,0:0:0:0:
336,64,36727,1,0,0:0:0:0:
232,176,37090,5,0,0:0:0:0:
144,64,37454,1,0,0:0:0:0:
96,136,37636,1,0,0:0:0:0:
112,232,37818,5,0,0:0:0:0:
176,304,37999,1,0,0:0:0:0:
272,312,38181,2,0,P|317:299|328:280,1,70,0|8,0:0|0:0,0:0:0:0:
384,240,38909,2,0,L|416:200,1,35
416,128,39454,2,0,L|376:80,1,35
312,56,40000,1,0,0:0:0:0:
248,56,40181,1,0,0:0:0:0:
192,80,40363,1,0,0:0:0:0:
144,120,40545,1,0,0:0:0:0:
112,176,40727,6,0,P|104:192|112:216,1,35
112,264,41090,2,0,P|129:291|170:318,1,70,0|8,0:0|0:0,0:0:0:0:
344,200,41818,2,0,L|404:175,1,35
296,96,42363,2,0,L|236:120,1,35
120,192,42909,1,0,0:0:0:0:
360,320,43272,1,0,0:0:0:0:
416,272,43454,1,0,0:0:0:0:
344,248,43636,1,0,0:0:0:0:
216,120,44000,6,0,L|176:72,2,35,0|8|0,0:0|0:0|0:0,0:0:0:0:
128,232,44727,1,0,0:0:0:0:
128,232,44909,1,0,0:0:0:0:
176,120,45272,1,0,0:0:0:0:
176,120,45454,1,0,0:0:0:0:
272,80,45818,2,0,L|304:112,1,35
304,168,46181,2,0,L|288:200,1,35
392,240,46545,5,4,0:0:0:0:
336,296,46727,1,0,0:0:0:0:
264,328,46909,2,0,P|224:336|184:328,1,70,0|8,0:0|0:0,0:0:0:0:
120,264,47636,1,0,0:0:0:0:
120,264,47818,1,0,0:0:0:0:
112,144,48181,1,0,0:0:0:0:
112,144,48363,1,0,0:0:0:0:
208,168,48727,2,0,P|248:176|304:168,1,70
360,176,49272,1,0,0:0:0:0:
320,240,49454,5,0,0:0:0:0:
272,288,49636,1,0,0:0:0:0:
224,336,49818,2,0,L|144:336,1,70,0|8,0:0|0:0,0:0:0:0:
112,176,50545,1,0,0:0:0:0:
112,176,50727,1,0,0:0:0:0:
184,80,51090,2,0,L|160:48,1,35
304,72,51636,1,0,0:0:0:0:
368,120,51818,1,0,0:0:0:0:
400,192,51999,1,0,0:0:0:0:
392,272,52181,1,0,0:0:0:0:
328,328,52363,2,0,P|304:336|280:328,1,35
216,320,52727,2,0,P|177:306|147:278,1,70,0|8,0:0|0:0,0:0:0:0:
104,216,53454,1,0,0:0:0:0:
104,216,53636,1,0,0:0:0:0:
168,104,53818,2,0,L|144:72,2,35
256,192,54545,1,0,0:0:0:0:
344,104,54909,2,0,L|365:76,1,35
384,56,55272,1,0,0:0:0:0:
296,248,55636,6,0,L|267:276,2,35
208,200,56363,1,0,0:0:0:0:
208,200,56545,1,0,0:0:0:0:
328,80,56909,1,0,0:0:0:0:
328,80,57090,1,0,0:0:0:0:
208,72,57454,2,0,L|184:40,1,35
152,152,57818,2,0,L|112:144,1,35
216,208,58181,1,4,0:0:0:0:
280,264,58545,6,0,L|343:307,2,52.5000020027161
352,152,59636,1,0,0:0:0:0:
232,72,60363,1,0,0:0:0:0:
128,160,60727,1,0,0:0:0:0:
144,304,61090,5,0,0:0:0:0:
352,312,61454,2,0,P|392:304|408:280,2,52.5000020027161
400,88,62545,1,0,0:0:0:0:
240,56,63272,1,0,0:0:0:0:
144,112,63636,1,0,0:0:0:0:
112,224,64000,5,0,0:0:0:0:
240,312,64363,2,0,P|280:320|304:320,2,52.5000020027161
112,176,65454,1,0,0:0:0:0:
256,64,66181,1,0,0:0:0:0:
360,128,66545,1,0,0:0:0:0:
384,248,66909,5,0,0:0:0:0:
288,320,67272,2,0,P|256:328|216:320,5,52.5000020027161
304,256,69818,5,0,0:0:0:0:
272,256,70000,1,0,0:0:0:0:
240,256,70181,2,0,L|160:256,1,70
80,136,70909,1,0,0:0:0:0:
104,112,71090,1,0,0:0:0:0:
264,56,71454,1,0,0:0:0:0:
296,56,71636,1,0,0:0:0:0:
224,184,72000,1,0,0:0:0:0:
392,160,72363,1,0,0:0:0:0:
408,192,72545,1,0,0:0:0:0:
416,232,72727,5,0,0:0:0:0:
408,264,72909,1,0,0:0:0:0:
392,296,73090,2,0,L|312:296,1,70
104,272,73818,1,0,0:0:0:0:
104,272,74000,1,0,0:0:0:0:
168,88,74363,1,0,0:0:0:0:
168,88,74545,1,0,0:0:0:0:
96,208,74909,1,0,0:0:0:0:
152,280,75090,1,0,0:0:0:0:
216,208,75272,1,0,0:0:0:0:
280,280,75454,1,0,0:0:0:0:
360,232,75636,2,0,P|382:219|386:202,1,35
424,136,76000,2,0,P|432:96|416:56,1,70
360,104,76727,1,0,0:0:0:0:
360,104,76909,1,0,0:0:0:0:
264,64,77272,1,0,0:0:0:0:
264,64,77454,1,0,0:0:0:0:
184,120,77818,1,0,0:0:0:0:
104,232,78181,1,0,0:0:0:0:
200,192,78363,1,0,0:0:0:0:
296,208,78545,1,0,0:0:0:0:
392,264,78909,6,0,P|416:272|432:264,2,35
144,232,79636,1,0,0:0:0:0:
144,232,79818,1,0,0:0:0:0:
280,192,80181,1,0,0:0:0:0:
280,192,80363,1,0,0:0:0:0:
216,104,80727,2,0,L|192:72,1,35
176,184,81090,2,0,L|136:176,1,35
256,200,81454,5,0,0:0:0:0:
256,200,81636,1,0,0:0:0:0:
256,200,81818,2,0,L|320:256,1,70
416,248,82545,1,0,0:0:0:0:
416,248,82727,1,0,0:0:0:0:
392,128,83090,1,0,0:0:0:0:
392,128,83272,1,0,0:0:0:0:
264,64,83636,1,0,0:0:0:0:
144,104,84000,1,0,0:0:0:0:
128,128,84181,1,0,0:0:0:0:
120,160,84363,5,0,0:0:0:0:
120,192,84545,1,0,0:0:0:0:
120,224,84727,2,0,L|120:304,1,70
224,328,85454,1,0,0:0:0:0:
224,328,85636,1,0,0:0:0:0:
320,328,86000,1,0,0:0:0:0:
320,328,86181,1,0,0:0:0:0:
368,184,86545,1,0,0:0:0:0:
352,152,86727,1,0,0:0:0:0:
336,128,86909,1,0,0:0:0:0:
312,112,87090,1,0,0:0:0:0:
280,96,87272,2,0,P|256:88|240:88,1,35
208,88,87636,2,0,L|128:88,1,70
96,200,88363,1,0,0:0:0:0:
96,200,88545,1,0,0:0:0:0:
152,280,88909,1,0,0:0:0:0:
152,280,89090,1,0,0:0:0:0:
264,296,89454,1,0,0:0:0:0:
360,256,89818,1,0,0:0:0:0:
400,184,89999,1,0,0:0:0:0:
360,96,90181,1,0,0:0:0:0:
280,176,90545,6,0,L|240:176,2,35,0|8|0,0:0|0:0|0:0,0:0:0:0:
376,216,91272,1,0,0:0:0:0:
376,216,91454,1,0,0:0:0:0:
352,112,91818,1,0,0:0:0:0:
352,112,92000,1,0,0:0:0:0:
256,72,92363,2,0,L|216:56,1,35
248,152,92727,2,0,L|208:160,1,35
120,96,93090,1,4,0:0:0:0:
328,96,93454,6,0,L|400:112,2,52.5000020027161
216,72,94545,1,0,0:0:0:0:
104,192,95272,1,0,0:0:0:0:
192,280,95636,1,0,0:0:0:0:
320,288,95999,5,0,0:0:0:0:
400,192,96363,2,0,P|419:164|424:128,2,52.5000020027161
288,304,97454,1,0,0:0:0:0:
144,240,98181,1,0,0:0:0:0:
96,112,98545,1,0,0:0:0:0:
224,48,98909,5,0,0:0:0:0:
360,112,99272,2,0,L|424:136,2,52.5000020027161
192,72,100363,1,0,0:0:0:0:
88,224,101090,1,0,0:0:0:0:
224,176,101454,1,0,0:0:0:0:
336,288,101818,5,0,0:0:0:0:
408,176,102181,2,0,P|424:136|416:104,5,52.5000020027161
400,64,104727,5,4,0:0:0:0:
400,96,104909,1,0,0:0:0:0:
400,128,105091,2,0,L|400:208,1,70
296,304,105818,1,0,0:0:0:0:
296,304,106000,1,0,0:0:0:0:
184,280,106363,1,0,0:0:0:0:
184,280,106545,1,0,0:0:0:0:
104,208,106909,1,0,0:0:0:0:
144,120,107272,1,0,0:0:0:0:
176,104,107454,1,0,0:0:0:0:
208,96,107636,5,0,0:0:0:0:
240,96,107818,1,0,0:0:0:0:
272,96,108000,2,0,L|352:96,1,70
392,208,108727,1,0,0:0:0:0:
392,208,108909,1,0,0:0:0:0:
296,264,109272,1,0,0:0:0:0:
296,264,109454,1,0,0:0:0:0:
320,104,109818,1,0,0:0:0:0:
264,56,109999,1,0,0:0:0:0:
192,40,110181,1,0,0:0:0:0:
112,64,110363,1,0,0:0:0:0:
56,128,110545,2,0,P|45:147|51:170,1,35
48,232,110909,2,0,L|48:304,1,70
160,256,111636,1,0,0:0:0:0:
160,256,111818,1,0,0:0:0:0:
256,296,112181,1,0,0:0:0:0:
256,296,112363,1,0,0:0:0:0:
360,256,112727,1,0,0:0:0:0:
416,176,113090,1,0,0:0:0:0:
448,112,113272,1,0,0:0:0:0:
360,112,113454,1,0,0:0:0:0:
280,72,113818,6,0,L|232:48,2,35,0|8|0,0:0|0:0|0:0,0:0:0:0:
224,152,114545,1,0,0:0:0:0:
224,152,114727,1,0,0:0:0:0:
160,240,115090,1,0,0:0:0:0:
160,240,115272,1,0,0:0:0:0:
272,280,115636,2,0,L|296:312,1,35
288,192,116000,2,0,L|328:192,1,35
264,104,116363,5,4,0:0:0:0:
240,96,116545,1,0,0:0:0:0:
216,96,116727,2,0,P|176:112|160:144,1,70
152,256,117454,1,0,0:0:0:0:
152,256,117636,1,0,0:0:0:0:
224,312,118000,1,0,0:0:0:0:
224,312,118181,1,0,0:0:0:0:
344,256,118545,1,0,0:0:0:0:
376,160,118909,1,0,0:0:0:0:
368,136,119090,1,0,0:0:0:0:
352,112,119272,5,0,0:0:0:0:
328,88,119454,1,0,0:0:0:0:
304,72,119636,2,0,P|256:56|224:64,1,70
120,120,120363,1,0,0:0:0:0:
120,120,120545,1,0,0:0:0:0:
120,232,120909,1,0,0:0:0:0:
120,232,121090,1,0,0:0:0:0:
224,296,121454,1,0,0:0:0:0:
296,248,121636,1,0,0:0:0:0:
224,192,121818,1,0,0:0:0:0:
296,136,122000,1,0,0:0:0:0:
192,72,122181,2,0,P|176:72|152:88,1,35
96,136,122545,2,0,P|80:180|79:213,1,70
320,72,123272,1,0,0:0:0:0:
320,72,123454,1,0,0:0:0:0:
256,184,123818,1,0,0:0:0:0:
256,184,124000,1,0,0:0:0:0:
168,64,124363,1,0,0:0:0:0:
88,112,124727,1,0,0:0:0:0:
88,192,124909,1,0,0:0:0:0:
88,280,125090,1,0,0:0:0:0:
184,160,125454,6,0,L|232:144,2,35,0|8|0,0:0|0:0|0:0,0:0:0:0:
128,272,126181,1,0,0:0:0:0:
128,272,126363,1,0,0:0:0:0:
224,312,126727,1,0,0:0:0:0:
224,312,126909,1,0,0:0:0:0:
296,240,127272,2,0,L|336:240,1,35
296,168,127636,2,0,L|336:168,1,35
240,80,128000,5,4,0:0:0:0:
