osu file format v5

[General]
AudioFilename: Dj Contacreast - Melody From Heaven.mp3
AudioLeadIn: 0
PreviewTime: 124212
Countdown: 0
SampleSet: Normal
StackLeniency: 1
Mode: 0
LetterboxInBreaks: 1
EditorDistanceSpacing: 1.60000002384186

[Metadata]
Title:Melody From Heaven
Artist:DJ Contacreast
Creator:Ultimate
Version:Heavy
Source:
Tags:

[Difficulty]
HPDrainRate:6
CircleSize:4
OverallDifficulty:7
SliderMultiplier:1
SliderTickRate:1

[Events]
//Background and Video events
0,0,"Color.jpg"
//Break Periods
2,27258,29538
2,44160,49820
2,57681,70102
2,84722,90384
2,98244,103905
2,154019,166441
2,214441,220524
2,241906,247567
//Storyboard Layer 0 (Background)
//Storyboard Layer 1 (Failing)
//Storyboard Layer 2 (Passing)
//Storyboard Layer 3 (Foreground)
//Storyboard Sound Samples
//Background Colour Transformations
3,100,0,0,0

[TimingPoints]
6765,845.070422535211,4,2,0,43,1,0
20403,-100,4,1,0,36,0,0
23467,-100,4,1,0,58,0,0
25339,-50,4,1,0,74,0,0
30409,-50,4,1,0,100,0,0
50691,-50,4,2,0,100,0,0
56953,-50,4,1,0,100,0,0
70973,-50,4,1,0,100,0,0
77657,-50,4,1,0,68,0,0
84494,-100,4,1,0,100,0,1
84917,-50,4,1,0,100,0,0
104776,-50,4,2,0,57,0,0
106466,-50,4,1,0,66,0,0
108156,-50,4,1,0,80,0,0
109846,-50,4,1,0,83,0,0
180755,-50,4,1,0,69,0,0
193419,-100,4,1,0,100,0,0
194382,-50,4,1,0,100,0,0
207874,-50,4,1,0,64,0,0
221395,-50,4,1,0,100,0,0

[Colours]
Combo1 : 225,205,91
Combo2 : 202,155,244
Combo3 : 142,177,242
Combo4 : 19,223,126

[HitObjects]
120,96,6765,2,0,B|144:72|176:104,1,50
216,96,7610,1,0
272,96,8032,1,0
328,96,8455,2,0,B|352:72|384:104,1,50
384,152,9300,2,0,B|384:200,2,37.5
384,152,10145,5,0
368,96,10567,1,0
320,64,10990,2,0,B|280:48|248:72,1,75
249,71,11835,1,0
216,120,12257,1,0
184,168,12680,2,0,B|136:168|136:224,1,75
136,215,13525,6,0,B|104:215|104:255,1,50,0|0
104,304,14370,1,0
104,304,14581,1,0
104,304,14793,1,0
104,304,15004,1,0
104,304,15215,2,0,B|128:328|152:296,1,50
192,264,16060,2,0,L|274:236,1,75
263,240,16905,6,0,B|319:240,1,50
375,240,17750,2,0,B|375:272,4,25
375,176,19018,1,0
375,112,19441,2,0,B|327:88|271:112,1,100
247,144,20497,6,0,B|248:187,6,25
247,96,21976,2,0,B|223:80|191:104,3,50
199,176,23666,6,0,B|231:176,7,25
199,248,25356,6,0,B|231:248,8,25,0|0|0|0|0|0|0|0|4
256,192,26307,12,0,27046
256,192,30426,5,0
416,192,30848,1,8
336,48,31272,1,0
336,48,31377,1,8
336,48,31483,1,0
256,48,31694,1,8
256,48,31905,1,8
256,48,32117,2,0,B|200:24|152:56,1,100,0|8
160,208,32962,5,2
256,272,33279,1,2
352,208,33595,1,2
352,208,33807,5,0
256,80,34229,1,8
112,152,34652,1,0
112,152,34757,1,8
112,152,34863,2,0,B|80:184|128:200,1,50,0|8
168,248,35286,1,8
248,248,35497,2,0,B|296:208|360:264,1,100,0|8
440,120,36342,5,0
368,88,36553,1,0
368,88,36659,1,8
288,88,36870,1,8
288,88,36976,1,0
216,120,37187,6,0,B|168:88|112:128,1,100,0|8
64,176,37821,1,0
120,232,38032,1,0
120,232,38138,1,8
120,232,38243,1,0
192,192,38455,1,8
192,272,38666,1,8
256,320,38877,2,0,B|304:344|356:317,1,100,0|8
352,160,39722,5,2
264,80,40039,1,2
176,160,40356,1,2
96,160,40567,6,0,B|72:208|99:260,1,100,4|8
256,256,41412,1,0
256,256,41518,1,8
256,256,41624,1,0
216,328,41835,1,8
296,328,42046,1,8
296,328,42257,2,0,B|344:352|396:325,1,100
440,176,43103,5,8
392,112,43314,1,0
392,112,43419,2,8,B|360:80|320:112,1,75
264,160,43948,1,4
112,192,50708,5,0
112,192,50814,1,8
112,192,50919,1,0
112,192,51025,1,0
112,192,51131,1,8
256,272,51553,1,8
256,112,51976,1,8
392,192,52398,5,0
392,192,52504,1,8
392,192,52609,1,0
392,192,52715,1,0
392,192,52821,1,8
256,112,53243,1,8
256,272,53666,1,8
112,208,54088,6,0,B|112:176,4,25,0|8|0|0|8
256,192,54934,1,8
256,192,55145,1,8
256,192,55356,1,8
400,176,55779,6,0,B|400:208,4,25,0|8|0|0|8
256,112,56624,1,8
256,192,56835,1,8
256,272,57046,1,8
256,192,57257,1,8
256,112,57469,1,4
128,296,70990,6,0,B|96:248|136:200,1,100,0|8
133,204,71835,2,0,B|181:172|229:212,1,100,0|8
225,209,72680,2,0,B|257:161|217:113,1,100,0|8
220,117,73525,2,0,B|172:85|124:125,1,100,0|8
127,122,74159,1,8
80,184,74370,5,0
128,248,74581,1,0
80,312,74793,1,8
240,312,75215,1,0
288,248,75426,1,0
240,184,75638,1,8
96,248,76060,1,0
96,248,76271,1,0
96,248,76483,6,0,B|72:216|111:186,1,50,8|8
128,128,76905,1,0
128,128,77011,1,8
128,128,77117,1,0
208,120,77328,1,8
208,120,77539,1,8
288,120,77750,6,0,B|256:168|328:168|272:232,1,100,0|8
286,214,78384,1,0
364,213,78595,2,0,B|396:165|324:165|380:101,1,100,0|8
367,120,79229,1,0
288,120,79441,2,0,B|256:96|216:128,2,75,0|8|8
328,48,80286,1,0
328,48,80391,1,8
328,48,80497,1,0
408,48,80708,2,8,B|464:48,1,50
458,123,81131,6,0,B|458:211,2,75,0|0|8
457,123,81976,2,0,B|457:35,2,75,0|0|8
376,123,82821,2,0,B|328:123|328:179,2,75,0|8|8
376,43,83666,1,0
376,43,83772,1,8
376,43,83877,1,0
296,43,84088,2,0,B|256:43,4,25,8|0|8|0|4
408,296,91272,5,4
256,232,91694,1,8
112,152,92117,1,0
112,72,92328,2,0,B|152:72,2,25,0|0|8
112,152,92750,2,0,B|112:224,1,50,8|0
224,312,93384,1,8
320,184,93807,2,0,B|296:144|240:136,2,75,2|2|2
400,184,94652,5,0
304,312,95074,1,8
144,312,95497,1,0
96,248,95708,1,0
96,248,95814,1,8
96,248,95919,1,0
144,184,96131,1,8
144,184,96342,2,0,B|216:112,1,100,0|8
376,112,97187,5,0
320,168,97398,1,0
320,168,97504,1,8
400,184,97715,1,0
400,184,97821,1,8
346,243,98032,1,4
296,152,104793,6,2,B|328:120,2,25
296,232,105215,2,2,B|328:264,2,25
216,232,105638,2,2,B|184:264,2,25
216,152,106060,2,2,B|184:120,2,25
296,152,106483,5,0
336,152,106588,1,0
376,152,106694,1,0
376,232,106905,1,0
336,232,107010,1,0
296,232,107116,1,0
216,232,107328,1,0
176,232,107433,1,0
136,232,107539,1,0
136,152,107750,1,0
176,152,107855,1,0
216,152,107961,1,0
256,192,108173,12,4,109441
256,192,109863,12,0,111553
152,80,111976,5,8
312,80,112398,1,0
312,240,112821,1,8
152,240,113243,1,0
312,240,113666,1,8
312,80,114088,1,0
152,80,114511,1,8
208,136,114722,1,8
288,136,114934,6,0,B|344:152|344:200,2,75,0|0|8
208,136,115779,2,0,B|152:152|152:200,2,75,0|0|8
288,136,116624,1,0
288,216,116835,1,0
208,216,117046,1,8
208,136,117257,1,8
136,176,117469,1,0
136,176,117574,1,8
136,176,117680,1,0
56,176,117891,1,8
56,176,117997,1,0
56,176,118103,1,8
96,248,118314,6,0,B|120:280,2,25
136,176,118736,1,8
136,176,118948,1,8
96,104,119159,2,0,B|72:72,2,25
176,104,119581,1,8
176,104,119793,1,8
216,32,120004,2,0,B|264:32|296:80,2,75,0|0|8
136,32,120849,2,0,B|88:32|56:80,2,75,0|0|8
216,32,121694,6,0,B|328:32,1,100,0|8
316,32,122222,1,0
316,32,122328,1,0
392,32,122539,2,0,B|392:144,1,100,0|8
392,132,123067,1,0
392,132,123173,1,0
312,132,123384,2,0,B|248:144|248:208,1,100,0|8
247,278,124018,2,0,B|183:278,1,50
160,208,124441,1,0
160,208,124546,1,8
200,136,124757,1,8
200,136,124863,1,8
256,192,125074,5,0
96,192,125496,1,8
176,48,125920,1,0
176,48,126025,1,8
176,48,126131,1,0
256,48,126342,1,8
256,48,126553,1,8
256,48,126765,2,0,B|312:24|360:56,1,100,0|8
352,208,127610,5,2
256,272,127927,1,2
160,208,128243,1,2
160,208,128455,5,4
256,80,128877,1,8
400,152,129300,1,0
400,152,129405,1,8
400,152,129511,2,0,B|432:184|384:200,1,50,0|8
344,248,129934,1,8
264,248,130145,2,0,B|216:208|152:264,1,100,0|8
72,120,130990,5,0
144,88,131201,1,8
144,88,131307,1,8
224,88,131518,1,8
224,88,131624,1,4
296,120,131835,6,0,B|344:88|400:128,1,100,0|8
448,176,132469,1,0
392,232,132680,1,0
392,232,132786,1,8
392,232,132891,1,0
320,192,133103,1,8
320,272,133314,1,8
256,320,133525,2,0,B|208:344|156:317,1,100,0|8
160,160,134370,5,2
248,80,134687,1,2
336,160,135004,1,2
416,160,135215,6,0,B|440:208|413:260,1,100,4|8
256,256,136060,1,0
256,256,136166,1,8
256,256,136272,1,0
296,328,136483,1,8
216,328,136694,1,8
216,328,136905,2,0,B|168:352|116:325,1,100,0|8
256,192,137750,12,0,138595
256,192,140286,5,0
336,192,140497,1,0
336,272,140708,1,8
416,272,140919,1,0
416,192,141131,1,8
416,272,141342,1,0
416,352,141553,1,8
336,352,141764,1,8
336,352,141976,2,0,B|272:352|272:288,1,100,0|8
272,208,142610,1,8
272,128,142821,2,0,B|272:96|224:72,2,75
352,128,143666,5,0
416,88,143877,1,0
416,168,144088,1,8
416,168,144300,1,0
416,248,144511,1,8
416,248,144722,1,0
352,208,144934,2,8,B|288:208,1,50
224,208,145356,2,0,B|168:208|168:280,1,100,0|8
8,272,146201,5,0
56,208,146412,1,0
56,208,146518,1,8
136,208,146729,1,8
136,208,146835,1,8
96,136,147046,6,0,B|96:32,1,100,0|8
176,36,147680,1,0
255,36,147891,2,0,B|255:148,1,100,0|8
255,136,148525,1,8
208,200,148736,2,0,B|256:232|320:192,1,100,0|8
344,48,149581,5,2
255,136,149898,1,2
168,48,150215,1,2
120,112,150426,5,4
72,176,150638,1,0
120,240,150849,1,8
280,240,151272,1,0
328,176,151483,1,0
272,112,151694,2,8,B|208:112,1,50
144,112,152117,2,0,B|144:64,2,25
144,192,152539,2,0,B|144:232,2,25,8|0|8
224,192,152962,1,0
288,232,153173,1,0
288,232,153279,1,8
288,152,153490,1,0
288,152,153595,1,8
352,192,153807,1,4
96,72,167329,5,0
96,72,167540,1,0
96,72,167751,2,0,B|208:72,1,100,8|0
248,128,168385,1,0
248,128,168596,1,8
312,176,168808,2,0,B|352:224|312:272,1,100
264,328,169442,1,8
184,328,169653,2,0,B|136:368|88:328,2,100
184,256,170709,5,0
136,192,170920,1,0
184,128,171132,1,8
344,128,171554,1,0
392,192,171765,1,0
344,256,171977,1,8
184,256,172399,2,0,B|152:208|192:152,1,100,0|8
185,161,173033,1,0
240,104,173244,1,0
240,104,173350,1,8
240,104,173456,1,0
320,104,173667,2,8,B|384:104,1,50
368,184,174089,6,0,B|336:208|336:272,2,75,0|0|8
448,184,174935,2,0,B|480:208|480:272,2,75,0|0|8
408,112,175780,1,2
312,40,176096,1,2
216,112,176413,1,2
184,184,176625,1,0
216,208,176730,1,8
248,184,176836,1,0
216,112,177047,2,8,B|216:56,1,50
136,40,177470,5,0
56,128,177787,1,0
136,216,178104,1,10
216,216,178315,1,0
296,128,178632,1,0
216,40,178949,1,10
168,104,179160,2,0,B|208:128|208:184,2,75,2|2|10
88,104,180005,6,0,B|48:104,2,25,0|8|0
88,184,180427,2,0,B|88:216,2,25,8|0|8
168,184,180850,6,0,B|200:184,4,25
168,104,181484,1,0
224,48,181695,1,0
280,104,181906,1,0
336,48,182118,1,8
392,104,182329,1,0
392,184,182540,6,0,B|424:184,4,25
344,248,183174,1,0
296,184,183385,1,0
248,248,183596,1,0
200,184,183808,1,8
152,248,184019,1,0
72,248,184230,6,0,B|48:192|80:144,1,100
128,88,184864,1,8
192,40,185074,2,0,B|248:16|296:48,1,100,0|0
352,88,185709,1,8
416,136,185920,2,0,B|448:184|448:224,2,75,0|0|8
336,136,186765,2,0,B|304:136|304:168,1,50
304,248,187188,1,8
304,248,187399,1,8
256,184,187611,5,6
184,88,187926,1,2
112,184,188243,1,8
184,184,188455,1,0
184,184,188667,1,8
184,184,188878,1,8
256,184,189088,1,0
256,184,189300,5,2
184,280,189617,1,2
112,184,189934,1,8
184,184,190146,1,0
184,184,190357,1,8
184,184,190567,2,0,B|184:120,1,50,8|0
224,64,190990,6,0,B|256:40|296:40,2,75,2|2|8
144,64,191835,2,0,B|112:40|72:40,2,75,2|2|8
184,136,192680,2,0,B|184:176,2,25
184,56,193103,1,8
184,56,193314,1,8
256,40,193525,6,0,B|256:120,1,75,0|4
256,192,194370,5,8
256,192,194581,1,0
256,192,194793,1,8
312,136,195004,2,0,B|344:136,2,25,0|0|8
256,80,195426,1,0
256,80,195532,1,8
176,80,195743,1,8
176,80,195849,1,0
176,80,195955,1,0
176,80,196060,6,0,B|120:112|120:160,1,100,0|8
120,240,196694,2,0,B|80:240,2,25,0|0|8
184,288,197117,1,0
184,288,197222,1,8
248,336,197434,1,8
248,336,197539,1,0
248,336,197645,1,0
248,336,197750,6,0,B|312:336|312:272,1,100,0|8
312,192,198384,2,0,B|384:192,3,50,0|0|0|8
360,112,199229,1,8
360,112,199335,1,0
360,112,199441,6,0,B|360:48|288:48,1,100,0|8
216,48,200074,1,0
216,48,200180,1,0
216,48,200286,2,0,B|152:48|152:112,1,100,0|8
256,192,201131,5,0
256,192,201342,1,0
256,192,201554,1,8
312,248,201765,2,0,B|312:280,2,25,0|0|8
368,192,202187,1,0
368,192,202293,1,8
368,112,202504,1,8
368,112,202610,1,0
368,112,202716,1,0
368,112,202821,6,0,B|336:56|288:56,1,100,0|8
208,56,203455,2,0,B|208:16,2,25,0|0|8
160,120,203878,1,0
160,120,203983,1,8
112,184,204195,1,8
112,184,204300,1,0
112,184,204406,1,0
112,184,204511,6,0,B|112:248|176:248,1,100,0|8
256,248,205145,2,0,B|256:320,3,50,0|0|0|8
336,296,205990,1,8
336,296,206096,1,0
336,296,206202,6,0,B|400:296|400:224,1,100,0|8
256,192,206835,12,4,207469
160,104,207891,5,0
160,104,208103,1,0
160,104,208314,2,0,B|248:104,2,75,8|0|0
80,104,209159,2,0,B|80:176,1,50,8|0
80,232,209581,5,0
144,280,209793,1,0
207,231,210004,2,0,B|295:231,2,75,8|0|0
151,175,210849,2,0,B|151:111,1,50,8|0
207,71,211272,5,0
263,127,211483,1,0
319,183,211694,2,0,B|407:183,2,75,8|0|0
263,239,212539,1,8
263,239,212750,1,8
263,239,212962,6,0,B|175:239,2,75,0|0|8
343,239,213807,2,8,B|407:239|407:167,1,100
256,192,221412,5,0
96,192,221834,1,8
176,48,222258,1,0
176,48,222363,1,8
176,48,222469,1,0
256,48,222680,1,8
256,48,222891,1,8
256,48,223103,2,0,B|312:24|360:56,1,100,0|8
352,208,223948,5,2
256,272,224265,1,2
160,208,224581,1,2
160,208,224793,5,4
256,80,225215,1,8
400,152,225638,1,0
400,152,225743,1,8
400,152,225849,2,0,B|432:184|384:200,1,50,0|8
344,248,226272,1,8
264,248,226483,2,0,B|216:208|152:264,1,100,0|8
72,120,227328,5,0
144,88,227539,1,8
144,88,227645,1,8
224,88,227856,1,8
224,88,227962,1,0
296,120,228173,6,0,B|344:88|400:128,1,100,0|8
448,176,228807,1,0
392,232,229018,1,0
392,232,229124,1,8
392,232,229229,1,0
320,192,229441,1,8
320,272,229652,1,8
256,320,229863,2,0,B|208:344|156:317,1,100,0|8
160,160,230708,5,2
248,80,231025,1,2
336,160,231342,1,2
416,160,231553,6,0,B|440:208|413:260,1,100,0|8
256,256,232398,1,0
256,256,232504,1,8
256,256,232610,1,0
296,328,232821,1,8
216,328,233032,1,8
216,328,233243,2,0,B|168:352|116:325,1,100
72,176,234089,5,8
120,112,234300,1,0
120,112,234405,2,0,B|152:80|192:112,1,75,8|8
248,160,234934,5,0
248,160,235145,1,0
328,160,235356,1,0
328,160,235567,1,0
408,160,235779,1,0
408,160,235990,1,0
488,160,236201,1,0
448,88,236412,5,0
416,64,236518,1,0
376,64,236624,1,0
296,64,236835,1,0
216,64,237046,1,0
216,64,237257,1,0
216,64,237469,2,0,B|168:72|168:136,2,75
296,64,238314,6,0,B|360:64,1,50
424,64,238736,2,0,B|464:64|464:104,1,50
464,168,239159,2,0,B|464:208|424:208,1,50
360,208,239581,1,0
280,208,239793,6,0,B|248:208,2,25
360,208,240215,1,0
320,136,240426,2,0,B|256:136,1,50
208,184,240849,2,0,B|152:184,1,50
104,240,241272,2,0,B|40:240,1,50,0|4
54,240,241694,1,4
256,192,248455,5,0
256,192,248666,1,0
256,192,248878,1,8
200,136,249089,2,0,B|168:136,2,25,0|0|8
256,80,249511,1,0
256,80,249617,1,8
336,80,249828,1,8
336,80,249934,1,0
336,80,250040,1,0
336,80,250145,6,0,B|392:112|392:160,1,100,0|8
392,240,250779,2,0,B|432:240,2,25,0|0|8
328,288,251202,1,0
328,288,251307,1,8
264,336,251519,1,8
264,336,251624,1,0
264,336,251730,1,0
264,336,251835,6,0,B|200:336|200:272,1,100,0|8
200,192,252469,2,0,B|128:192,3,50,0|0|0|8
152,112,253314,1,8
152,112,253420,1,0
152,112,253526,6,0,B|152:48|224:48,1,100,0|8
296,48,254159,1,0
296,48,254265,1,0
296,48,254371,2,0,B|360:48|360:112,1,100,0|8
256,192,255216,5,0
256,192,255427,1,0
256,192,255639,1,8
200,248,255850,2,0,B|200:280,2,25,0|0|8
144,192,256272,1,0
144,192,256378,1,8
144,112,256589,1,8
144,112,256695,1,0
144,112,256801,1,0
144,112,256906,6,0,B|176:56|224:56,1,100,0|8
304,56,257540,2,0,B|304:16,2,25,0|0|8
352,120,257963,1,0
352,120,258068,1,8
400,184,258280,1,8
400,184,258385,1,0
400,184,258491,1,0
400,184,258596,6,0,B|400:248|336:248,1,100,0|8
256,248,259230,2,0,B|256:320,4,50,0|0|0|8|0
256,168,260286,1,8
256,168,260497,1,0
256,168,260708,1,8
256,168,260919,1,8
256,192,261131,12,4,261976
