osu file format v6

[General]
AudioFilename: DJ Contacreast - In The Silence.MP3
AudioLeadIn: 0
PreviewTime: 14327
Countdown: 1
SampleSet: Soft
StackLeniency: 0.7
Mode: 0
LetterboxInBreaks: 1

[Editor]
DistanceSpacing: 0.800000011920929
BeatDivisor: 4
GridSize: 8

[Metadata]
Title:In The Silence
Artist:DJ Contacreast
Creator:xxheroxx
Version:Normal
Source:
Tags:

[Difficulty]
HPDrainRate:4
CircleSize:5
OverallDifficulty:4
SliderMultiplier:1.3
SliderTickRate:1

[Events]
//Background and Video events
0,0,"anime-goth-cute-lonely.jpg"
//Break Periods
2,69384,81578
//Storyboard Layer 0 (Background)
//Storyboard Layer 1 (Fail)
//Storyboard Layer 2 (Pass)
//Storyboard Layer 3 (Foreground)
//Storyboard Sound Samples
//Background Colour Transformations
3,100,0,0,0

[TimingPoints]
613,428.571428571429,4,2,1,100,1,0
33988,-100,4,2,2,100,0,0
34095,-100,4,2,1,100,0,0
38702,-100,4,2,2,100,0,0
38809,-100,4,2,1,100,0,0
42077,-100,4,1,1,100,0,0
42291,-100,4,2,1,100,0,0
42934,-100,4,1,1,100,0,0
43148,-100,4,2,1,100,0,0
43791,-100,4,1,1,100,0,0
44005,-100,4,2,1,100,0,0
44648,-100,4,1,1,100,0,0
44863,-100,4,2,1,100,0,0
45505,-100,4,1,1,100,0,0
45720,-100,4,2,1,100,0,0
46363,-100,4,1,1,100,0,0
46577,-100,4,2,1,100,0,0
47220,-100,4,1,1,100,0,0
47434,-100,4,2,1,100,0,0
48077,-100,4,1,1,100,0,0
48291,-100,4,2,1,100,0,0
48934,-100,4,1,1,100,0,0
49148,-100,4,2,1,100,0,0
49791,-100,4,1,1,100,0,0
50005,-100,4,2,1,100,0,0
50648,-100,4,1,1,100,0,0
50863,-100,4,2,1,100,0,0
51505,-100,4,1,1,100,0,0
51720,-100,4,2,1,100,0,0
52363,-100,4,1,1,100,0,0
52577,-100,4,2,1,100,0,0
53220,-100,4,1,1,100,0,0
53434,-100,4,2,1,100,0,0
54077,-100,4,1,1,100,0,0
54291,-100,4,2,1,100,0,0
54934,-100,4,1,1,100,0,0
55148,-100,4,2,1,100,0,0
55791,-100,4,1,1,100,0,0
56005,-100,4,2,1,100,0,0
56648,-100,4,1,1,100,0,0
56863,-100,4,2,1,100,0,0
57505,-100,4,1,1,100,0,0
57720,-100,4,2,1,100,0,0
58363,-100,4,1,1,100,0,0
58577,-100,4,2,1,100,0,0
59220,-100,4,1,1,100,0,0
59434,-100,4,2,1,100,0,0
60077,-100,4,1,1,100,0,0
60291,-100,4,2,1,100,0,0
60934,-100,4,1,1,100,0,0
61148,-100,4,2,1,100,0,0
61791,-100,4,1,1,100,0,0
62005,-100,4,2,1,100,0,0
62648,-100,4,1,1,100,0,0
62863,-100,4,2,1,100,0,0
63505,-100,4,1,1,100,0,0
63720,-100,4,2,1,100,0,0
64363,-100,4,1,1,100,0,0
64577,-100,4,2,1,100,0,0
65220,-100,4,1,1,100,0,0
65434,-100,4,2,1,100,0,0
66077,-100,4,1,1,100,0,0
66291,-100,4,2,1,100,0,0
66934,-100,4,1,1,100,0,0
67148,-100,4,2,1,100,0,0
100363,-100,4,2,2,100,0,0
100577,-100,4,2,1,100,0,0
103470,-100,4,2,1,100,0,1
103791,-100,4,1,1,100,0,1
104005,-100,4,2,1,100,0,1
104648,-100,4,1,1,100,0,1
104863,-100,4,2,1,100,0,1
105505,-100,4,1,1,100,0,1
105720,-100,4,2,1,100,0,1
106363,-100,4,1,1,100,0,1
106577,-100,4,2,1,100,0,1
107220,-100,4,1,1,100,0,1
107434,-100,4,2,1,100,0,1
108077,-100,4,1,1,100,0,1
108291,-100,4,2,1,100,0,1
108934,-100,4,1,1,100,0,1
109148,-100,4,2,1,100,0,1
109791,-100,4,1,1,100,0,1
110005,-100,4,2,1,100,0,1
110648,-100,4,1,1,100,0,1
110863,-100,4,2,1,100,0,1
111077,-100,4,2,2,100,0,1
111505,-100,4,1,1,100,0,1
111720,-100,4,2,1,100,0,1
112363,-100,4,1,1,100,0,1
112577,-100,4,2,1,100,0,1
112791,-100,4,2,2,100,0,1
113220,-100,4,1,1,100,0,1
113434,-100,4,2,1,100,0,1
114077,-100,4,1,1,100,0,1
114291,-100,4,2,1,100,0,1
114505,-100,4,2,2,100,0,1
114934,-100,4,1,1,100,0,1
115148,-100,4,2,1,100,0,1
115791,-100,4,1,1,100,0,1
116005,-100,4,2,1,100,0,1
116648,-100,4,1,1,100,0,1
116863,-100,4,2,1,100,0,1
117505,-100,4,1,1,100,0,1
117720,-100,4,2,1,100,0,1
118363,-100,4,1,1,100,0,1
118577,-100,4,2,1,100,0,1
119220,-100,4,1,1,100,0,1
119434,-100,4,2,1,100,0,1
119648,-100,4,2,2,100,0,1
120077,-100,4,1,1,100,0,1
120291,-100,4,2,1,100,0,1
120934,-100,4,1,1,100,0,1
121148,-100,4,2,1,100,0,1
121791,-100,4,1,1,100,0,1
122005,-100,4,2,1,100,0,1
122648,-100,4,1,1,100,0,1
122863,-100,4,2,1,100,0,1
123505,-100,4,1,1,100,0,1
123720,-100,4,2,1,100,0,1
124363,-100,4,1,1,100,0,1
124577,-100,4,2,1,100,0,1
125220,-100,4,1,1,100,0,1
125434,-100,4,2,1,100,0,1
126077,-100,4,1,1,100,0,1
126291,-100,4,2,1,100,0,1
126505,-100,4,2,2,100,0,1
126934,-100,4,1,1,100,0,1
127148,-100,4,2,1,100,0,1
127791,-100,4,1,1,100,0,1
128005,-100,4,2,1,100,0,1
128648,-100,4,1,1,100,0,1
128863,-100,4,2,1,100,0,1
130898,-100,4,2,1,100,0,0

[Colours]
Combo1 : 128,255,255
Combo2 : 255,166,255

[HitObjects]
256,64,28041,1,2
200,152,28470,1,0
304,152,28898,1,2
254,169,29113,2,0,B|254:249,3,65,0|0|0|2
256,336,30184,6,0,B|160:232,1,130,0|2
256,336,31041,2,0,B|352:232,1,130,0|2
256,192,31898,6,0,B|184:128,1,65
256,128,32327,2,0,B|328:64,1,65,2|0
256,64,32755,2,0,B|184:0,2,65,0|0|2
328,139,33613,6,0,B|336:203|306:245|247:232|187:234|176:187|188:117,1,260,0|4
140,233,34898,5,0
203,315,35327,1,2
203,315,35541,1,0
203,315,35755,1,0
307,315,36184,1,2
307,315,36398,1,0
307,315,36612,1,0
371,232,37041,5,2
371,232,37255,1,0
371,232,37470,1,0
371,232,37684,1,0
371,232,37898,1,2
307,149,38327,6,0,B|259:141|243:125|219:85|211:61|243:13|259:5|259:5|291:21|299:69|267:125|219:157|195:149,1,390,0|2
256,192,40041,12,0,41755
256,192,42184,5,0
256,192,42398,1,0
256,192,42613,1,2
152,192,43041,6,0,B|120:240|128:296|160:336|216:352|272:320|288:280,1,260
312,256,44113,1,0
320,200,44327,1,2
280,112,44755,1,0
384,120,45184,6,0,B|432:136|456:192|432:232,1,130
416,272,45827,1,0
376,304,46041,2,0,B|320:360|272:312|256:296,1,130,2|0
184,232,46898,5,2
208,184,47113,1,0
232,136,47327,1,0
328,232,47755,5,2
304,184,47970,1,0
280,136,48184,1,0
198,71,48613,6,0,B|267:12|328:88,1,130
348,110,49255,2,0,B|388:158|388:209|381:245,1,130,2|0
376,283,49898,1,0
290,342,50327,6,0,B|202:342,2,65
258,300,50970,1,0
260,248,51184,2,0,B|260:154,2,65,2|0|0
182,178,52041,6,0,B|105:118|120:87|172:76,1,130
255,56,52898,2,0,B|256:197,1,130,2|0
210,279,53755,6,0,B|236:319|257:275|257:275|280:324|308:274,1,130
370,199,54613,2,0,B|301:157|255:201|255:201|195:147|129:204,1,260,2|0
182,110,55898,6,0,B|263:92|190:46|257:17|257:17|314:57|241:91|340:111,1,260
436,107,57184,6,0,B|478:139|446:197|409:190|374:171|372:142,1,130,2|0
354,209,57827,1,0
386,249,58041,2,0,B|344:281|376:339|413:332|448:313|450:284,2,130,2|0|2
289,210,59327,6,0,B|172:166|219:258|72:184,1,195,0|2
61,163,60184,1,0
127,82,60613,5,0
157,40,60827,1,2
206,23,61041,1,0
257,24,61255,1,0
306,23,61470,1,0
355,40,61684,1,2
385,82,61898,1,0
296,136,62327,6,0,B|321:164|322:221|294:255|217:255|190:219|178:163|231:124,1,260,0|2
256,176,63398,1,0
256,176,63613,1,0
204,276,64041,6,0,B|251:321|348:293|389:251|401:178|380:129|362:106|338:81|311:57|266:62,1,390
191,78,65755,6,0,B|144:88|117:124|132:183,1,130
146,224,66398,1,2
94,230,66613,2,0,B|100:284|156:300|198:276|216:237|195:190,1,195
256,192,67470,12,4,69184
472,192,82898,6,0,B|512:128|488:56|416:16|320:88,1,260
296,96,83970,1,0
264,136,84184,1,2
264,184,84398,1,0
288,224,84613,6,0,B|320:280|304:344|232:360|160:336|176:256|184:224,1,260
192,192,85684,1,0
192,136,85898,1,2
152,96,86113,1,0
96,104,86327,5,0
72,152,86541,2,0,B|56:216|96:248|160:232,1,130,2|2
157,294,87184,2,0,B|119:304|87:304|47:280|23:256|-1:224|-1:176|15:128,1,260,2|2
30,90,88255,6,0,B|63:37|98:36|125:44|152:55|155:80|156:124,1,195,2|0
165,173,89113,1,0
165,173,89327,1,4
215,187,89541,1,0
213,238,89755,6,0,B|172:274|182:334|227:356|300:347|327:305|310:266|281:219,2,260,2|2|2
256,208,91684,2,0,L|256:128|216:136|240:104|216:80|248:80|258:33|272:88|304:80|280:112|325:154,1,455,0|2
376,232,93613,6,0,B|440:296|512:216,1,130
464,192,94255,1,2
440,144,94470,1,0
416,192,94684,1,2
376,152,94898,6,0,B|312:88|240:168,1,130
260,147,95541,1,2
208,136,95755,1,0
224,184,95970,1,2
168,176,96184,1,0
192,224,96398,1,2
136,224,96613,6,0,B|104:248|64:264|8:232|8:184|16:136|40:120|72:104|96:104,1,260
136,88,97684,1,0
184,80,97898,1,2
288,80,98327,2,0,B|424:80,1,130,0|2
480,160,99184,2,0,B|328:160,1,130,0|2
352,264,100041,6,0,B|308:160|200:148|160:280,1,260
257,311,101327,1,2
256,192,101755,12,0,103470
80,72,103898,5,0
128,80,104113,1,0
168,112,104327,1,2
160,160,104541,1,0
112,176,104755,5,0
64,192,104970,1,0
48,240,105184,1,2
80,280,105398,1,0
128,288,105613,5,0
176,280,105827,2,0,B|248:280|264:224|240:176,1,130
216,160,106470,2,0,B|184:128|200:64|256:64,1,130
304,56,107113,5,0
352,72,107327,1,0
432,128,107755,2,0,B|504:184|432:248,1,130,2|0
360,304,108613,5,0
360,304,108827,1,0
360,304,109041,1,0
320,272,109255,2,0,B|176:272,1,130,2|2
152,304,109898,1,0
152,304,110112,1,0
152,304,110326,1,0
72,240,110755,6,0,B|48:152|136:144|136:144|184:200|256:152,1,260
288,128,111827,1,0
320,88,112041,2,0,B|376:32|432:96|432:96|352:152|432:208|432:208|392:280|312:216,1,390
280,200,113541,1,0
224,192,113755,6,0,B|144:184|136:256|136:256|48:296|48:200|48:200|136:176|112:88,1,390
208,48,115470,5,0
224,96,115684,1,2
256,136,115898,1,0
288,96,116113,1,2
304,48,116327,1,0
256,16,116541,1,2
256,16,116755,1,0
256,136,117184,6,0,B|216:264|312:200|240:336,1,195
247,321,118041,1,2
247,321,118255,1,0
247,321,118470,1,0
200,224,118898,2,0,B|248:168|200:112|200:112|256:184|320:112|320:112|264:176|328:232,1,390
392,152,120613,6,0,B|360:80|432:32,1,130
128,152,121470,6,0,B|160:80|88:32,1,130,2|0
224,56,122327,6,0,B|320:56,1,65
288,104,122755,2,0,B|200:104,1,65,0|2
224,152,123184,1,0
288,152,123398,1,0
288,200,123613,2,0,B|200:200,1,65,0|2
176,216,124041,6,0,B|96:232|128:280|128:320|112:328|88:336|56:336|16:320|24:248|72:240|88:232,1,260
65,244,125327,1,0
65,244,125541,1,2
65,244,125755,1,0
128,161,126184,6,0,B|255:108|386:170,1,260
320,81,127470,6,0,B|251:65|168:84,2,130
256,162,128755,1,0
256,192,129184,12,0,130899
264,168,131327,6,0,B|296:136|328:168|360:200|328:264|264:264|232:264|200:232|168:200|168:168|168:136|168:104|232:72|264:72|296:72|328:40|392:72|392:136|424:168|424:200|424:232|392:296|328:328|296:296|264:328|232:328|200:296|144:248|120:216|144:192|136:168|144:152|144:120,2,910
256,192,137755,12,4,144613
