osu file format v9

[General]
AudioFilename: DJ Contacreast - Golden Sunset.mp3
AudioLeadIn: 0
PreviewTime: 116988
Countdown: 1
SampleSet: Normal
StackLeniency: 0.8
Mode: 0
LetterboxInBreaks: 1

[Editor]
Bookmarks: 40259
DistanceSpacing: 1.2
BeatDivisor: 4
GridSize: 8

[Metadata]
Title:Golden Sunset
Artist:DJ Contacreast
Creator:Sir Minelli
Version:Hard
Source:
Tags:Gens Ultimate

[Difficulty]
HPDrainRate:6
CircleSize:4
OverallDifficulty:7
ApproachRate:7
SliderMultiplier:1.8
SliderTickRate:1

[Events]
//Background and Video events
0,0,"Vectorial_Sunset_by_solenero73.jpg"
//Break Periods
2,57172,62930
//Storyboard Layer 0 (Background)
//Storyboard Layer 1 (Fail)
//Storyboard Layer 2 (Pass)
//Storyboard Layer 3 (Foreground)
//Storyboard Sound Samples
//Background Colour Transformations
3,100,0,0,0

[TimingPoints]
402,428.571428571429,4,1,0,100,1,0
27402,-100,4,2,0,60,0,0
29330,-100,4,1,2,60,0,0
56544,-100,4,1,2,49,0,0
56652,-100,4,1,2,69,0,0
56759,-100,4,1,2,90,0,0
56866,-100,4,1,2,95,0,0
56973,-100,4,1,2,100,0,1
57616,-100,4,1,2,60,0,0
63616,-200,4,2,1,60,0,0
69937,-100,4,2,0,5,0,0
72187,-200,4,2,1,60,0,0
72509,-133.333333333333,4,2,2,60,0,0
82580,-133.333333333333,4,2,2,62,0,0
84509,-133.333333333333,4,2,1,65,0,0
85366,-133.333333333333,4,2,1,75,0,0
86009,-133.333333333333,4,1,2,70,0,0
86277,-100,4,2,1,60,0,0
86866,-133.333333333333,4,1,1,80,0,0
87027,-100,4,2,1,100,0,0
87616,-100,4,1,2,100,0,0
87669,-100,4,2,0,100,0,0
87830,-100,4,1,2,69,0,0
87937,-100,4,1,1,78,0,1
94687,-100,4,1,1,78,0,0
100794,-100,4,1,2,60,0,0
100955,-100,4,2,2,100,0,0
101116,-100,4,1,2,60,0,0
101169,-100,4,2,2,100,0,0
101223,-100,4,1,2,75,0,0
101277,-100,4,2,2,100,0,0
101330,-100,4,1,2,80,0,0
101384,-100,4,2,2,100,0,0
101437,-100,4,1,2,90,0,0
101491,-100,4,2,2,100,0,0
101544,-100,4,1,2,100,0,0
101652,-100,4,1,0,68,0,0
103259,-100,4,1,0,67,0,0
104652,-100,4,1,0,67,0,0
105294,-100,4,1,0,68,0,0
105509,-100,4,1,0,86,0,0
105723,-100,4,1,0,68,0,0
106152,-100,4,1,0,68,0,0
106366,-100,4,1,0,71,0,0
107009,-100,4,1,0,71,0,0
107223,-100,4,1,0,71,0,0
107866,-100,4,1,0,60,0,0
108080,-100,4,1,0,60,0,0
108294,-100,4,1,0,71,0,0
108509,-100,4,1,0,71,0,0
112473,-100,4,1,0,70,0,0
112687,-100,4,1,0,71,0,0
115259,-100,4,1,0,75,0,0
116759,-100,4,1,0,67,0,0
118580,-100,4,1,0,60,0,0
118687,-100,4,1,0,75,0,1
119009,-100,4,1,0,70,0,1
130152,-100,4,1,0,76,0,1
130580,-100,4,1,0,72,0,0
130687,-100,4,1,0,83,0,1
130902,-100,4,1,0,60,0,0

[Colours]
Combo1 : 130,236,244
Combo2 : 255,172,132

[HitObjects]
256,192,28044,12,4,29116
112,264,29544,1,0
112,264,29759,1,0
192,208,29973,2,0,B|168:176|108:164|108:164,1,90,0|8
168,80,30402,1,0
264,112,30616,2,0,B|392:112|392:112,1,90
312,200,31044,1,0
400,176,31259,6,0,B|400:248|400:272|400:272,1,90
320,320,31687,2,0,B|360:360|408:360|408:360,1,90,8|0
488,296,32116,2,0,B|488:200|488:200,1,90
480,112,32544,2,0,B|384:40|316:128|316:128,1,180,8|0
248,196,33187,1,0
160,152,33402,2,0,B|236:60|320:124|320:124,1,180,8|0
376,40,34044,2,0,B|328:20|268:8|268:8,1,90,0|8
192,32,34473,1,0
112,92,34687,6,0,B|96:144|48:164|48:164,1,90
56,272,35116,2,0,B|172:272|172:272,1,90,8|0
248,312,35544,2,0,B|242:304|270:348|324:355,1,90
420,356,35973,2,0,B|404:292|328:264|328:264|328:220|328:220,1,180,8|0
416,176,36616,5,0
328,218,36830,1,0
328,120,37044,1,0
368,32,37259,2,0,B|280:32|280:32|216:96|216:96,1,180,0|8
214,97,37902,1,0
124,20,38116,6,0,B|64:40|76:116|76:116,1,90
148,156,38544,1,8
104,248,38759,1,0
192,296,38973,2,0,B|209:252|209:252|248:220|278:197|278:197|304:146|304:146,1,180,0|8
488,88,39830,6,0,B|392:88|392:88,1,90
294,52,40259,2,0,B|176:72|160:176|160:176,1,180,8|0
224,272,40902,1,0
128,280,41116,1,8
56,208,41330,1,0
256,192,41759,12,4,43259
328,320,43687,6,0,B|240:336|240:336|128:314|128:314,1,180,8|0
64,144,44544,2,0,B|184:144|184:144,1,90,8|0
252,144,44973,1,0
432,56,45402,2,0,B|480:144|432:236|432:236,1,180,8|0
336,228,46044,1,0
252,280,46259,1,8
60,332,46687,6,0,B|152:272|96:160|96:160,1,180,0|8
56,80,47330,1,0
152,112,47544,2,0,B|240:64|240:64,1,90,0|0
208,168,47973,2,0,B|248:145|248:145|304:116,1,90,8|0
364,168,48402,2,0,B|472:152|456:32|456:32,2,180,0|0|0
280,216,49473,1,0
184,216,49687,1,8
44,76,50116,6,0,B|132:40|120:128|212:80|212:80,1,135,0|0
322,40,50759,2,0,B|377:32|436:87|436:87,1,90,0|0
456,152,51187,1,0
450,238,51402,2,0,B|346:218|346:218,1,90,8|0
304,144,51830,2,0,B|244:76|148:84|148:84,1,135,0|0
52,184,52473,1,0
88,280,52687,2,0,B|136:232|136:232|136:192|136:192,2,90,0|0|8
164,128,53544,6,0,B|260:84|355:135|355:135,1,180,0|8
392,280,54402,2,0,B|296:324|200:272|200:272,1,180,0|8
144,104,55259,5,0
368,104,55687,1,0
144,208,56116,1,10
256,160,56330,1,0
368,208,56544,2,0,B|416:208|416:208,4,45,8|0|0|0|4
176,136,63830,6,0,B|213:99|262:99|302:99|346:143|346:143,1,180,0|0
340,137,64902,1,0
404,64,65116,1,8
340,140,65544,6,0,B|345:134|301:178|301:218|301:267|338:304,1,180
337,303,66616,1,0
244,268,66830,1,8
149,305,67259,6,0,B|185:268|185:219|185:179|141:135|146:141,1,180
145,140,68330,1,0
96,64,68544,1,8
208,32,68973,6,0,B|312:32|312:32,3,90,0|0|0|0
256,192,70687,12,0,72402
168,128,73259,5,0
344,128,73687,1,2
256,248,74116,1,0
256,248,74330,1,0
256,248,74544,1,0
256,288,74759,1,0
192,208,75187,1,2
320,208,75402,1,0
256,368,75830,5,0
128,320,76259,1,0
128,320,76473,1,2
384,320,76902,1,0
384,320,77116,1,0
247,216,77544,6,0,B|311:192|399:224|399:224,1,134.999995976687,0|0
456,152,78187,1,0
384,136,78402,1,2
312,128,78616,1,0
240,136,78830,1,0
168,152,79044,1,2
112,200,79259,6,0,B|72:144|120:88|120:88,1,101.249996982515,0|8
152,272,79902,1,0
216,328,80116,2,0,B|256:280|224:224|224:224,1,101.249996982515,0|8
160,48,80759,1,2
160,48,80973,2,0,B|88:48|88:112|88:112,2,101.249996982515,0|8|0
224,48,81830,2,0,B|296:48|296:128|296:128,1,101.249996982515,0|8
336,224,82473,6,0,B|352:256|400:264|400:264,1,67.4999979883433,2|0
312,184,83009,1,8
232,264,83330,2,0,B|248:296|232:328|232:328,1,67.4999979883433
208,224,83759,2,0,B|160:176|160:176,1,67.4999979883433,0|8
232,112,84187,5,0
264,96,84294,1,0
296,80,84402,1,2
360,48,84616,2,0,B|360:-8|360:-8,2,33.7499989941716,2|0|2
424,80,85044,1,2
456,168,85259,2,0,B|360:168|360:168|360:152|360:104,2,134.999995976687,2|2|2
256,192,86330,12,6,87830
116,194,88044,6,2,B|141:88|245:81|245:81,1,180,8|0
328,136,88687,2,2,B|429:145|430:228|430:228,1,135
448,264,89116,2,2,B|424:336|352:328|352:328,1,90,10|0
272,328,89544,1,8
176,272,89759,1,0
176,272,89866,1,0
176,272,89973,2,0,B|152:248|152:248|160:252|160:252|168:240|168:240|120:184|120:184,1,90,8|0
48,144,90402,2,2,B|56:64|131:33|131:33,1,135
176,64,90830,5,8
296,64,91044,1,8
432,176,91259,2,0,B|348:144|270:181|270:181,1,135,8|2
298,170,91687,1,8
384,280,91902,1,8
272,296,92116,1,8
112,256,92330,2,0,B|144:296|192:288|192:288,1,90,8|8
216,184,92759,6,0,B|216:136|216:136|216:88|216:88,1,90,0|2
296,32,93187,1,2
296,32,93294,1,0
296,32,93402,1,8
400,144,93616,1,0
498,124,93830,2,2,B|475:30|366:50|366:50,1,135,2|10
352,64,94259,1,0
261,183,94473,6,0,B|264:248|216:288|216:288,1,90,2|0
224,104,94902,1,0
136,264,95116,1,8
112,120,95330,2,0,B|176:144|184:208|184:208,1,90,0|0
264,336,95759,2,0,B|312:296|352:264|352:264,1,90,8|8
464,232,96187,6,0,B|397:247|359:177|359:177,1,90,2|0
368,120,96616,2,0,B|360:48|296:0|216:32|216:32,1,180
104,96,97259,1,2
96,192,97473,1,8
88,288,97687,1,8
168,168,97902,1,2
160,272,98116,5,0
208,288,98223,1,0
256,288,98330,1,0
304,288,98437,1,0
352,272,98544,1,8
408,192,98759,2,0,B|475:259|475:259,1,90,0|2
304,184,99187,5,8
256,184,99294,1,0
216,184,99402,1,8
256,72,99616,5,0
256,192,99830,12,4,101544
136,64,101973,6,2,B|320:80|320:80,1,180,2|2
400,128,102616,2,0,B|480:80|480:80,1,90,2|2
440,184,103044,2,0,B|360:232|360:232,1,90,0|8
264,176,103473,2,0,B|216:120|216:120,2,45,0|0|8
312,264,103902,1,0
216,288,104116,2,2,B|160:240|136:176|136:176,1,135
96,152,104544,2,0,B|96:104|152:80|152:80,1,90,0|0
264,72,104973,6,0,B|344:48|392:96|392:96,1,135,4|2
392,96,105402,1,2
312,160,105616,1,0
264,72,105830,2,0,B|192:48|128:96|128:96,1,135,0|2
134,91,106259,1,2
56,168,106473,5,0
56,216,106580,1,0
56,264,106687,1,2
128,312,106902,2,0,B|144:352|144:352,2,45,2|0|8
128,216,107330,1,0
192,288,107544,2,0,B|240:336|240:336,1,45,8|0
272,336,107759,2,0,B|320:344|320:344,1,45
368,344,107973,2,0,B|400:304|472:320|472:320,1,90,0|2
464,216,108402,6,2,B|376:232|352:120|280:144|280:144,1,180,6|2
208,152,109044,1,0
136,232,109259,2,0,B|52:139|142:71|142:71,1,180,8|8
248,72,109902,2,0,B|328:32|328:32,1,90,2|0
424,56,110330,1,0
432,104,110437,1,0
440,152,110544,1,8
376,224,110759,1,0
312,296,110973,2,0,B|392:344|472:280|472:280,2,135,2|2|2
208,224,111830,6,2,B|176:120|64:120|64:120,1,180,2|2
176,64,112473,1,0
272,121,112687,2,2,B|172:120|139:227|139:227,1,180,2|2
208,304,113330,5,0
304,288,113544,1,2
400,232,113759,1,2
416,120,113973,1,8
312,40,114187,1,0
176,40,114402,2,2,B|80:64|80:176|80:176,1,180,2|0
136,312,115044,2,0,B|171:329|207:311|240:353|240:353,1,90,2|4
256,192,115473,12,4,116544
120,144,116973,5,2
48,72,117187,2,0,B|136:72|136:72,1,45,2|0
200,72,117509,2,0,B|232:40|232:40,1,45,0|2
336,96,117830,1,2
376,216,118044,1,2
312,328,118259,2,0,B|264:288|208:288|208:288,1,90,2|0
48,240,118687,6,0,B|138:217|146:218|146:218,1,90,4|0
240,136,119116,2,0,B|296:112|311:244|426:156|426:156,1,180,8|0
344,56,119759,1,2
224,56,119973,2,0,B|150:87|152:176|224:224|224:224|216:224,1,180,12|0
320,256,120616,5,0
448,288,120830,2,0,B|432:232|432:232|400:192|400:192,1,90,8|0
320,256,121259,2,2,B|248:312|208:288|208:288,1,90,2|0
136,328,121687,1,8
104,192,121902,1,2
208,152,122116,2,0,B|240:120|312:128|312:128,1,90,0|0
432,160,122544,5,8
432,344,122759,1,8
336,288,122973,2,0,B|336:294|336:198,3,90,0|8|2|0
224,72,123830,6,2,B|120:72|64:168|64:168,1,180,2|0
144,272,124473,2,0,B|96:256|56:224|64:224,1,90,8|8
56,360,124902,1,2
192,360,125116,1,8
256,168,125330,5,0
272,120,125437,1,0
288,72,125544,2,2,B|392:72|448:168|448:168,1,180,2|0
368,272,126187,2,0,B|408:264|456:224|448:224,1,90,8|2
456,360,126616,1,8
320,360,126830,2,0,B|224:304|224:184|224:184,1,180,4|0
384,96,127473,5,0
285,71,127687,2,0,B|311:191|419:192|419:192,1,180,8|2
472,320,128330,2,0,B|390:355|390:355,1,90,0|8
264,304,128759,2,0,B|160:304|160:304,1,90,2|0
104,192,129187,2,0,B|16:176|16:176,1,90,0|8
128,112,129616,5,8
264,88,129830,2,2,B|344:64|384:56|384:56,1,90,2|0
448,152,130259,2,0,B|384:128|312:144|288:176|272:208|272:208,1,180,0|4
296,288,130902,6,0,B|208:312|208:312,1,90,0|0
168,224,131330,2,0,B|56:224|56:224,1,90,8|8
128,112,131759,1,2
228,145,131973,2,0,B|268:209|324:208|324:208,1,90,2|0
440,144,132402,2,0,B|400:208|343:207|343:207,1,90,0|0
272,112,132830,1,8
392,112,133044,1,0
408,56,133259,2,0,B|368:16|320:0|264:16|224:80|224:80,1,180,0|8
176,128,133902,5,0
184,224,134116,2,0,B|128:216|104:176|104:176,1,90
104,80,134544,2,0,B|134:32|192:40|192:40,1,90,8|0
288,128,134973,1,2
288,128,135187,1,0
408,216,135402,2,0,B|464:208|488:168|488:168,1,90,8|2
488,72,135830,2,0,B|457:24|400:32|400:32,1,90,0|0
312,16,136259,5,8
216,16,136473,1,8
120,16,136687,2,0,B|24:32|24:32,1,90,0|8
128,56,137116,2,2,B|200:96|208:152|176:224|176:224,1,180,2|2
88,144,137759,5,0
56,240,137973,1,0
24,336,138187,2,0,B|114:369|114:369,1,90,8|8
240,328,138616,2,0,B|272:200|272:200,1,90,2|8
376,152,139044,5,0
376,152,139152,1,0
424,136,139259,2,2,B|456:88|456:88|416:24|320:40|320:40,1,180,2|0
256,80,139902,1,8
96,136,140116,2,2,B|64:88|64:88|104:24|200:40|200:40,1,180,2|4
304,192,140973,5,0
208,192,141187,1,0
304,272,141402,1,8
208,272,141616,1,0
112,160,141830,1,2
256,104,142044,1,0
400,160,142259,2,0,B|416:264|416:264,1,90,8|2
112,160,142687,2,0,B|96:256|96:256,1,90
256,200,143116,5,8
256,296,143330,1,8
176,152,143544,2,2,B|208:128|262:72|304:128|351:167|351:167,1,180
334,152,144080,1,0
334,152,144187,1,0
334,152,144294,1,0
334,152,144402,1,4
