osu file format v14

[General]
AudioFilename: Mermaid girl - DJ Command.mp3
AudioLeadIn: 0
PreviewTime: 55989
Countdown: 0
SampleSet: Normal
StackLeniency: 0.7
Mode: 2
LetterboxInBreaks: 1
WidescreenStoryboard: 1

[Editor]
DistanceSpacing: 0.8
BeatDivisor: 2
GridSize: 16
TimelineZoom: 1

[Metadata]
Title:Mermaid Girl
TitleUnicode:Mermaid Girl
Artist:DJ Command
ArtistUnicode:DJ Command
Creator:Kevin97
Version:Salad
Source:
Tags:
BeatmapID:483244
BeatmapSetID:204654

[Difficulty]
HPDrainRate:6
CircleSize:2.5
OverallDifficulty:5
ApproachRate:5
SliderMultiplier:1.6
SliderTickRate:2

[Events]
//Background and Video events
0,0,"BG2.jpg",0,0
//Break Periods
2,75789,77189
2,82189,87189
//Storyboard Layer 0 (Background)
//Storyboard Layer 1 (Fail)
//Storyboard Layer 2 (Pass)
//Storyboard Layer 3 (Foreground)
//Storyboard Sound Samples

[TimingPoints]
389,400,4,1,1,100,1,0
3589,800,4,1,1,100,1,0
3589,-200,4,2,1,100,0,0
9989,400,4,2,1,100,1,0
21789,-50,4,1,1,100,0,0
23189,-100,4,1,1,100,0,0
24389,-50,4,1,1,100,0,0
24789,-100,4,1,1,100,0,0

[HitObjects]
256,192,3589,6,12,B|216:248|296:248|296:248|296:312|296:312|416:312,1,280,12|0,0:0|0:0,0:0:0:0:
256,192,6789,2,0,B|296:248|216:248|216:248|216:312|216:312|96:312,1,280,12|0,0:0|0:0,0:0:0:0:
99,312,9789,1,6,0:0:0:0:
352,320,9989,5,8,0:0:0:0:
224,320,10289,2,0,L|128:208,1,120,8|0,0:0|0:0,0:0:0:0:
256,96,10789,2,0,L|368:96,1,80,8|0,0:0|0:0,0:0:0:0:
160,96,11189,1,12,0:0:0:0:
352,96,11589,6,0,B|416:160|416:160|352:240|352:240|448:352,1,320,8|0,0:0|0:0,0:0:0:0:
288,336,12589,1,2,0:0:0:0:
144,336,12789,1,0,0:0:0:0:
288,336,13189,6,0,L|400:336,1,80,8|0,0:0|0:0,0:0:0:0:
288,336,13489,2,2,L|176:336,1,80
368,336,13789,2,0,L|464:336,1,80,0|8,0:0|0:0,0:0:0:0:
368,336,14189,5,0,0:0:0:0:
288,240,14389,1,8,0:0:0:0:
80,240,14789,5,6,0:0:0:0:
304,144,16389,5,2,0:0:0:0:
128,144,17189,6,0,L|48:144,2,80,8|2|8,0:0|0:0|0:0,0:0:0:0:
208,144,17989,5,8,0:0:0:0:
384,144,18789,6,0,L|464:144,2,80,8|2|8,0:0|0:0|0:0,0:0:0:0:
256,144,19589,5,8,0:0:0:0:
48,144,20389,1,0,0:0:0:0:
144,144,20589,1,0,0:0:0:0:
240,144,20789,1,0,0:0:0:0:
256,144,21189,5,0,0:0:0:0:
464,144,21989,1,0,0:0:0:0:
368,144,22189,1,0,0:0:0:0:
272,144,22389,1,0,0:0:0:0:
176,144,22589,1,0,0:0:0:0:
80,144,22789,6,0,L|48:224,3,80,0|0|0|0,0:0|0:0|0:0|0:0,0:0:0:0:
80,144,23189,6,0,L|400:144,1,320
432,240,24389,6,0,L|464:160,3,80,0|0|0|0,0:0|0:0|0:0|0:0,0:0:0:0:
432,240,24789,6,0,L|112:240,1,320
300,236,25989,1,0,0:0:0:0:
255,254,26089,1,0,0:0:0:0:
211,236,26189,1,0,0:0:0:0:
193,191,26289,1,0,0:0:0:0:
211,147,26389,1,0,0:0:0:0:
256,129,26489,1,0,0:0:0:0:
300,147,26589,1,0,0:0:0:0:
318,192,26689,1,0,0:0:0:0:
299,237,26789,5,0,0:0:0:0:
254,254,26889,1,0,0:0:0:0:
210,235,26989,1,0,0:0:0:0:
193,190,27089,1,0,0:0:0:0:
212,146,27189,1,0,0:0:0:0:
257,129,27289,1,0,0:0:0:0:
301,148,27389,1,0,0:0:0:0:
318,193,27489,1,0,0:0:0:0:
300,236,27589,6,0,B|368:320|304:240|48:288,1,320
160,272,28589,1,0,0:0:0:0:
272,272,28789,1,0,0:0:0:0:
416,128,29189,6,0,L|416:320,1,160
256,128,29989,2,0,P|320:192|224:304,1,240
48,256,30789,6,0,L|224:256,1,160
208,256,31589,2,0,L|48:256,1,160
144,256,32189,1,0,0:0:0:0:
256,256,32389,1,0,0:0:0:0:
144,256,32589,1,0,0:0:0:0:
32,256,32789,1,0,0:0:0:0:
144,256,32989,1,0,0:0:0:0:
256,256,33189,1,0,0:0:0:0:
256,128,33589,5,0,0:0:0:0:
256,128,33789,1,0,0:0:0:0:
464,128,33989,6,0,L|288:128,1,160
304,128,34789,2,0,L|464:128,1,160
368,128,35389,1,0,0:0:0:0:
256,128,35589,1,0,0:0:0:0:
368,128,35789,1,0,0:0:0:0:
480,128,35989,1,0,0:0:0:0:
368,128,36189,1,0,0:0:0:0:
256,128,36389,1,0,0:0:0:0:
144,128,36789,5,0,0:0:0:0:
144,128,36989,1,0,0:0:0:0:
304,240,37189,2,0,L|400:368,1,160
176,224,37989,2,0,L|272:352,1,160
176,224,38789,2,0,L|80:352,1,160
304,208,39589,2,0,L|208:336,1,160
208,336,40189,1,0,0:0:0:0:
368,336,40389,6,0,L|176:336,2,160
368,336,41589,1,0,0:0:0:0:
256,336,41789,1,0,0:0:0:0:
144,336,41989,1,0,0:0:0:0:
416,336,42389,5,0,0:0:0:0:
96,336,42789,1,0,0:0:0:0:
256,192,43589,6,0,L|176:192,2,80,0|0|0,0:0|0:0|0:0,0:0:0:0:
336,192,44189,2,0,L|416:192,2,80
256,192,44789,1,0,0:0:0:0:
96,192,45189,5,0,0:0:0:0:
256,192,45589,1,0,0:0:0:0:
416,192,45989,1,0,0:0:0:0:
368,224,46189,1,0,0:0:0:0:
336,256,46389,1,0,0:0:0:0:
288,288,46589,1,0,0:0:0:0:
256,320,46789,6,0,L|80:272,1,160
101,277,47589,2,0,L|272:192,1,160
240,208,48389,2,0,L|48:208,2,160,0|0|0,0:0|0:0|0:0,0:0:0:0:
400,208,49589,1,0,0:0:0:0:
256,208,49989,1,0,0:0:0:0:
128,208,50389,1,0,0:0:0:0:
128,208,50789,6,0,L|256:352,1,160
234,327,51389,1,0,0:0:0:0:
368,320,51589,6,0,L|368:128,1,160
208,160,52389,2,0,L|48:160,1,160
144,288,53189,6,0,L|320:288,1,160
48,160,53989,2,0,L|240:160,1,160
368,160,54789,1,0,0:0:0:0:
208,160,55189,1,0,0:0:0:0:
48,160,55989,6,0,L|128:320,1,160
208,304,56589,2,0,L|368:304,1,160,0|0,0:0|0:0,0:0:0:0:
368,192,57189,5,0,0:0:0:0:
304,192,57389,1,0,0:0:0:0:
160,192,57589,1,0,0:0:0:0:
16,192,57989,6,0,L|96:352,1,160
160,192,58789,2,0,L|240:352,1,160
400,144,59589,6,0,P|304:176|336:224,2,160
310,200,60589,1,0,0:0:0:0:
224,272,60789,1,0,0:0:0:0:
224,272,61189,6,0,L|48:272,1,160,0|0,0:0|0:0,0:0:0:0:
176,272,61789,1,0,0:0:0:0:
272,272,61989,2,0,L|432:272,1,160
432,272,62589,1,0,0:0:0:0:
336,128,62789,6,0,L|192:240,1,160,0|0,0:0|0:0,0:0:0:0:
400,80,63389,2,0,L|320:144,1,80
272,80,63789,2,0,L|352:144,1,80
400,208,64389,6,0,P|432:272|352:272,1,160
272,288,64989,1,0,0:0:0:0:
178,288,65189,2,0,P|110:269|144:208,1,160
320,144,65989,6,0,L|128:144,2,160,0|0|0,0:0|0:0|0:0,0:0:0:0:
160,144,66989,1,0,0:0:0:0:
320,144,67189,1,0,0:0:0:0:
384,240,67589,5,0,0:0:0:0:
464,240,67789,1,0,0:0:0:0:
384,240,67989,1,0,0:0:0:0:
288,240,68189,1,0,0:0:0:0:
208,240,68389,1,0,0:0:0:0:
288,240,68589,1,0,0:0:0:0:
128,240,68789,1,0,0:0:0:0:
48,240,68989,2,0,L|160:240,1,80
208,240,69389,6,0,L|288:240,1,80
368,240,69789,2,0,L|464:240,1,80
368,240,70189,2,0,L|272:240,1,80
208,240,70589,1,0,0:0:0:0:
64,240,70789,6,0,B|64:176|64:176|144:176|144:176|144:240|144:240|272:240,2,320,0|0|0,0:0|0:0|0:0,0:0:0:0:
144,240,72589,6,0,L|240:240,1,80,0|0,0:0|0:0,0:0:0:0:
304,240,72989,2,0,L|384:240,1,80
464,240,73389,2,0,L|368:240,1,80
304,240,73789,1,0,0:0:0:0:
144,240,73989,6,0,B|240:240|240:240|240:128|240:128|112:128,1,320
112,128,74889,1,0,0:0:0:0:
128,128,74989,1,0,0:0:0:0:
144,128,75089,1,0,0:0:0:0:
128,128,75189,1,0,0:0:0:0:
112,128,75289,1,0,0:0:0:0:
128,128,75389,1,0,0:0:0:0:
144,128,75489,1,0,0:0:0:0:
128,128,75589,1,0,0:0:0:0:
256,192,78789,12,0,81989,0:0:0:0:
112,272,88389,6,0,B|256:192|256:192|176:192|176:192|320:128|144:128|144:128|208:96,1,480
190,104,89789,1,0,0:0:0:0:
304,96,89989,6,0,L|352:256,2,160
208,144,91389,5,0,0:0:0:0:
208,144,91589,2,0,L|48:256,1,160
80,240,92389,2,0,L|224:320,1,160
304,320,93189,2,0,L|464:304,2,160,0|0|0,0:0|0:0|0:0,0:0:0:0:
160,208,94789,5,0,0:0:0:0:
320,96,96389,6,0,P|256:176|368:128,1,320
369,131,97389,1,0,0:0:0:0:
288,128,97589,1,0,0:0:0:0:
176,128,97989,6,0,B|96:128|96:128|176:192,2,160
288,128,98989,1,0,0:0:0:0:
176,128,99189,1,0,0:0:0:0:
400,128,99589,6,0,L|320:304,2,160
400,128,100589,1,0,0:0:0:0:
400,128,100789,1,0,0:0:0:0:
208,144,101189,6,0,B|160:144|288:144|288:144|272:224,2,160,0|0|0,0:0|0:0|0:0,0:0:0:0:
64,144,102389,6,0,L|64:320,1,160
160,304,102989,2,0,L|320:304,1,160
416,304,103589,6,0,L|512:304,2,80
288,304,104389,6,0,P|208:272|336:144,2,320,0|0|0,0:0|0:0|0:0,0:0:0:0:
368,304,106189,1,0,0:0:0:0:
368,304,106289,1,0,0:0:0:0:
256,304,106489,1,0,0:0:0:0:
256,304,106589,1,0,0:0:0:0:
144,304,106789,6,0,P|64:256|64:192,2,160
256,304,107789,2,0,L|352:304,2,80,0|0|0,0:0|0:0|0:0,0:0:0:0:
144,304,108389,2,0,L|64:304,2,80,0|0|0,0:0|0:0|0:0,0:0:0:0:
368,304,109189,5,0,0:0:0:0:
256,112,109589,1,0,0:0:0:0:
112,240,109989,2,0,L|208:240,2,80
256,320,110789,5,0,0:0:0:0:
256,224,111189,1,0,0:0:0:0:
400,240,111589,2,0,L|304:240,2,80
256,112,112389,5,0,0:0:0:0:
144,112,112789,1,0,0:0:0:0:
368,112,113189,2,0,L|448:112,2,80
256,112,113989,5,0,0:0:0:0:
368,112,114389,1,0,0:0:0:0:
144,112,114789,2,0,L|64:112,2,80
320,192,115589,6,0,B|480:192|480:192|304:192,1,320
288,192,116589,1,0,0:0:0:0:
256,192,116789,1,0,0:0:0:0:
192,192,117189,6,0,B|32:192|32:192|208:192,1,320
224,192,118189,1,0,0:0:0:0:
256,192,118389,1,0,0:0:0:0:
352,144,118789,6,0,L|432:144,2,80
256,144,119389,1,0,0:0:0:0:
160,144,119589,2,0,L|80:144,2,80
256,144,120189,1,0,0:0:0:0:
416,144,120389,5,0,0:0:0:0:
416,144,120789,1,0,0:0:0:0:
304,240,121189,1,0,0:0:0:0:
192,240,121389,1,0,0:0:0:0:
80,240,121589,2,0,P|32:240|64:128,1,160
