osu file format v13

[General]
AudioFilename: Mermaid girl - DJ Command.mp3
AudioLeadIn: 0
PreviewTime: 55989
Countdown: 0
SampleSet: None
StackLeniency: 0.7
Mode: 2
LetterboxInBreaks: 1
WidescreenStoryboard: 1

[Editor]
DistanceSpacing: 0.8
BeatDivisor: 4
GridSize: 16
TimelineZoom: 1

[Metadata]
Title:Mermaid Girl
TitleUnicode:Mermaid Girl
Artist:DJ Command
ArtistUnicode:DJ Command
Creator:Kevin97
Version:PLATTER
Source:
Tags:
BeatmapID:487961
BeatmapSetID:207048

[Difficulty]
HPDrainRate:6
CircleSize:2.8
OverallDifficulty:6
ApproachRate:8
SliderMultiplier:1.6
SliderTickRate:2

[Events]
//Background and Video events
0,0,"BG2.jpg",0,0
//Break Periods
2,3789,9239
//Storyboard Layer 0 (Background)
//Storyboard Layer 1 (Fail)
//Storyboard Layer 2 (Pass)
//Storyboard Layer 3 (Foreground)
//Storyboard Sound Samples
//Background Colour Transformations
3,100,0,128,255

[TimingPoints]
389,400,4,1,0,100,1,0
3589,800,4,1,0,100,1,0
3589,-200,4,1,0,100,0,0
9989,400,4,1,0,100,1,0
15989,-66.6666666666667,4,1,0,100,0,0
21789,-50,4,1,0,100,0,0
23189,-100,4,1,0,100,0,0
24389,-50,4,1,0,100,0,0
24789,-100,4,1,0,100,0,0

[HitObjects]
256,192,3589,5,0,0:0:0:0:
256,192,9989,6,0,L|160:128,1,80
256,192,10289,2,0,L|368:144,1,120
208,80,10789,5,0,0:0:0:0:
80,80,10989,1,0,0:0:0:0:
208,80,11189,2,0,L|160:128,1,40
304,80,11389,2,0,L|352:128,1,40
400,176,11589,6,0,P|416:224|320:256,2,160,0|0|0,0:0|0:0|0:0,0:0:0:0:
224,176,12589,2,0,L|320:176,1,80
224,176,12989,5,0,0:0:0:0:
176,176,13089,1,0,0:0:0:0:
128,176,13189,2,0,L|64:256,1,80
224,176,13489,2,0,L|160:256,1,80
320,176,13789,2,0,L|256:256,1,80
270,238,14189,1,0,0:0:0:0:
270,238,14389,2,0,L|96:240,1,160
224,112,15989,5,0,0:0:0:0:
160,112,16189,1,0,0:0:0:0:
96,112,16389,1,0,0:0:0:0:
408,112,16589,6,0,L|288:112,2,120.000004577637,0|0|0,0:0|0:0|0:0,0:0:0:0:
176,208,17189,6,0,L|296:208,2,120.000004577637,0|0|0,0:0|0:0|0:0,0:0:0:0:
320,160,17989,6,0,L|400:112,3,60.0000022888184,0|0|0|0,0:0|0:0|0:0|0:0,0:0:0:0:
192,160,18489,6,0,L|112:112,2,60.0000022888184,0|0|0,0:0|0:0|0:0,0:0:0:0:
128,224,18789,2,0,L|0:224,2,120.000004577637,0|0|0,0:0|0:0|0:0,0:0:0:0:
256,224,19389,1,0,0:0:0:0:
384,224,19589,6,0,P|352:288|304:288,1,120.000004577637
128,224,19889,6,0,P|160:288|208:288,1,120.000004577637
352,144,20189,6,0,L|224:144,2,120.000004577637,0|0|0,0:0|0:0|0:0,0:0:0:0:
224,189,20789,1,0,0:0:0:0:
270,175,20889,1,0,0:0:0:0:
269,127,20989,1,0,0:0:0:0:
224,112,21089,1,0,0:0:0:0:
192,144,21189,6,0,P|96:176|64:240,1,120.000004577637
224,272,21489,2,0,P|288:288|352:256,1,120.000004577637
448,96,21789,2,0,P|352:64|272:96,1,160
298,78,22089,1,0,0:0:0:0:
288,80,22189,1,0,0:0:0:0:
272,80,22289,1,0,0:0:0:0:
256,80,22389,1,0,0:0:0:0:
240,80,22489,1,0,0:0:0:0:
224,80,22589,1,0,0:0:0:0:
208,80,22689,1,0,0:0:0:0:
32,240,22789,5,0,0:0:0:0:
96,240,22889,1,0,0:0:0:0:
160,240,22989,1,0,0:0:0:0:
384,240,23089,1,0,0:0:0:0:
448,240,23289,6,0,L|480:192,2,40,0|0|0,0:0|0:0|0:0,0:0:0:0:
304,240,23589,2,0,L|192:240,2,80,0|0|0,0:0|0:0|0:0,0:0:0:0:
480,144,24389,5,0,0:0:0:0:
416,144,24489,1,0,0:0:0:0:
352,144,24589,1,0,0:0:0:0:
128,144,24689,1,0,0:0:0:0:
64,144,24889,6,0,L|32:192,2,40,0|0|0,0:0|0:0|0:0,0:0:0:0:
208,144,25189,2,0,L|320:144,2,80,0|0|0,0:0|0:0|0:0,0:0:0:0:
32,224,25989,6,0,L|32:288,1,40
144,224,26189,2,0,L|144:272,1,40
256,224,26389,2,0,L|256:288,1,40,0|0,0:0|0:0,0:0:0:0:
144,224,26589,2,0,L|144:288,1,40
32,224,26789,2,0,L|32:272,1,40,0|0,0:0|0:0,0:0:0:0:
208,224,26989,2,0,L|208:288,1,40
432,224,27189,2,0,L|432:288,1,40
208,224,27389,2,0,L|208:288,1,40
144,224,27589,6,0,P|80:128|96:80,2,160,0|0|0,0:0|0:0|0:0,0:0:0:0:
256,224,28589,1,0,0:0:0:0:
144,224,28789,5,0,0:0:0:0:
192,224,28889,1,0,0:0:0:0:
240,224,28989,1,0,0:0:0:0:
288,224,29089,1,0,0:0:0:0:
464,112,29189,6,0,L|464:272,1,160
352,96,29989,6,0,L|32:96,1,320
32,176,31189,6,0,L|208:176,1,160
400,192,31989,6,0,L|288:176,2,80,0|0|0,0:0|0:0|0:0,0:0:0:0:
240,176,32589,2,0,L|128:176,1,80
320,176,32989,2,0,L|416:176,1,80
240,176,33389,1,0,0:0:0:0:
400,176,33589,1,0,0:0:0:0:
240,176,33789,1,0,0:0:0:0:
80,128,33989,6,0,L|160:288,2,160
80,128,35189,1,0,0:0:0:0:
224,128,35389,1,0,0:0:0:0:
80,128,35589,2,0,L|160:208,1,80
224,128,35989,2,0,L|288:176,1,80
416,192,36389,6,0,L|352:192,3,40,0|0|0|0,0:0|0:0|0:0|0:0,0:0:0:0:
336,192,36789,2,0,L|288:192,3,40,0|0|0|0,0:0|0:0|0:0|0:0,0:0:0:0:
112,192,37189,6,0,L|176:352,2,160
256,192,38389,1,0,0:0:0:0:
384,208,38789,6,0,L|448:48,2,160
256,192,39989,5,0,0:0:0:0:
256,192,40189,1,0,0:0:0:0:
144,192,40389,6,0,P|160:240|256:288,1,160
368,192,41189,6,0,P|352:240|256:288,1,160
259,288,41789,1,0,0:0:0:0:
32,192,41989,5,0,0:0:0:0:
480,192,42389,1,0,0:0:0:0:
112,192,42789,6,0,L|176:192,1,40
288,192,42989,2,0,L|224:192,1,40
112,192,43189,6,0,L|176:192,1,40
288,192,43389,2,0,L|224:192,1,40
336,192,43589,6,0,L|432:192,2,80,0|0|0,0:0|0:0|0:0,0:0:0:0:
256,192,44189,1,0,0:0:0:0:
176,192,44389,2,0,L|80:192,2,80,0|0|0,0:0|0:0|0:0,0:0:0:0:
336,192,44989,1,0,0:0:0:0:
176,192,45189,1,0,0:0:0:0:
336,192,45389,6,0,L|256:192,2,80
176,192,45989,6,0,L|256:192,2,80
336,192,46589,1,0,0:0:0:0:
64,192,46789,6,0,P|96:272|160:320,1,160
448,192,47589,6,0,P|416:272|352:320,1,160
208,128,48389,6,0,L|128:128,2,80,0|0|0,0:0|0:0|0:0,0:0:0:0:
464,128,48989,6,0,L|384:128,2,80,0|0|0,0:0|0:0|0:0,0:0:0:0:
128,128,49589,6,0,L|48:128,2,80,0|0|0,0:0|0:0|0:0,0:0:0:0:
320,128,50189,6,0,P|288:176|240:192,2,80,0|0|0,0:0|0:0|0:0,0:0:0:0:
192,256,50789,6,0,P|224:208|272:192,2,80,0|0|0,0:0|0:0|0:0,0:0:0:0:
320,256,51389,1,0,0:0:0:0:
48,144,51589,6,0,L|128:256,1,120
464,240,51989,6,0,L|384:128,1,120
48,144,52389,6,0,L|176:288,1,160
160,256,52989,1,0,0:0:0:0:
416,96,53189,5,0,0:0:0:0:
352,144,53389,1,0,0:0:0:0:
480,144,53589,1,0,0:0:0:0:
416,192,53789,1,0,0:0:0:0:
160,144,53989,1,0,0:0:0:0:
32,144,54189,1,0,0:0:0:0:
96,192,54389,1,0,0:0:0:0:
96,80,54589,1,0,0:0:0:0:
464,304,54789,6,0,L|288:304,2,160
256,192,55989,5,0,0:0:0:0:
256,192,56189,1,0,0:0:0:0:
144,192,56389,6,0,L|208:288,1,80
320,256,56689,2,0,L|416:160,1,120,0|0,0:0|0:0,0:0:0:0:
144,192,57189,5,0,0:0:0:0:
256,192,57389,1,0,0:0:0:0:
32,192,57589,1,0,0:0:0:0:
352,192,57989,6,0,L|352:240,2,40,0|0|0,0:0|0:0|0:0,0:0:0:0:
160,192,58389,6,0,L|160:240,2,40,0|0|0,0:0|0:0|0:0,0:0:0:0:
432,192,58789,6,0,L|432:240,2,40,0|0|0,0:0|0:0|0:0,0:0:0:0:
80,192,59189,6,0,L|80:240,2,40,0|0|0,0:0|0:0|0:0,0:0:0:0:
256,192,59589,5,0,0:0:0:0:
80,192,59789,1,0,0:0:0:0:
80,192,59889,1,0,0:0:0:0:
432,192,60089,1,0,0:0:0:0:
432,192,60189,1,0,0:0:0:0:
336,192,60389,6,0,L|240:192,1,80
80,192,60789,1,0,0:0:0:0:
256,192,61189,6,0,L|320:128,1,80
144,192,61589,2,0,L|208:112,1,80
48,64,61989,6,0,L|112:64,1,40
208,64,62189,2,0,L|160:64,1,40
48,320,62389,6,0,L|112:320,1,40
208,320,62589,2,0,L|160:320,1,40
96,320,62789,6,0,L|48:240,2,80
208,320,63389,1,0,0:0:0:0:
416,320,63589,2,0,L|464:240,2,80
304,320,64189,1,0,0:0:0:0:
144,224,64389,6,0,P|96:176|128:64,1,160
304,96,64989,1,0,0:0:0:0:
