osu file format v14

[General]
AudioFilename: Mermaid girl - DJ Command.mp3
AudioLeadIn: 0
PreviewTime: 55989
Countdown: 0
SampleSet: Normal
StackLeniency: 0.7
Mode: 2
LetterboxInBreaks: 1
WidescreenStoryboard: 1

[Editor]
DistanceSpacing: 0.8
BeatDivisor: 4
GridSize: 16
TimelineZoom: 1

[Metadata]
Title:Mermaid Girl
TitleUnicode:Mermaid Girl
Artist:DJ Command
ArtistUnicode:DJ Command
Creator:Kevin97
Version:CUP
Source:
Tags:
BeatmapID:518493
BeatmapSetID:204654

[Difficulty]
HPDrainRate:6
CircleSize:2
OverallDifficulty:5
ApproachRate:4
SliderMultiplier:1.6
SliderTickRate:2

[Events]
//Background and Video events
0,0,"BG2.jpg",0,0
//Break Periods
2,82189,87069
//Storyboard Layer 0 (Background)
//Storyboard Layer 1 (Fail)
//Storyboard Layer 2 (Pass)
//Storyboard Layer 3 (Foreground)
//Storyboard Sound Samples

[TimingPoints]
389,400,4,2,1,100,1,0
3589,800,4,2,1,100,1,0
3589,-200,4,2,1,100,0,0
9989,400,4,2,1,100,1,0
16389,-125,4,1,1,100,0,0
24789,-100,4,1,1,100,0,0
126789,-100,4,2,1,5,0,0

[HitObjects]
256,192,9989,5,0,0:0:0:0:
256,192,10289,1,0,0:0:0:0:
256,192,11589,5,0,0:0:0:0:
160,192,11889,1,0,0:0:0:0:
240,192,13189,6,0,P|320:192|384:112,1,160
288,96,13989,2,0,P|208:96|144:16,1,160
208,96,14789,1,0,0:0:0:0:
256,192,16389,6,0,B|176:192|176:192|176:256|176:256|48:256,1,256
176,256,17589,1,0,0:0:0:0:
256,192,17989,6,0,B|336:192|336:192|336:256|336:256|464:256,1,256
336,256,19189,1,0,0:0:0:0:
256,112,19589,6,0,P|192:112|192:272,1,256
48,272,20789,1,0,0:0:0:0:
256,112,21189,6,0,P|320:112|320:272,1,256
464,272,22389,1,0,0:0:0:0:
352,272,22789,6,0,L|80:272,1,256
224,272,23989,1,0,0:0:0:0:
96,128,24389,6,0,L|368:128,1,256
224,128,25589,1,0,0:0:0:0:
336,128,25989,6,0,L|448:256,1,160
224,128,26789,2,0,L|336:256,1,160
128,144,27589,6,0,L|240:272,1,160
112,320,28389,2,0,P|208:320|240:256,2,160
112,320,29589,1,0,0:0:0:0:
256,192,30789,5,0,0:0:0:0:
160,192,31189,1,0,0:0:0:0:
256,192,31589,1,0,0:0:0:0:
352,192,31989,1,0,0:0:0:0:
256,192,32389,5,0,0:0:0:0:
160,192,32789,1,0,0:0:0:0:
256,192,33189,1,0,0:0:0:0:
160,192,33589,1,0,0:0:0:0:
160,192,33789,1,0,0:0:0:0:
256,192,33989,5,0,0:0:0:0:
160,192,34389,1,0,0:0:0:0:
64,192,34789,1,0,0:0:0:0:
160,192,35189,1,0,0:0:0:0:
256,192,35589,1,0,0:0:0:0:
256,192,35789,1,0,0:0:0:0:
256,192,35989,1,0,0:0:0:0:
368,192,36389,6,0,B|432:192|432:192|336:192,1,160
368,192,36989,1,0,0:0:0:0:
432,192,37189,1,0,0:0:0:0:
304,192,37589,5,0,0:0:0:0:
176,192,37989,1,0,0:0:0:0:
304,192,38389,1,0,0:0:0:0:
80,192,38789,6,0,L|192:192,1,80
240,192,39189,1,0,0:0:0:0:
80,192,39589,6,0,L|192:192,1,80
240,192,39989,1,0,0:0:0:0:
352,192,40389,6,0,L|416:32,2,160,0|0|0,0:0|0:0|0:0,0:0:0:0:
256,192,41389,1,0,0:0:0:0:
352,192,41589,1,0,0:0:0:0:
256,192,41789,1,0,0:0:0:0:
160,192,41989,2,0,B|80:192|80:192|80:256|80:256|160:256|160:256|160:160,1,320
160,128,42989,1,0,0:0:0:0:
160,96,43189,1,0,0:0:0:0:
160,64,43389,1,0,0:0:0:0:
256,64,43589,6,0,B|480:64|480:64|480:144|352:144|352:144|352:192|352:192|448:192|448:272|304:272|304:272|304:368|304:368|240:368,1,800
257,368,45789,1,0,0:0:0:0:
160,368,45989,5,0,0:0:0:0:
160,368,46189,1,0,0:0:0:0:
48,304,46389,5,0,0:0:0:0:
48,304,46589,1,0,0:0:0:0:
160,128,46789,6,0,L|320:192,3,160,0|0|0|0,0:0|0:0|0:0|0:0,0:0:0:0:
160,128,48189,1,0,0:0:0:0:
48,112,48389,6,0,P|64:256|224:320,2,320,0|0|0,0:0|0:0|0:0,0:0:0:0:
48,112,50389,1,0,0:0:0:0:
208,112,50789,1,0,0:0:0:0:
208,112,51189,1,0,0:0:0:0:
384,112,51589,5,0,0:0:0:0:
384,112,51989,1,0,0:0:0:0:
384,112,52389,1,0,0:0:0:0:
256,192,53189,6,0,B|256:256|256:256|192:208|256:112|256:112|144:112,2,320,0|0|0,0:0|0:0|0:0,0:0:0:0:
256,192,55189,1,0,0:0:0:0:
256,192,55589,2,0,B|160:192|160:192|160:128,2,160,0|0|0,0:0|0:0|0:0,0:0:0:0:
368,192,56689,6,0,B|448:224|448:224|320:176,1,200
256,192,57589,2,0,L|80:192,1,160
96,192,58389,1,0,0:0:0:0:
256,192,58789,1,0,0:0:0:0:
416,192,59189,1,0,0:0:0:0:
256,96,59589,6,0,L|80:96,1,160
256,96,60389,2,0,L|432:96,1,160
464,96,61189,6,0,B|400:96|400:96|400:144|400:144|336:144|336:144|336:192|336:192|288:192|288:192|288:272,2,320,0|0|0,0:0|0:0|0:0,0:0:0:0:
256,48,63589,5,0,0:0:0:0:
256,192,63989,1,0,0:0:0:0:
80,192,64389,1,0,0:0:0:0:
256,48,65189,5,0,0:0:0:0:
256,192,65589,1,0,0:0:0:0:
432,192,65989,1,0,0:0:0:0:
256,192,66789,1,0,0:0:0:0:
80,192,67589,6,0,B|96:112|96:112|112:192|112:192|224:192|240:112|240:112|256:192|256:192|336:192,1,480
448,192,69189,6,0,B|384:192|384:192|384:128|384:128|288:128|288:128|288:256|288:256|176:256|176:256|176:80,1,640
176,80,71189,1,0,0:0:0:0:
176,80,71589,1,0,0:0:0:0:
176,80,71989,1,0,0:0:0:0:
64,192,72389,6,0,B|128:192|128:192|128:128|128:128|224:128|224:128|224:256|224:256|336:256|336:256|336:80,1,640
336,80,74389,1,0,0:0:0:0:
336,80,74789,1,0,0:0:0:0:
336,80,75189,1,0,0:0:0:0:
192,80,75589,6,0,L|32:80,1,160
112,80,76389,2,0,L|288:80,1,160
352,80,77189,2,0,L|176:80,1,160
272,80,77989,2,0,L|112:80,1,160
272,80,78789,6,0,B|272:208|272:208|464:208,2,320,0|0|0,0:0|0:0|0:0,0:0:0:0:
272,80,80789,2,0,B|112:80|112:80|112:96,2,160,0|0|0,0:0|0:0|0:0,0:0:0:0:
96,80,81989,1,0,0:0:0:0:
128,48,88389,6,0,B|464:48|464:48|464:336|464:336|128:336,1,960
256,192,91589,6,0,B|64:192|64:192|352:192,1,480
176,192,93189,1,0,0:0:0:0:
272,192,93589,1,0,0:0:0:0:
400,192,93989,2,0,P|288:256|416:304,1,320
224,112,96389,1,0,0:0:0:0:
112,208,96789,2,0,B|64:224|64:224|192:176,1,160
256,192,97589,2,0,L|432:192,1,160
416,192,98389,1,0,0:0:0:0:
256,192,98789,1,0,0:0:0:0:
96,192,99189,1,0,0:0:0:0:
256,96,99589,6,0,L|432:96,1,160
256,96,100389,2,0,L|80:96,1,160
48,96,101189,6,0,B|112:96|112:96|112:144|112:144|176:144|176:144|176:192|176:192|224:192|224:192|224:272,2,320,0|0|0,0:0|0:0|0:0,0:0:0:0:
256,48,103589,5,0,0:0:0:0:
256,192,103989,1,0,0:0:0:0:
432,192,104389,1,0,0:0:0:0:
256,48,105189,5,0,0:0:0:0:
256,192,105589,1,0,0:0:0:0:
80,192,105989,1,0,0:0:0:0:
256,192,106789,1,0,0:0:0:0:
432,192,107589,6,0,B|416:112|416:112|400:192|400:192|288:192|272:112|272:112|256:192|256:192|176:192,1,480
80,192,109189,6,0,B|96:128|96:128|96:288|96:288|160:112|160:112|160:304|160:304|224:112|224:112|272:320|272:320|384:64,2,1280,0|0|0,0:0|0:0|0:0,0:0:0:0:
80,192,115989,1,0,0:0:0:0:
240,192,116389,2,0,L|80:192,1,160
368,192,117189,5,0,0:0:0:0:
368,192,117589,1,0,0:0:0:0:
208,192,117989,2,0,L|368:192,1,160
256,80,118789,6,0,B|160:128|368:128|256:176|256:208,4,160
48,192,120789,1,0,0:0:0:0:
256,320,121189,1,0,0:0:0:0:
464,192,121589,1,0,0:0:0:0:
192,64,121989,1,0,0:0:0:0:
