osu file format v9

[General]
AudioFilename: DJ Bouche - Hare Hare Sailor Fuku (Euro Mix).MP3
AudioLeadIn: 1500
PreviewTime: 47838
Countdown: 0
SampleSet: Normal
StackLeniency: 0.7
Mode: 0
LetterboxInBreaks: 1

[Editor]
Bookmarks: 338,14640,36617,47954,69756,78477,89640,99233,111965,123303,145454,155396
DistanceSpacing: 1
BeatDivisor: 2
GridSize: 16

[Metadata]
Title:Hare Hare Sailor Fuku (Euro Mix)
Artist:DJ Bouche
Creator:Dangaard
Version:Normal
Source:Lucky Star
Tags:The Melancholy of Haruhi Suzumiya no Yuuutsu Motteke! Yukai Remix Hirano Aya AMV Girl Stratos RvS revived studio Gabi Natteke

[Difficulty]
HPDrainRate:2
CircleSize:3
OverallDifficulty:2
ApproachRate:4
SliderMultiplier:1
SliderTickRate:1

[Events]
//Background and Video events
0,0,"BG.jpg"
Video,0,"video.avi"
//Break Periods
2,89840,97913
//Storyboard Layer 0 (Background)
//Storyboard Layer 1 (Fail)
//Storyboard Layer 2 (Pass)
//Storyboard Layer 3 (Foreground)
//Storyboard Sound Samples
//Background Colour Transformations
3,100,0,0,0

[TimingPoints]
338,348.837209302326,4,1,1,60,1,0
6791,-100,4,1,1,45,0,0
8710,-100,4,1,1,60,0,0
36617,-100,4,1,1,65,0,0
47779,-100,4,1,1,70,0,1
70105,-100,4,1,1,60,0,0
71151,-100,4,1,1,50,0,0
72547,-100,4,1,1,60,0,0
82140,-100,4,1,1,45,0,0
84058,-100,4,1,1,60,0,0
111965,-100,4,1,1,65,0,0
123128,-100,4,1,1,70,0,1
145454,-100,4,1,1,60,0,0

[Colours]
Combo1 : 253,188,53
Combo2 : 255,15,15
Combo3 : 244,136,236
Combo4 : 72,72,255
Combo5 : 159,64,255

[HitObjects]
256,192,338,12,0,2779
256,112,3128,5,6
336,48,3477,1,10
336,48,3651,2,0,B|384:16|464:32,1,100,2|2
496,160,4524,5,0
416,224,4873,1,10
416,224,5047,2,0,B|384:128,1,100,2|2
256,192,5919,5,2
304,48,6442,2,0,B|256:22|208:48,1,100,2|2
112,80,7140,1,2
64,224,7663,2,0,B|80:176,1,50,8|2
176,224,8186,2,0,B|192:272,1,50,0|10
224,368,8710,5,6
320,336,9058,1,10
320,336,9233,1,2
288,240,9582,2,2,B|240:96,1,150,2|0
320,32,10454,5,10
320,32,10628,1,2
416,64,10977,2,2,B|450:151|373:198,2,150,2|2|2
336,112,12372,6,0,B|278:142|283:219,2,100,2|6|6
256,48,13419,2,0,B|185:12|107:50,1,150,6|10
32,96,14291,1,4
0,192,14640,5,10
32,288,14989,2,0,B|128:336|224:288,1,200,2|0
256,192,16035,1,10
320,272,16384,2,0,B|368:298|416:272,1,100,2|8
480,192,17082,6,2,B|432:120|336:128,2,150,2|2|8
512,288,18477,2,2,B|480:384,1,100,2|8
416,288,19175,2,2,B|384:384,2,100,2|10|0
336,224,20221,6,2,B|265:260|187:222,1,150,10|2
112,288,21093,1,0
192,352,21442,2,0,B|263:388|341:350,1,150,0|2
416,288,22314,1,8
448,192,22663,1,2
320,112,23186,5,2
256,192,23535,1,0
192,112,23884,1,6
64,192,24407,5,10
0,272,24756,1,6
80,336,25105,1,10
144,256,25454,1,6
208,336,25803,6,0,B|256:362|304:336,2,100,10|2|8
336,192,27198,2,0,B|384:166|432:192,2,100,10|2|8
256,256,28244,6,2,B|185:220|107:258,2,150,2|2|8
336,320,29640,2,2,B|368:224,1,100,2|8
304,144,30338,2,2,B|336:48,2,100,2|10|0
208,112,31384,5,10
112,80,31733,2,0,B|32:112|32:208,2,150,2|0|8
128,176,33128,1,2
224,208,33477,1,8
320,240,33826,2,2,B|404:240|436:160,2,150,2|2|8
336,144,35221,5,6
304,48,35570,1,10
208,16,35919,1,6
112,48,36268,1,10
80,144,36617,6,0,B|48:240,2,100,6|8|0
176,112,37663,1,10
208,208,38012,2,0,B|176:304,2,100,2|8|0
304,176,39058,1,10
336,272,39407,6,0,B|496:272,2,150,2|2|8
272,352,40803,2,0,B|96:352,2,150,2|2|10
240,256,42198,5,0
272,160,42547,1,14
480,176,43244,1,14
304,64,43942,1,14
512,80,44640,1,14
256,192,44989,12,0,47082
256,128,47779,5,4
352,80,48128,1,10
400,176,48477,2,0,B|494:203|477:323,2,150,2|2|8
304,224,49872,2,0,B|268:295|306:373,2,150,2|2|8
384,296,51268,1,2
208,368,51791,5,2
112,336,52140,1,2
80,240,52489,2,0,B|151:204|229:242,1,150,2|8
304,304,53361,5,6
448,240,53884,1,2
352,48,54582,1,2
256,16,54931,1,2
160,48,55279,2,2,B|80:80|80:176,1,150,2|8
160,240,56151,5,6
256,256,56500,1,10
208,160,56849,1,6
304,352,57372,5,6
400,320,57721,1,6
432,224,58070,1,6
400,128,58419,2,2,B|329:92|251:130,1,150,6|4
160,80,59291,5,10
112,176,59640,2,0,B|18:203|35:323,2,150,2|2|8
208,224,61035,2,0,B|244:295|206:373,2,150,2|2|8
128,296,62431,1,2
304,368,62954,5,2
400,336,63303,1,2
432,240,63652,2,0,B|361:204|283:242,1,150,2|8
208,304,64524,5,6
64,240,65047,1,2
160,48,65745,1,2
256,16,66094,1,2
352,48,66442,2,2,B|432:80|432:176,1,150,2|8
464,256,67314,5,6
432,352,67663,1,10
336,384,68012,1,6
240,352,68361,1,10
208,256,68710,5,6
352,208,69233,1,6
208,160,69756,1,14
288,96,70105,6,0,B|359:60|437:98,2,150,6|0|8
208,160,71500,2,0,B|137:124|59:162,2,150,2|0|8
288,224,72896,6,0,B|359:188|437:226,2,150,2|2|8
208,288,74291,1,4
208,64,75512,5,6
304,96,75861,2,0,B|320:144,1,50,0|14
464,208,76558,2,0,B|448:160,1,50,0|14
320,256,77256,6,0,B|304:304,1,50,0|10
208,272,77779,1,2
176,176,78128,1,10
256,112,78477,5,6
176,48,78826,1,10
176,48,79000,2,0,B|128:16|48:32,1,100,2|2
16,160,79873,5,0
96,224,80222,1,10
96,224,80396,2,0,B|128:128,1,100,2|2
256,192,81268,5,2
208,48,81791,2,0,B|256:22|304:48,1,100,2|2
400,80,82489,1,2
448,224,83012,2,0,B|432:176,1,50,8|2
336,224,83535,2,0,B|320:272,1,50,0|10
288,368,84059,5,6
192,336,84407,1,10
192,336,84582,1,2
224,240,84931,2,2,B|272:96,1,150,2|0
192,32,85803,5,10
192,32,85977,1,2
96,64,86326,2,2,B|62:151|139:198,2,150,2|2|2
176,112,87721,6,0,B|234:142|229:219,2,100,2|6|6
256,48,88768,2,0,B|327:12|405:50,1,150,6|10
480,96,89640,1,4
320,112,99233,5,6
448,192,99756,5,10
512,272,100105,1,6
432,336,100454,1,10
368,256,100803,1,6
304,336,101152,6,0,B|256:362|208:336,2,100,10|2|8
176,192,102547,2,0,B|128:166|80:192,2,100,10|2|8
256,256,103593,6,2,B|327:220|405:258,2,150,2|2|8
176,320,104989,2,2,B|144:224,1,100,2|8
208,144,105687,2,2,B|176:48,2,100,2|10|0
304,112,106733,5,10
400,80,107082,2,0,B|480:112|480:208,2,150,2|0|8
384,176,108477,1,2
288,208,108826,1,8
192,240,109175,2,2,B|108:240|76:160,2,150,2|2|8
176,144,110570,5,6
208,48,110919,1,10
304,16,111268,1,6
400,48,111617,1,10
432,144,111966,6,0,B|464:240,2,100,6|8|0
336,112,113012,1,10
304,208,113361,2,0,B|336:304,2,100,2|8|0
208,176,114407,1,10
176,272,114756,6,0,B|16:272,2,150,2|2|8
240,352,116152,2,0,B|416:352,2,150,2|2|10
272,256,117547,5,0
240,160,117896,1,14
32,176,118593,1,14
208,64,119291,1,14
0,80,119989,1,14
256,192,120338,12,0,122431
256,128,123128,5,4
160,80,123477,1,10
112,176,123826,2,0,B|18:203|35:323,2,150,2|2|8
208,224,125221,2,0,B|244:295|206:373,2,150,2|2|8
128,296,126617,1,2
304,368,127140,5,2
400,336,127489,1,2
432,240,127838,2,0,B|361:204|283:242,1,150,2|8
208,304,128710,5,6
64,240,129233,1,2
160,48,129931,1,2
256,16,130280,1,2
352,48,130628,2,2,B|432:80|432:176,1,150,2|8
352,240,131500,5,6
256,256,131849,1,10
304,160,132198,1,6
208,352,132721,5,6
112,320,133070,1,6
80,224,133419,1,6
112,128,133768,2,2,B|183:92|261:130,1,150,6|4
352,80,134640,5,10
400,176,134989,2,0,B|494:203|477:323,2,150,2|2|8
304,224,136384,2,0,B|268:295|306:373,2,150,2|2|8
384,296,137780,1,2
208,368,138303,5,2
112,336,138652,1,2
80,240,139001,2,0,B|151:204|229:242,1,150,2|8
304,304,139873,5,6
448,240,140396,1,2
352,48,141094,1,2
256,16,141443,1,2
160,48,141791,2,2,B|80:80|80:176,1,150,2|8
48,256,142663,5,6
80,352,143012,1,10
176,384,143361,1,6
272,352,143710,1,10
304,256,144059,5,6
160,208,144582,1,6
304,160,145105,1,14
224,96,145454,6,0,B|176:70|128:96,2,100,6|8|2
304,160,146500,1,8
224,224,146849,2,0,B|153:260|75:222,2,150,2|2|8
304,288,148245,6,0,B|300:347|337:380,1,100,0|10
416,304,148942,2,0,B|420:245|383:212,2,100,0|10|0
304,288,149989,5,14
112,240,150686,1,14
304,192,151384,1,10
272,96,151733,1,0
176,64,152082,5,14
64,160,152605,1,6
160,336,153303,5,6
352,288,154000,1,6
160,240,154698,1,6
256,208,155047,1,6
352,176,155396,1,6
