osu file format v5

[General]
AudioFilename: God Knows (DJ Bouche Euro Mix).mp3
AudioLeadIn: 0
PreviewTime: 83032
Countdown: 0
SampleSet: Normal
StackLeniency: 0.7
Mode: 0
LetterboxInBreaks: 1

[Editor]
DistanceSpacing: 1
BeatDivisor: 8
GridSize: 8

[Metadata]
Title:God Knows (Euro Mix)
Artist:DJ Bouche
Creator:vytalibus
Version:Haruhi (Insane)
Source:
Tags:Haruhi

[Difficulty]
HPDrainRate:8
CircleSize:5
OverallDifficulty:7
SliderMultiplier:1.6
SliderTickRate:2

[Events]
//Background and Video events
0,0,"1024-by-768-115472-20071008104018.jpg"
//Break Periods
2,111166,122253
//Storyboard Layer 0 (Background)
//Storyboard Layer 1 (Fail)
//Storyboard Layer 2 (Pass)
//Storyboard Layer 3 (Foreground)
//Storyboard Sound Samples
//Background Colour Transformations
3,100,163,162,255

[TimingPoints]
12341,375,4,1,0,70,1,0
64278,-100,4,1,0,11,0,0
64466,-100,4,1,0,18,0,0
64653,-100,4,1,0,22,0,0
64841,-100,4,1,0,30,0,0
65028,-100,4,1,0,38,0,0
65216,-100,4,1,0,47,0,0
65403,-100,4,1,0,53,0,0
65591,-100,4,1,0,60,0,0
65778,-100,4,1,0,66,0,0
65966,-100,4,1,0,70,0,0
70278,-100,4,1,0,11,0,0
70466,-100,4,1,0,19,0,0
70653,-100,4,1,0,25,0,0
70841,-100,4,1,0,35,0,0
71028,-100,4,1,0,48,0,0
71216,-100,4,1,0,57,0,0
71403,-100,4,1,0,66,0,0
71591,-100,4,1,0,85,0,0
71778,-100,4,1,0,60,0,0
71966,-100,4,1,0,43,0,0
72153,-100,4,1,0,70,0,0
84341,-100,4,1,0,70,0,1
110966,-100,4,1,0,70,0,0
138341,-100,4,1,0,70,0,1
163653,-100,4,1,0,70,0,0

[Colours]
Combo1 : 255,255,0
Combo2 : 255,191,255
Combo3 : 45,88,228
Combo4 : 200,38,38

[HitObjects]
256,192,21341,12,0,23966
56,48,24341,5,0
216,48,24716,1,8
136,184,25091,2,0,B|136:280,1,80
136,344,25466,2,0,B|136:248,1,80,0|0
56,264,25841,5,0
216,264,26216,1,8
376,264,26591,2,0,B|504:264,1,80
456,264,26966,2,0,B|456:136,1,80,0|0
456,104,27341,5,0
296,104,27716,1,8
136,104,28091,2,0,B|136:200,3,80,0|0|0|2
256,288,29028,1,2
256,288,29216,1,0
256,288,29403,1,2
256,128,29778,1,2
456,48,30341,5,0
296,48,30716,1,8
376,184,31091,2,0,B|376:280,1,80
376,344,31466,2,0,B|376:248,1,80
456,264,31841,5,0
296,264,32216,1,8
136,264,32591,2,0,B|8:264,1,80
56,264,32966,2,0,B|56:136,1,80,0|0
56,104,33341,5,0
216,104,33716,1,8
376,104,34091,2,0,B|376:200,3,80,0|0|0|2
256,288,35028,1,2
256,288,35216,1,0
256,288,35403,1,2
256,128,35778,1,2
24,192,36341,5,0
104,192,36528,2,0,B|104:256,1,40,0|8
104,352,36903,1,0
200,288,37184,1,0
328,288,37466,2,0,B|376:288,2,40,0|0|0
264,232,37841,5,0
264,152,38028,2,0,B|264:88,1,40,0|8
384,112,38403,1,0
472,192,38684,1,0
384,272,38966,2,0,B|384:320,2,40
384,192,39341,5,0
304,192,39528,2,0,B|240:192,1,40,0|8
144,192,39903,1,0
24,192,40184,1,0
24,72,40466,1,0
24,72,40653,1,2
184,72,41028,1,2
256,40,41216,1,0
328,72,41403,1,2
256,216,41778,1,2
440,232,42341,5,0
360,232,42528,1,0
360,232,42622,1,8
280,232,42809,1,0
280,232,42903,1,0
200,232,43091,1,0
200,232,43184,1,0
120,232,43372,1,0
112,232,43466,1,8
104,232,43559,1,0
96,232,43653,1,8
80,152,43841,5,0
160,152,44028,1,0
160,152,44122,1,8
240,152,44309,1,0
240,152,44403,1,0
320,152,44591,1,0
320,152,44684,1,0
400,152,44872,1,0
408,152,44966,1,8
416,152,45059,1,0
424,152,45153,1,8
256,192,45341,12,4,47966
120,288,48341,5,0
280,288,48716,2,0,B|376:288,1,80
400,288,48997,1,0
440,128,50403,1,0
376,80,50591,1,0
296,64,50778,1,0
216,64,50966,1,0
136,80,51153,1,0
72,128,51341,2,0,B|72:296,1,160,0|0
72,368,51903,1,0
72,368,51997,1,0
256,152,52653,6,0,B|400:280,1,160,0|0
376,152,53403,2,0,B|232:280,1,160,0|0
256,336,53966,1,0
440,288,54341,6,0,B|440:104,1,160,0|0
440,48,54903,1,0
440,48,54997,1,0
72,272,56403,5,0
72,192,56591,1,0
72,112,56778,1,0
136,152,56966,1,0
136,232,57153,1,0
200,192,57341,2,0,B|344:192,2,120
480,152,58653,5,2
480,232,58841,1,4
328,272,59216,1,4
328,192,59403,1,0
328,112,59591,1,4
184,192,59966,1,8
24,192,60341,5,4
24,32,60716,1,0
104,32,60903,1,0
104,32,60997,1,0
368,40,62403,1,0
424,96,62591,1,0
400,168,62778,1,0
344,112,62966,1,0
320,184,63153,1,0
376,240,63341,1,0
224,296,63716,1,0
168,352,63904,1,0
168,352,63997,1,0
64,296,64278,6,0,B|16:296,20,40,0|0|0|0|0|0|0|0|0|0|0|0|0|0|0|0|0|0|0|0|0
64,296,66341,5,0
224,296,66716,1,0
224,216,66903,1,0
224,216,66997,1,0
432,224,68403,1,0
416,144,68591,1,0
368,80,68778,1,0
288,48,68966,1,0
208,40,69153,1,0
128,40,69341,1,0
48,128,69622,1,0
128,216,69903,1,0
256,312,70278,6,0,B|256:368,18,40,0|0|0|0|0|0|0|0|0|0|0|0|0|0|0|0|0|0|0
256,192,72341,6,0,B|408:304,1,160
256,192,73091,2,0,B|112:296,1,160
48,288,73653,1,0
48,96,74591,1,0
112,144,74778,1,0
184,184,74966,1,0
256,144,75153,1,0
320,96,75341,2,0,L|488:96|488:192|488:264,1,320
488,368,76466,1,0
408,368,76653,2,0,B|216:368,1,160,0|0
144,272,78153,5,0
144,192,78341,1,0
216,232,78528,1,0
216,152,78716,1,0
144,112,78903,1,0
144,112,78997,1,0
376,272,79653,5,0
376,192,79841,1,0
304,232,80028,1,0
304,152,80216,1,0
376,112,80403,1,0
376,112,80497,1,0
256,80,80778,1,0
256,80,80966,1,0
256,192,81341,1,0
256,304,81716,1,0
256,304,81903,1,0
128,232,82278,5,0
128,152,82466,1,0
128,144,82559,1,0
128,136,82653,1,0
128,128,82747,1,0
128,120,82841,1,4
32,192,83216,5,0
256,192,83591,1,0
256,192,83778,1,0
480,192,84153,5,2
376,304,84528,1,0
296,304,84716,1,0
216,304,84903,1,0
216,304,84997,1,0
96,304,85278,1,0
32,192,85653,5,2
136,80,86028,1,0
216,80,86216,1,0
296,80,86403,1,0
296,80,86497,1,0
416,80,86778,1,0
416,208,87153,6,0,B|272:336,1,160,2|0
256,264,87716,1,0
208,312,87903,2,0,B|64:184,1,160,2|0
32,264,88466,1,0
32,144,88653,5,8
144,32,89028,1,8
256,144,89403,1,8
368,32,89778,1,0
424,88,89966,1,8
480,144,90153,1,8
416,192,90341,6,0,B|224:192,1,160,0|8
256,192,90903,2,0,B|256:272|336:272|416:272|416:184,1,240,0|8
360,136,91653,1,0
304,80,91841,1,0
144,80,92216,1,8
64,216,92591,1,0
224,216,92966,1,8
384,216,93341,2,0,B|384:296|256:296|128:296|128:208,1,320
128,136,94278,2,2,B|128:48,2,80
128,360,95216,5,0
288,360,95591,1,0
288,360,95778,1,0
448,360,96153,5,2
392,232,96528,1,0
392,152,96716,1,0
320,192,96903,1,0
320,192,96997,1,0
200,192,97278,1,0
256,40,97653,5,2
112,112,98028,1,0
32,112,98216,1,0
72,176,98403,1,0
72,176,98497,1,0
72,296,98778,1,0
256,352,99153,6,0,B|400:224,1,160,2|0
336,192,99716,1,0
376,136,99903,2,0,B|232:8,1,160,2|0
184,32,100466,1,0
56,32,100653,5,8
56,192,101028,1,8
56,352,101403,1,8
184,280,101778,1,0
264,280,101966,1,8
224,352,102153,1,8
304,352,102341,6,0,B|496:352,1,160,0|8
464,352,102903,2,0,B|464:272|384:272|304:272|304:360,1,240,0|8
224,352,103653,1,0
144,352,103841,1,0
40,232,104216,1,8
144,112,104591,1,0
304,112,104966,1,8
408,232,105341,2,0,B|152:232,1,240,0|0
336,192,107216,5,0
112,192,107591,1,0
192,192,107872,1,0
272,192,108153,1,0
336,192,108341,2,0,B|336:0|144:64|80:192|144:320|336:384|336:192,2,560,0|0|4
176,280,123153,5,0
176,280,123341,1,0
336,280,123716,1,0
336,280,123903,1,0
256,136,124278,1,8
336,280,124653,5,0
336,280,124841,1,0
176,280,125216,1,0
176,280,125403,1,0
256,136,125778,1,8
104,192,126153,5,0
104,192,126341,1,0
104,32,126716,1,0
104,32,126903,1,0
248,104,127278,1,8
392,32,127653,1,0
392,192,128028,1,8
392,352,128403,1,8
248,272,128778,1,0
168,272,128966,1,8
208,208,129153,1,8
208,136,129341,1,0
256,192,129528,12,0,130653
32,192,131216,5,0
256,192,131591,1,0
480,192,131966,1,0
368,288,132341,2,0,B|368:384|256:392|136:384|136:288,1,320,0|0
192,232,133278,1,0
192,152,133466,1,0
136,96,133653,2,0,B|0:384|256:408|512:384|376:94,1,720,0|4
256,288,136653,5,4
256,288,136841,1,4
192,112,137591,5,0
192,112,137684,1,8
256,64,137872,1,0
256,64,137966,1,8
320,112,138153,1,8
320,112,138247,1,8
320,112,138341,6,0,B|320:280,1,160
256,360,139091,1,0
256,360,139278,1,0
256,360,139466,1,0
192,272,139841,2,0,B|192:96,1,160
256,24,140591,1,0
256,24,140778,1,0
256,24,140966,1,0
128,24,141153,5,2
32,152,141528,1,0
32,232,141716,1,0
104,192,141903,1,2
64,344,142278,1,0
144,344,142466,1,0
104,272,142653,1,8
264,272,143028,1,8
424,272,143403,1,8
424,112,143778,1,0
344,112,143966,1,8
384,176,144153,1,8
304,176,144341,6,0,B|128:176,1,160,0|8
144,176,144903,2,0,B|144:256|224:256|304:256|304:168,1,240,0|8
304,96,145653,1,0
240,136,145841,1,0
80,136,146216,1,8
160,272,146591,1,0
320,272,146966,1,8
408,136,147341,2,0,L|336:96|176:96|104:136,1,320
108,217,148278,2,2,B|108:313,2,80,2|2|2
448,280,149216,5,0
448,104,149591,1,0
448,104,149778,1,0
336,24,150153,6,0,B|160:24,1,160,0|0
176,24,150716,1,2
64,104,151091,1,0
64,104,151278,1,0
176,192,151653,2,0,B|360:192,1,160
336,192,152216,1,2
448,280,152591,1,0
448,280,152778,1,0
336,360,153153,6,0,B|160:360,1,160,2|0
96,360,153716,1,0
16,360,153903,2,0,B|16:176,1,160,2|0
16,120,154466,1,0
16,40,154653,1,8
152,120,155028,1,8
288,200,155403,1,8
424,280,155778,1,0
488,232,155966,1,8
424,184,156153,1,8
360,136,156341,6,0,B|184:136,1,160,0|8
200,136,156903,2,0,B|200:216|120:216|40:216|40:128,1,240,0|8
120,128,157653,1,0
120,48,157841,1,0
280,48,158216,1,8
440,48,158591,1,0
360,184,158966,1,8
200,184,159341,2,0,B|120:184|120:264|120:344|208:344,1,240,0|0
256,136,161216,5,0
136,248,161591,1,4
256,248,161872,1,0
376,248,162153,1,0
376,248,162341,1,4
256,192,162528,12,4,163653
256,192,165341,5,0
416,192,165716,1,8
336,328,166091,1,0
336,248,166278,1,0
336,328,166466,1,8
256,192,166841,5,0
96,192,167216,1,8
176,328,167591,1,0
176,248,167778,1,0
176,328,167966,1,8
256,192,168341,5,0
416,192,168716,1,8
336,56,169091,1,0
336,136,169278,1,0
336,56,169466,1,8
264,96,169653,5,2
104,96,170028,1,2
104,96,170216,1,0
104,96,170403,1,2
104,256,170778,1,2
496,352,171341,5,0
336,352,171716,1,8
176,352,172091,1,0
96,352,172278,1,0
16,352,172466,1,8
16,192,172841,5,0
176,192,173216,1,8
336,192,173591,1,0
416,192,173778,1,0
496,192,173966,1,8
496,32,174341,5,0
336,32,174716,1,8
176,32,175091,1,0
96,32,175278,1,0
16,32,175466,1,8
16,112,175653,5,2
96,248,176028,1,2
96,248,176216,1,0
96,248,176403,1,2
176,112,176778,1,2
416,112,177341,6,0,L|416:264,2,120,2|0|0
296,112,178184,1,2
296,232,178466,2,0,B|296:280,2,40,0|0|8
216,232,178841,6,0,L|72:232,2,120,2|0|0
216,112,179684,1,2
96,112,179966,2,0,B|48:112,2,40,0|0|8
96,192,180341,6,0,L|96:328,2,120,2|2|0
216,192,181184,1,2
336,192,181466,1,0
416,192,181653,5,8
376,344,182028,1,8
376,344,182216,1,0
376,344,182403,1,8
216,344,182778,1,8
32,192,183341,5,2
152,192,183622,1,0
272,192,183903,1,0
208,88,184184,1,2
88,88,184466,2,0,B|40:88,2,40,2|0|2
88,88,184841,1,2
88,296,185216,5,0
248,296,185591,1,0
376,296,185872,1,0
312,192,186153,1,0
312,192,186341,1,4
256,192,186528,12,4,189341
