osu file format v5

[General]
AudioFilename: Chicken.mp3
AudioLeadIn: 496
PreviewTime: -1
Countdown: 1
SampleSet: Normal
StackLeniency: 0.7
Mode: 0
LetterboxInBreaks: 1

[Metadata]
Title:Bird Dance
Artist:DJ Birdy
Creator:TheNiccer
Version:Harder
Source:Madness Combat 1, by Krinkels
Tags:madness combat chicken dance

[Difficulty]
HPDrainRate:0
CircleSize:5
OverallDifficulty:3
SliderMultiplier:1.1
SliderTickRate:2

[Events]
//Background and Video events
0,0,"Madness.jpg"
//Break Periods
2,68488,78078
2,137599,150645
//Storyboard Layer 0 (Background)
//Storyboard Layer 1 (Failing)
//Storyboard Layer 2 (Passing)
//Storyboard Layer 3 (Foreground)
//Storyboard Sound Samples
//Background Colour Transformations
3,100,128,255,0

[TimingPoints]
1768.52898219207,431.945515452777,4,1,0,69,1,0

[Colours]
Combo1 : 166,100,0
Combo2 : 103,220,24
Combo3 : 134,10,235
Combo4 : 240,5,5

[HitObjects]
256,192,10407,12,0,12135
96,128,13863,5,0
96,192,14294,1,0
96,256,14726,1,2
256,256,15590,1,0
416,256,16454,1,2
416,128,17318,5,0
352,128,17750,1,0
256,128,18182,1,2
96,128,19046,1,0
96,256,19910,1,2
256,256,20774,1,0
416,256,21638,1,0
416,192,22069,1,0
416,128,22501,1,0
256,128,23365,1,2
96,128,24229,5,0
96,256,25093,1,2
256,256,25957,1,0
416,256,26821,1,0
416,192,27253,1,0
416,128,27685,5,0
256,256,28549,1,2
96,128,29413,1,0
96,256,30276,1,2
192,192,30708,1,0
256,128,31140,5,0
416,256,32004,1,2
416,128,32868,1,0
256,256,33732,1,2
192,192,34164,1,0
96,128,34596,5,0
96,256,35460,1,2
256,128,36324,1,0
416,256,37188,1,0
416,192,37620,1,0
416,128,38051,5,2
352,192,38483,5,2
256,256,38915,1,0
160,192,39347,1,0
96,128,39779,1,2
96,192,40211,1,0
96,256,40643,2,0,B|224:256,2,110,8|4|8
384,256,42803,1,0
416,256,43235,5,0
416,128,44099,1,0
352,128,44531,1,0
288,128,44963,1,0
128,224,46258,1,0
96,256,46690,5,0
256,256,47554,1,0
320,256,47986,1,8
384,256,48418,1,8
288,128,49714,1,0
256,128,50146,5,0
96,128,51010,1,0
96,256,51874,1,2
256,256,52738,5,0
416,256,53601,1,2
416,128,54465,1,0
352,128,54897,1,0
288,128,55329,1,2
128,224,56625,1,0
96,256,57057,5,2
256,256,57921,1,0
320,256,58353,1,0
384,256,58785,1,2
288,128,60081,1,0
256,128,60513,5,2
96,128,61377,1,0
96,192,61808,1,0
96,256,62240,1,2
256,256,63104,5,0
416,256,63968,1,2
416,128,64832,1,8
352,128,65264,1,8
288,128,65696,1,2
96,128,66560,5,0
192,160,66992,1,0
256,192,67424,5,14
256,192,68288,5,6
96,256,79518,5,8
256,128,80382,1,0
416,256,81246,1,8
416,192,81678,1,0
416,128,82110,1,0
320,192,82542,5,0
256,256,82974,1,0
96,128,83838,1,0
96,256,84702,1,0
256,128,85565,1,0
416,256,86429,5,0
416,128,87293,1,0
256,256,88157,1,0
96,128,89021,1,0
96,192,89453,1,0
96,256,89885,5,0
256,128,90749,1,0
416,256,91613,1,0
416,128,92477,1,0
352,192,92909,1,0
256,256,93340,5,0
96,128,94204,1,0
96,256,95068,1,0
192,192,95500,1,0
256,128,95932,1,0
320,128,96364,1,0
416,128,96796,5,4
416,256,97660,1,0
256,256,98524,1,0
256,128,99388,1,0
160,128,99820,1,0
96,128,100252,5,0
96,256,101115,1,0
256,256,101979,1,0
256,192,102411,1,0
256,128,102843,1,8
352,128,103275,1,0
416,128,103707,5,8
416,256,104571,1,0
320,256,105003,1,0
256,256,105435,1,0
256,128,106299,1,0
96,128,107163,5,2
96,192,107595,1,0
96,256,108027,2,2,B,1,110
160,256,108459,1,0
256,256,108891,2,2,B|416:256,1,110
416,256,109754,6,0,B|416:128,1,110
416,64,110618,6,0,B|256:64|96:64,1,220
160,64,111914,1,0
96,96,112346,2,0,B|256:96|416:96,1,220
384,96,113642,1,0
416,160,114074,2,0,B|256:160|96:160,1,220
128,160,115370,1,0
96,224,115802,2,2,B|256:224|416:224,1,220
384,224,117097,1,0
416,224,117529,5,0
416,128,118393,1,0
352,128,118825,1,0
320,128,119257,1,0
256,128,119689,1,0
224,128,120121,1,2
160,128,120553,1,0
128,128,120985,1,2
128,224,121849,1,8
192,224,122281,1,0
224,224,122713,1,8
288,224,123145,1,0
320,224,123577,1,0
384,224,124009,1,0
416,224,124441,5,0
416,128,125304,1,0
352,128,125736,1,0
320,128,126168,1,0
224,128,127032,1,2
160,128,127464,1,0
128,128,127896,1,2
128,224,128760,1,8
192,224,129192,1,0
224,224,129624,1,8
288,224,130056,1,0
320,224,130488,1,2
384,224,130920,1,0
416,224,131352,5,2
416,128,132216,1,8
352,128,132648,1,0
320,128,133079,1,8
320,192,133511,1,0
320,224,133943,1,2
256,224,134375,1,0
224,224,134807,1,0
224,128,135671,1,0
128,128,136535,1,2
128,224,137399,1,4
256,160,152085,5,0
96,128,152949,1,8
96,256,153813,1,0
416,256,154677,1,8
416,128,155541,5,0
96,128,156405,1,8
96,192,156836,1,0
96,256,157268,1,0
416,256,158132,1,8
416,192,158564,1,0
416,128,158996,5,0
96,128,159860,1,8
96,256,160724,1,0
256,192,161588,1,8
320,160,162020,1,0
416,128,162452,5,0
416,256,163316,1,8
256,192,164180,1,0
96,128,165043,1,8
96,192,165475,1,0
96,256,165907,5,6
416,256,168931,1,0
416,128,169363,5,0
96,128,172387,1,0
96,256,172818,5,2
416,256,175842,1,0
416,128,176274,5,2
96,128,178002,1,0
96,128,178866,1,2
96,256,179730,5,0
192,256,180162,1,0
256,256,180593,1,2
352,256,181025,1,0
416,256,181457,1,0
416,128,182321,1,10
256,128,183185,5,0
128,128,183617,1,0
96,128,184049,1,2
96,224,184481,1,0
96,256,184913,1,0
256,256,185777,1,0
416,256,186641,5,0
416,160,187073,1,0
416,128,187505,1,2
288,128,187937,1,0
256,128,188368,1,0
96,128,189232,1,10
96,256,190096,5,2
224,256,190528,1,0
256,256,190960,1,2
384,256,191392,1,0
416,256,191824,1,10
256,192,192688,12,14,193552
256,128,203055,5,4
