osu file format v13

[General]
AudioFilename: DJ BaSSMaT - Merry Christmas.mp3
AudioLeadIn: 0
PreviewTime: 83468
Countdown: 0
SampleSet: Normal
StackLeniency: 0.3
Mode: 1
LetterboxInBreaks: 0
WidescreenStoryboard: 0

[Editor]
Bookmarks: 3433,137699
DistanceSpacing: 1.2
BeatDivisor: 4
GridSize: 32
TimelineZoom: 2.099999

[Metadata]
Title:Merry Christmas
TitleUnicode:Merry Christmas
Artist:DJ BaSSMaT
ArtistUnicode:DJ BaSSMaT
Creator:Gero
Version:Muzukashii
Source:
Tags:osuplayer111 Andrea Natsu Kurosanyan Inyuschan Irreversible -Bakari- XinCrin Collab Collaboration Techno Trance Remix
BeatmapID:547525
BeatmapSetID:234935

[Difficulty]
HPDrainRate:5
CircleSize:4
OverallDifficulty:4
ApproachRate:5
SliderMultiplier:1.4
SliderTickRate:2

[Events]
//Background and Video events
0,0,"BG.jpg",0,125
//Break Periods
//Storyboard Layer 0 (Background)
//Storyboard Layer 1 (Fail)
//Storyboard Layer 2 (Pass)
//Storyboard Layer 3 (Foreground)
//Storyboard Sound Samples

[TimingPoints]
77,419.58041958042,4,1,0,50,1,0
13398,-100,4,1,0,75,0,0
70356,-133.333333333333,4,1,0,75,0,0
77070,-100,4,1,0,75,0,0
110846,-100,4,1,0,75,0,1
137699,-100,4,1,0,75,0,0

[Colours]
Combo1 : 175,174,160
Combo2 : 64,149,181
Combo3 : 58,186,167
Combo4 : 255,47,47
Combo5 : 236,217,111

[HitObjects]
256,192,3433,5,4,0:0:0:0:
256,192,4063,1,8,0:0:0:0:
256,192,4272,1,0,0:0:0:0:
256,192,5111,1,0,0:0:0:0:
256,192,5741,1,8,0:0:0:0:
256,192,6160,1,8,0:0:0:0:
256,192,6580,1,8,0:0:0:0:
256,192,6790,1,0,0:0:0:0:
256,192,7209,1,8,0:0:0:0:
256,192,7629,1,0,0:0:0:0:
256,192,7839,1,0,0:0:0:0:
256,192,8468,1,0,0:0:0:0:
256,192,8678,1,8,0:0:0:0:
256,192,9097,1,8,0:0:0:0:
256,192,9307,1,8,0:0:0:0:
256,192,9517,1,0,0:0:0:0:
256,192,10146,5,4,0:0:0:0:
256,192,10566,1,0,0:0:0:0:
256,192,10776,1,8,0:0:0:0:
256,192,10986,1,0,0:0:0:0:
256,192,11405,1,8,0:0:0:0:
256,192,11825,1,0,0:0:0:0:
256,192,12244,1,0,0:0:0:0:
256,192,12454,1,8,0:0:0:0:
256,192,12874,1,8,0:0:0:0:
256,192,13503,1,0,0:0:0:0:
256,192,13923,1,8,0:0:0:0:
256,192,14342,1,0,0:0:0:0:
256,192,14762,1,8,0:0:0:0:
256,192,14972,1,0,0:0:0:0:
256,192,15181,1,8,0:0:0:0:
256,192,15601,1,8,0:0:0:0:
256,192,16021,1,8,0:0:0:0:
256,192,16230,1,0,0:0:0:0:
256,192,16440,1,8,0:0:0:0:
256,192,16650,1,8,0:0:0:0:
256,192,16860,5,4,0:0:0:0:
256,192,17279,1,0,0:0:0:0:
256,192,17489,1,8,0:0:0:0:
256,192,17699,1,0,0:0:0:0:
256,192,18118,1,8,0:0:0:0:
256,192,18538,1,0,0:0:0:0:
256,192,18958,1,0,0:0:0:0:
256,192,19167,1,8,0:0:0:0:
256,192,19377,1,0,0:0:0:0:
256,192,19587,1,8,0:0:0:0:
256,192,19797,1,8,0:0:0:0:
256,192,20007,1,8,0:0:0:0:
256,192,20216,1,0,0:0:0:0:
256,192,20636,1,8,0:0:0:0:
256,192,21056,1,0,0:0:0:0:
256,192,21265,1,0,0:0:0:0:
256,192,21475,1,8,0:0:0:0:
256,192,21895,1,0,0:0:0:0:
256,192,22104,1,8,0:0:0:0:
256,192,22314,1,0,0:0:0:0:
256,192,22524,1,8,0:0:0:0:
256,192,22734,1,8,0:0:0:0:
256,192,22944,1,0,0:0:0:0:
256,192,23573,1,0,0:0:0:0:
256,192,23993,1,8,0:0:0:0:
256,192,24202,1,8,0:0:0:0:
256,192,24412,1,0,0:0:0:0:
256,192,24832,1,8,0:0:0:0:
256,192,25251,1,0,0:0:0:0:
256,192,25671,1,8,0:0:0:0:
256,192,26090,1,8,0:0:0:0:
256,192,26195,1,8,0:0:0:0:
256,192,26405,1,8,0:0:0:0:
256,192,26510,1,8,0:0:0:0:
256,192,26720,1,8,0:0:0:0:
256,192,26930,1,0,0:0:0:0:
256,192,27349,1,8,0:0:0:0:
256,192,27769,1,0,0:0:0:0:
256,192,27979,1,0,0:0:0:0:
256,192,28188,1,8,0:0:0:0:
256,192,28608,1,0,0:0:0:0:
256,192,28818,1,8,0:0:0:0:
256,192,29237,1,8,0:0:0:0:
256,192,29447,1,0,0:0:0:0:
256,192,29657,1,0,0:0:0:0:
256,192,30286,5,4,0:0:0:0:
256,192,30706,1,8,0:0:0:0:
256,192,30916,1,0,0:0:0:0:
256,192,31021,1,0,0:0:0:0:
256,192,31125,1,0,0:0:0:0:
256,192,31335,1,0,0:0:0:0:
256,192,31545,1,8,0:0:0:0:
256,192,31965,1,0,0:0:0:0:
256,192,32384,1,8,0:0:0:0:
256,192,32594,1,0,0:0:0:0:
256,192,32699,1,0,0:0:0:0:
256,192,32804,1,0,0:0:0:0:
256,192,33014,1,8,0:0:0:0:
256,192,33433,1,8,0:0:0:0:
256,192,33643,1,0,0:0:0:0:
256,192,33853,1,0,0:0:0:0:
256,192,34063,1,8,0:0:0:0:
256,192,34167,1,8,0:0:0:0:
256,192,34272,1,8,0:0:0:0:
256,192,34482,1,0,0:0:0:0:
256,192,34692,1,0,0:0:0:0:
256,192,35321,1,0,0:0:0:0:
256,192,35531,1,8,0:0:0:0:
256,192,35741,1,8,0:0:0:0:
256,192,35951,1,8,0:0:0:0:
256,192,36056,1,8,0:0:0:0:
256,192,36160,1,8,0:0:0:0:
256,192,36370,1,0,0:0:0:0:
256,192,37000,1,0,0:0:0:0:
256,192,37419,1,8,0:0:0:0:
256,192,37629,1,0,0:0:0:0:
256,192,37734,1,0,0:0:0:0:
256,192,37839,1,0,0:0:0:0:
256,192,38049,1,0,0:0:0:0:
256,192,38258,1,8,0:0:0:0:
256,192,38678,1,0,0:0:0:0:
256,192,39097,1,8,0:0:0:0:
256,192,39307,1,0,0:0:0:0:
256,192,39412,1,0,0:0:0:0:
256,192,39517,1,0,0:0:0:0:
256,192,39727,1,8,0:0:0:0:
256,192,40146,1,8,0:0:0:0:
256,192,40356,1,0,0:0:0:0:
256,192,40566,1,0,0:0:0:0:
256,192,40776,1,8,0:0:0:0:
256,192,40881,1,8,0:0:0:0:
256,192,40986,1,8,0:0:0:0:
256,192,41195,1,0,0:0:0:0:
256,192,41405,1,0,0:0:0:0:
256,192,42035,1,0,0:0:0:0:
256,192,42244,1,8,0:0:0:0:
256,192,42664,1,8,0:0:0:0:
256,192,42874,1,0,0:0:0:0:
256,192,42979,1,0,0:0:0:0:
256,192,43083,1,0,0:0:0:0:
256,192,43293,1,8,0:0:0:0:
256,192,43713,1,0,0:0:0:0:
256,192,44028,1,0,0:0:0:0:
256,192,44342,1,0,0:0:0:0:
256,192,44447,1,0,0:0:0:0:
256,192,44552,1,0,0:0:0:0:
256,192,44762,1,8,0:0:0:0:
256,192,44972,1,0,0:0:0:0:
256,192,45391,1,0,0:0:0:0:
256,192,45706,1,0,0:0:0:0:
256,192,46021,1,0,0:0:0:0:
256,192,46230,1,8,0:0:0:0:
256,192,46440,1,0,0:0:0:0:
256,192,46650,1,8,0:0:0:0:
256,192,47070,1,8,0:0:0:0:
256,192,47384,1,8,0:0:0:0:
256,192,47699,1,0,0:0:0:0:
256,192,47804,1,0,0:0:0:0:
256,192,47909,1,0,0:0:0:0:
256,192,48118,1,8,0:0:0:0:
256,192,48328,1,0,0:0:0:0:
256,192,48748,1,0,0:0:0:0:
256,192,49063,1,8,0:0:0:0:
256,192,49377,1,8,0:0:0:0:
256,192,49587,1,0,0:0:0:0:
256,192,50426,1,0,0:0:0:0:
256,192,50741,1,0,0:0:0:0:
256,192,51056,1,0,0:0:0:0:
256,192,51160,1,0,0:0:0:0:
256,192,51265,1,0,0:0:0:0:
256,192,51475,1,8,0:0:0:0:
256,192,51685,1,0,0:0:0:0:
256,192,52104,1,0,0:0:0:0:
256,192,52419,1,0,0:0:0:0:
256,192,52734,1,0,0:0:0:0:
256,192,52944,1,8,0:0:0:0:
256,192,53153,1,0,0:0:0:0:
256,192,53363,1,8,0:0:0:0:
256,192,53783,1,8,0:0:0:0:
256,192,54097,1,8,0:0:0:0:
256,192,54412,1,0,0:0:0:0:
256,192,54517,1,0,0:0:0:0:
256,192,54622,1,0,0:0:0:0:
256,192,54832,1,8,0:0:0:0:
256,192,55042,1,0,0:0:0:0:
256,192,55461,1,0,0:0:0:0:
256,192,55776,1,8,0:0:0:0:
256,192,56090,1,8,0:0:0:0:
256,192,56300,1,0,0:0:0:0:
256,192,57139,5,4,0:0:0:0:
256,192,57559,1,0,0:0:0:0:
256,192,57769,1,8,0:0:0:0:
256,192,57979,1,0,0:0:0:0:
256,192,58398,1,0,0:0:0:0:
256,192,58818,1,0,0:0:0:0:
256,192,59237,1,0,0:0:0:0:
256,192,59447,1,8,0:0:0:0:
256,192,59657,1,0,0:0:0:0:
256,192,59867,1,8,0:0:0:0:
256,192,60077,1,8,0:0:0:0:
256,192,60496,1,0,0:0:0:0:
256,192,60916,1,0,0:0:0:0:
256,192,61125,1,8,0:0:0:0:
256,192,61335,1,0,0:0:0:0:
256,192,61755,1,0,0:0:0:0:
256,192,62174,1,0,0:0:0:0:
256,192,62594,1,0,0:0:0:0:
256,192,62804,1,8,0:0:0:0:
256,192,63014,1,0,0:0:0:0:
256,192,63853,1,0,0:0:0:0:
256,192,64272,1,0,0:0:0:0:
256,192,64482,1,8,0:0:0:0:
256,192,64692,1,0,0:0:0:0:
256,192,65111,1,0,0:0:0:0:
256,192,65531,1,0,0:0:0:0:
256,192,65951,1,0,0:0:0:0:
256,192,66160,1,8,0:0:0:0:
256,192,66370,1,0,0:0:0:0:
256,192,66580,1,8,0:0:0:0:
256,192,66790,1,8,0:0:0:0:
256,192,67209,1,0,0:0:0:0:
256,192,67629,1,0,0:0:0:0:
256,192,67839,1,8,0:0:0:0:
256,192,68049,1,0,0:0:0:0:
256,192,68468,1,0,0:0:0:0:
256,192,68888,1,0,0:0:0:0:
256,192,69307,1,0,0:0:0:0:
256,192,69517,1,8,0:0:0:0:
256,192,69727,1,0,0:0:0:0:
256,192,70566,5,4,0:0:0:0:
256,192,70986,1,8,0:0:0:0:
256,192,71195,1,0,0:0:0:0:
256,192,71405,1,0,0:0:0:0:
256,192,72244,1,0,0:0:0:0:
256,192,72664,1,8,0:0:0:0:
256,192,72874,1,8,0:0:0:0:
256,192,73083,1,0,0:0:0:0:
256,192,73923,1,0,0:0:0:0:
256,192,74342,1,8,0:0:0:0:
256,192,74552,1,0,0:0:0:0:
256,192,74762,1,0,0:0:0:0:
256,192,75601,1,0,0:0:0:0:
256,192,76021,1,8,0:0:0:0:
256,192,76230,1,0,0:0:0:0:
256,192,76440,1,8,0:0:0:0:
256,192,77279,5,4,0:0:0:0:
256,192,77699,1,8,0:0:0:0:
256,192,77909,1,0,0:0:0:0:
256,192,78118,1,0,0:0:0:0:
256,192,78538,1,8,0:0:0:0:
256,192,78748,1,8,0:0:0:0:
256,192,78958,5,4,0:0:0:0:
256,192,79377,1,8,0:0:0:0:
256,192,79587,1,0,0:0:0:0:
256,192,79797,1,0,0:0:0:0:
256,192,80216,1,8,0:0:0:0:
256,192,80426,1,8,0:0:0:0:
256,192,80636,5,4,0:0:0:0:
256,192,81056,1,8,0:0:0:0:
256,192,81265,1,8,0:0:0:0:
256,192,81475,5,4,0:0:0:0:
256,192,81895,1,8,0:0:0:0:
256,192,82104,1,0,0:0:0:0:
256,192,82209,1,0,0:0:0:0:
256,192,82314,1,0,0:0:0:0:
256,192,82734,1,8,0:0:0:0:
256,192,82944,1,0,0:0:0:0:
256,192,83049,1,0,0:0:0:0:
256,192,83153,1,0,0:0:0:0:
256,192,83993,5,4,0:0:0:0:
256,192,84202,1,8,0:0:0:0:
256,192,84412,1,0,0:0:0:0:
256,192,84517,1,0,0:0:0:0:
256,192,84622,1,0,0:0:0:0:
256,192,84832,1,0,0:0:0:0:
256,192,85042,1,8,0:0:0:0:
256,192,85251,1,0,0:0:0:0:
256,192,85671,1,0,0:0:0:0:
256,192,85881,1,8,0:0:0:0:
256,192,86090,1,0,0:0:0:0:
256,192,86195,1,0,0:0:0:0:
256,192,86300,1,0,0:0:0:0:
256,192,86510,1,0,0:0:0:0:
256,192,86720,1,8,0:0:0:0:
256,192,86930,1,8,0:0:0:0:
256,192,87349,1,0,0:0:0:0:
256,192,87559,1,8,0:0:0:0:
256,192,87769,1,0,0:0:0:0:
256,192,87874,1,0,0:0:0:0:
256,192,87979,1,0,0:0:0:0:
256,192,88188,1,0,0:0:0:0:
256,192,88398,1,8,0:0:0:0:
256,192,88608,1,0,0:0:0:0:
256,192,89028,1,0,0:0:0:0:
256,192,89237,1,0,0:0:0:0:
256,192,89447,1,8,0:0:0:0:
256,192,89552,1,8,0:0:0:0:
256,192,89657,1,8,0:0:0:0:
256,192,89867,1,0,0:0:0:0:
256,192,90706,5,4,0:0:0:0:
256,192,90916,1,8,0:0:0:0:
256,192,91125,1,0,0:0:0:0:
256,192,91230,1,0,0:0:0:0:
256,192,91335,1,0,0:0:0:0:
256,192,91545,1,0,0:0:0:0:
256,192,91755,1,8,0:0:0:0:
256,192,91965,1,8,0:0:0:0:
256,192,92384,1,0,0:0:0:0:
256,192,92594,1,8,0:0:0:0:
256,192,92804,1,0,0:0:0:0:
256,192,92909,1,0,0:0:0:0:
256,192,93014,1,0,0:0:0:0:
256,192,93223,1,8,0:0:0:0:
256,192,93433,1,0,0:0:0:0:
256,192,93643,1,8,0:0:0:0:
256,192,94063,1,0,0:0:0:0:
256,192,94272,1,8,0:0:0:0:
256,192,94482,1,0,0:0:0:0:
256,192,94587,1,0,0:0:0:0:
256,192,94692,1,0,0:0:0:0:
256,192,94902,1,0,0:0:0:0:
256,192,95111,1,8,0:0:0:0:
256,192,95321,1,8,0:0:0:0:
256,192,95741,1,0,0:0:0:0:
256,192,95951,1,0,0:0:0:0:
256,192,96056,1,0,0:0:0:0:
256,192,96160,1,0,0:0:0:0:
256,192,96370,1,0,0:0:0:0:
256,192,96580,2,0,L|416:192,1,140
256,192,97419,5,4,0:0:0:0:
256,192,97839,1,0,0:0:0:0:
256,192,97944,1,0,0:0:0:0:
256,192,98049,1,0,0:0:0:0:
256,192,98258,1,0,0:0:0:0:
256,192,98468,1,8,0:0:0:0:
256,192,98678,1,0,0:0:0:0:
256,192,99097,1,0,0:0:0:0:
256,192,99517,1,0,0:0:0:0:
256,192,99622,1,0,0:0:0:0:
256,192,99727,1,0,0:0:0:0:
256,192,99937,1,0,0:0:0:0:
256,192,100146,1,8,0:0:0:0:
256,192,100356,1,8,0:0:0:0:
256,192,100776,1,8,0:0:0:0:
256,192,101195,1,8,0:0:0:0:
256,192,101300,1,8,0:0:0:0:
256,192,101405,1,8,0:0:0:0:
256,192,101615,1,0,0:0:0:0:
256,192,101825,1,8,0:0:0:0:
256,192,102035,1,0,0:0:0:0:
256,192,102454,1,0,0:0:0:0:
256,192,102874,1,8,0:0:0:0:
256,192,102979,1,8,0:0:0:0:
256,192,103083,1,8,0:0:0:0:
256,192,103293,1,8,0:0:0:0:
256,192,104132,1,0,0:0:0:0:
256,192,104552,1,0,0:0:0:0:
256,192,104657,1,0,0:0:0:0:
256,192,104762,1,0,0:0:0:0:
256,192,104972,1,0,0:0:0:0:
256,192,105181,1,0,0:0:0:0:
256,192,105391,1,8,0:0:0:0:
256,192,105811,1,0,0:0:0:0:
256,192,106230,1,0,0:0:0:0:
256,192,106335,1,0,0:0:0:0:
256,192,106440,1,0,0:0:0:0:
256,192,106650,1,0,0:0:0:0:
256,192,106860,1,8,0:0:0:0:
256,192,107070,1,8,0:0:0:0:
256,192,107489,1,8,0:0:0:0:
256,192,107909,1,8,0:0:0:0:
256,192,108014,1,8,0:0:0:0:
256,192,108118,1,8,0:0:0:0:
256,192,108328,1,0,0:0:0:0:
256,192,108538,1,0,0:0:0:0:
256,192,108748,1,8,0:0:0:0:
256,192,109167,1,0,0:0:0:0:
256,192,109587,1,8,0:0:0:0:
256,192,109692,1,8,0:0:0:0:
256,192,109797,1,8,0:0:0:0:
256,192,110007,1,8,0:0:0:0:
256,192,110846,5,4,0:0:0:0:
256,192,111056,1,0,0:0:0:0:
256,192,111265,1,8,0:0:0:0:
256,192,111475,1,0,0:0:0:0:
256,192,111580,1,0,0:0:0:0:
256,192,111685,1,0,0:0:0:0:
256,192,111895,1,0,0:0:0:0:
256,192,112104,1,8,0:0:0:0:
256,192,112524,1,0,0:0:0:0:
256,192,112734,1,0,0:0:0:0:
256,192,112944,1,8,0:0:0:0:
256,192,113153,1,0,0:0:0:0:
256,192,113258,1,0,0:0:0:0:
256,192,113363,1,0,0:0:0:0:
256,192,113573,1,0,0:0:0:0:
256,192,113783,1,8,0:0:0:0:
256,192,114202,1,0,0:0:0:0:
256,192,114412,1,0,0:0:0:0:
256,192,114622,1,8,0:0:0:0:
256,192,114832,1,8,0:0:0:0:
256,192,114937,1,8,0:0:0:0:
256,192,115042,1,8,0:0:0:0:
256,192,115251,1,8,0:0:0:0:
256,192,115461,1,0,0:0:0:0:
256,192,115881,1,0,0:0:0:0:
256,192,116300,1,8,0:0:0:0:
256,192,116405,1,8,0:0:0:0:
256,192,116510,1,8,0:0:0:0:
256,192,116720,1,8,0:0:0:0:
256,192,117559,1,0,0:0:0:0:
256,192,117769,1,0,0:0:0:0:
256,192,117979,1,8,0:0:0:0:
256,192,118188,1,0,0:0:0:0:
256,192,118293,1,0,0:0:0:0:
256,192,118398,1,0,0:0:0:0:
256,192,118608,1,0,0:0:0:0:
256,192,118818,1,8,0:0:0:0:
256,192,119237,1,0,0:0:0:0:
256,192,119447,1,0,0:0:0:0:
256,192,119657,1,8,0:0:0:0:
256,192,119867,1,0,0:0:0:0:
256,192,119972,1,0,0:0:0:0:
256,192,120077,1,0,0:0:0:0:
256,192,120286,1,0,0:0:0:0:
256,192,120496,1,8,0:0:0:0:
256,192,120916,1,0,0:0:0:0:
256,192,121125,1,0,0:0:0:0:
256,192,121335,1,8,0:0:0:0:
256,192,121545,1,8,0:0:0:0:
256,192,121650,1,8,0:0:0:0:
256,192,121755,1,8,0:0:0:0:
256,192,121965,1,8,0:0:0:0:
256,192,122174,1,0,0:0:0:0:
256,192,122594,1,0,0:0:0:0:
256,192,123014,1,8,0:0:0:0:
256,192,123118,1,8,0:0:0:0:
256,192,123223,1,8,0:0:0:0:
256,192,123433,1,8,0:0:0:0:
256,192,124272,1,0,0:0:0:0:
256,192,124377,1,0,0:0:0:0:
256,192,124482,1,0,0:0:0:0:
256,192,124692,1,0,0:0:0:0:
256,192,124902,1,0,0:0:0:0:
256,192,125007,1,0,0:0:0:0:
256,192,125111,1,0,0:0:0:0:
256,192,125321,1,0,0:0:0:0:
256,192,125531,1,8,0:0:0:0:
256,192,125951,1,8,0:0:0:0:
256,192,126056,1,8,0:0:0:0:
256,192,126160,1,8,0:0:0:0:
256,192,126370,1,8,0:0:0:0:
256,192,126580,1,8,0:0:0:0:
256,192,126685,1,8,0:0:0:0:
256,192,126790,1,8,0:0:0:0:
256,192,127000,1,8,0:0:0:0:
256,192,127209,1,0,0:0:0:0:
256,192,127629,1,0,0:0:0:0:
256,192,127734,1,0,0:0:0:0:
256,192,127839,1,0,0:0:0:0:
256,192,128049,1,8,0:0:0:0:
256,192,128258,1,0,0:0:0:0:
256,192,128363,1,0,0:0:0:0:
256,192,128468,1,0,0:0:0:0:
256,192,128678,1,8,0:0:0:0:
256,192,128888,1,0,0:0:0:0:
256,192,129307,1,0,0:0:0:0:
256,192,129727,1,8,0:0:0:0:
256,192,129832,1,8,0:0:0:0:
256,192,129937,1,8,0:0:0:0:
256,192,130146,1,8,0:0:0:0:
256,192,130986,1,0,0:0:0:0:
256,192,131090,1,0,0:0:0:0:
256,192,131195,1,0,0:0:0:0:
256,192,131405,1,0,0:0:0:0:
256,192,131615,1,0,0:0:0:0:
256,192,131720,1,0,0:0:0:0:
256,192,131825,1,0,0:0:0:0:
256,192,132035,1,0,0:0:0:0:
256,192,132244,1,8,0:0:0:0:
256,192,132664,1,8,0:0:0:0:
256,192,132769,1,8,0:0:0:0:
256,192,132874,1,8,0:0:0:0:
256,192,133083,1,8,0:0:0:0:
256,192,133293,1,8,0:0:0:0:
256,192,133398,1,8,0:0:0:0:
256,192,133503,1,8,0:0:0:0:
256,192,133713,1,8,0:0:0:0:
256,192,133923,1,0,0:0:0:0:
256,192,134342,1,0,0:0:0:0:
256,192,134447,1,0,0:0:0:0:
256,192,134552,1,0,0:0:0:0:
256,192,134762,1,8,0:0:0:0:
256,192,134972,1,0,0:0:0:0:
256,192,135077,1,0,0:0:0:0:
256,192,135181,1,0,0:0:0:0:
256,192,135391,1,8,0:0:0:0:
256,192,135601,1,0,0:0:0:0:
256,192,136021,1,0,0:0:0:0:
256,192,136440,1,8,0:0:0:0:
256,192,136545,1,8,0:0:0:0:
256,192,136650,1,8,0:0:0:0:
256,192,136860,1,8,0:0:0:0:
256,192,137699,5,4,0:0:0:0:
