osu file format v13

[General]
AudioFilename: DJ BaSSMaT - Merry Christmas.mp3
AudioLeadIn: 0
PreviewTime: 83468
Countdown: 0
SampleSet: Soft
StackLeniency: 0.3
Mode: 0
LetterboxInBreaks: 0
EpilepsyWarning: 1
WidescreenStoryboard: 1

[Editor]
Bookmarks: 16860,43713,70566,83993,137699
DistanceSpacing: 1.3
BeatDivisor: 4
GridSize: 4
TimelineZoom: 1

[Metadata]
Title:Merry Christmas
TitleUnicode:Merry Christmas
Artist:DJ BaSSMaT
ArtistUnicode:DJ BaSSMaT
Creator:Gero
Version:Easy
Source:
Tags:osuplayer111 Andrea Natsu Kurosanyan Inyuschan Irreversible -Bakari- XinCrin Collab Collaboration Techno Trance Remix
BeatmapID:545304
BeatmapSetID:234935

[Difficulty]
HPDrainRate:1.5
CircleSize:2
OverallDifficulty:1.5
ApproachRate:3
SliderMultiplier:0.8
SliderTickRate:2

[Events]
//Background and Video events
0,0,"BG.jpg",0,0
//Break Periods
2,70766,82553
//Storyboard Layer 0 (Background)
Sprite,Background,Centre,"BG.jpg",320,240 S,0,15,,0.625 F,0,15,1756,0 F,0,1756,3434,0,1 F,0,3434,57140,1 F,0,57140,58818,1,0.4864852 F,0,58818,70567,0.4864852,0.3546983 F,0,70567,82315,0.3546983 F,0,82315,83993,0.3546983,1 F,0,83993,137700,1 F,0,137700,138539,1,0 S,0,137700,138539,0.6273608,0.663716
//Storyboard Layer 1 (Fail)
//Storyboard Layer 2 (Pass)
//Storyboard Layer 3 (Foreground)
Sprite,Foreground,Centre,"SB\bright.jpg",320,240 P,0,0,138958,A S,0,15,,1 T,HitSoundFinish,0,137700 F,1,0,1200,1,0 S,1,0,1200,1,1.05
Sprite,Foreground,Centre,"SB\bright.jpg",320,240 P,0,0,57139,A S,0,15,,1 T,HitSoundWhistle,17070,23783 F,1,0,1200,0.3,0
Sprite,Foreground,Centre,"SB\bright.jpg",320,240 P,0,0,138958,A S,0,15,,1 T,HitSoundClap,23783,43503 F,1,0,1000,0.4,0 T,HitSoundClap,90077,97209 F,1,0,1000,0.4,0 T,HitSoundClap,110636,138958 F,1,0,1000,0.5,0
Sprite,Foreground,Centre,"SB\bright.jpg",320,240 P,0,0,138958,A S,0,15,,1 T,HitSoundWhistle,43503,58818 F,1,0,1200,0.3,0 T,HitSoundWhistle,83993,90077 F,1,0,1200,0.3,0
Sprite,Foreground,Centre,"SB\snowflake.png",320,240 M,1,83993,85671,-11,-12,-11,481 F,1,83993,85671,1,0 S,0,83993,85671,1 P,0,83993,85671,A
Sprite,Foreground,Centre,"SB\snowflake.png",320,240 M,1,84123,85801,328,-12,328,476 F,1,84123,85801,1,0 S,0,84123,85801,1 P,0,84123,85801,A
Sprite,Foreground,Centre,"SB\snowflake.png",320,240 M,1,84253,85931,-37,-12,-37,486 F,1,84253,85931,1,0 S,0,84253,85931,1 P,0,84253,85931,A
Sprite,Foreground,Centre,"SB\snowflake.png",320,240 M,1,84384,86062,385,-12,385,477 F,1,84384,86062,1,0 S,0,84384,86062,2 P,0,84384,86062,A
Sprite,Foreground,Centre,"SB\snowflake.png",320,240 M,1,84514,86192,133,-12,133,473 F,1,84514,86192,1,0 S,0,84514,86192,1 P,0,84514,86192,A
Sprite,Foreground,Centre,"SB\snowflake.png",320,240 M,1,84644,86322,-38,-12,-38,483 F,1,84644,86322,1,0 S,0,84644,86322,2 P,0,84644,86322,A
Sprite,Foreground,Centre,"SB\snowflake.png",320,240 M,1,84774,86452,-33,-12,-33,477 F,1,84774,86452,1,0 S,0,84774,86452,1 P,0,84774,86452,A
Sprite,Foreground,Centre,"SB\snowflake.png",320,240 M,1,84904,86582,707,-12,707,480 F,1,84904,86582,1,0 S,0,84904,86582,2 P,0,84904,86582,A
Sprite,Foreground,Centre,"SB\snowflake.png",320,240 M,1,85035,86713,201,-12,201,481 F,1,85035,86713,1,0 S,0,85035,86713,2 P,0,85035,86713,A
Sprite,Foreground,Centre,"SB\snowflake.png",320,240 M,1,85165,86843,-116,-12,-116,476 F,1,85165,86843,1,0 S,0,85165,86843,2 P,0,85165,86843,A
Sprite,Foreground,Centre,"SB\snowflake.png",320,240 M,1,85295,86973,388,-12,388,485 F,1,85295,86973,1,0 S,0,85295,86973,1 P,0,85295,86973,A
Sprite,Foreground,Centre,"SB\snowflake.png",320,240 M,1,85425,87103,580,-12,580,473 F,1,85425,87103,1,0 S,0,85425,87103,2 P,0,85425,87103,A
Sprite,Foreground,Centre,"SB\snowflake.png",320,240 M,1,85555,87233,477,-12,477,482 F,1,85555,87233,1,0 S,0,85555,87233,1 P,0,85555,87233,A
Sprite,Foreground,Centre,"SB\snowflake.png",320,240 M,1,85686,87364,340,-12,340,485 F,1,85686,87364,1,0 S,0,85686,87364,1 P,0,85686,87364,A
Sprite,Foreground,Centre,"SB\snowflake.png",320,240 M,1,85816,87494,282,-12,282,474 F,1,85816,87494,1,0 S,0,85816,87494,1 P,0,85816,87494,A
Sprite,Foreground,Centre,"SB\snowflake.png",320,240 M,1,85946,87624,552,-12,552,479 F,1,85946,87624,1,0 S,0,85946,87624,1 P,0,85946,87624,A
Sprite,Foreground,Centre,"SB\snowflake.png",320,240 M,1,86076,87754,430,-12,430,481 F,1,86076,87754,1,0 S,0,86076,87754,2 P,0,86076,87754,A
Sprite,Foreground,Centre,"SB\snowflake.png",320,240 M,1,86206,87884,230,-12,230,486 F,1,86206,87884,1,0 S,0,86206,87884,1 P,0,86206,87884,A
Sprite,Foreground,Centre,"SB\snowflake.png",320,240 M,1,86337,88015,-83,-12,-83,480 F,1,86337,88015,1,0 S,0,86337,88015,1 P,0,86337,88015,A
Sprite,Foreground,Centre,"SB\snowflake.png",320,240 M,1,86467,88145,-29,-12,-29,475 F,1,86467,88145,1,0 S,0,86467,88145,1 P,0,86467,88145,A
Sprite,Foreground,Centre,"SB\snowflake.png",320,240 M,1,86597,88275,514,-12,514,476 F,1,86597,88275,1,0 S,0,86597,88275,1 P,0,86597,88275,A
Sprite,Foreground,Centre,"SB\snowflake.png",320,240 M,1,86727,88405,436,-12,436,477 F,1,86727,88405,1,0 S,0,86727,88405,2 P,0,86727,88405,A
Sprite,Foreground,Centre,"SB\snowflake.png",320,240 M,1,86857,88535,340,-12,340,479 F,1,86857,88535,1,0 S,0,86857,88535,1 P,0,86857,88535,A
Sprite,Foreground,Centre,"SB\snowflake.png",320,240 M,1,86988,88666,750,-12,750,482 F,1,86988,88666,1,0 S,0,86988,88666,1 P,0,86988,88666,A
Sprite,Foreground,Centre,"SB\snowflake.png",320,240 M,1,87118,88796,-75,-12,-75,484 F,1,87118,88796,1,0 S,0,87118,88796,2 P,0,87118,88796,A
Sprite,Foreground,Centre,"SB\snowflake.png",320,240 M,1,87248,88926,323,-12,323,480 F,1,87248,88926,1,0 S,0,87248,88926,1 P,0,87248,88926,A
Sprite,Foreground,Centre,"SB\snowflake.png",320,240 M,1,87378,89056,187,-12,187,477 F,1,87378,89056,1,0 S,0,87378,89056,2 P,0,87378,89056,A
Sprite,Foreground,Centre,"SB\snowflake.png",320,240 M,1,87508,89186,-41,-12,-41,474 F,1,87508,89186,1,0 S,0,87508,89186,1 P,0,87508,89186,A
Sprite,Foreground,Centre,"SB\snowflake.png",320,240 M,1,87639,89317,447,-12,447,485 F,1,87639,89317,1,0 S,0,87639,89317,1 P,0,87639,89317,A
Sprite,Foreground,Centre,"SB\snowflake.png",320,240 M,1,87769,89447,700,-12,700,481 F,1,87769,89447,1,0 S,0,87769,89447,2 P,0,87769,89447,A
Sprite,Foreground,Centre,"SB\snowflake.png",320,240 M,1,87899,89577,415,-12,415,485 F,1,87899,89577,1,0 S,0,87899,89577,2 P,0,87899,89577,A
Sprite,Foreground,Centre,"SB\snowflake.png",320,240 M,1,88029,89707,272,-12,272,472 F,1,88029,89707,1,0 S,0,88029,89707,2 P,0,88029,89707,A
Sprite,Foreground,Centre,"SB\snowflake.png",320,240 M,1,88159,89837,327,-12,327,470 F,1,88159,89837,1,0 S,0,88159,89837,2 P,0,88159,89837,A
Sprite,Foreground,Centre,"SB\snowflake.png",320,240 M,1,88290,89968,595,-12,595,484 F,1,88290,89968,1,0 S,0,88290,89968,1 P,0,88290,89968,A
Sprite,Foreground,Centre,"SB\snowflake.png",320,240 M,1,88420,90098,750,-12,750,474 F,1,88420,90098,1,0 S,0,88420,90098,2 P,0,88420,90098,A
Sprite,Foreground,Centre,"SB\snowflake.png",320,240 M,1,88550,90228,721,-12,721,485 F,1,88550,90228,1,0 S,0,88550,90228,1 P,0,88550,90228,A
Sprite,Foreground,Centre,"SB\snowflake.png",320,240 M,1,88680,90358,-7,-12,-7,481 F,1,88680,90358,1,0 S,0,88680,90358,2 P,0,88680,90358,A
Sprite,Foreground,Centre,"SB\snowflake.png",320,240 M,1,88810,90488,747,-12,747,479 F,1,88810,90488,1,0 S,0,88810,90488,2 P,0,88810,90488,A
Sprite,Foreground,Centre,"SB\snowflake.png",320,240 M,1,88941,90619,637,-12,637,482 F,1,88941,90619,1,0 S,0,88941,90619,2 P,0,88941,90619,A
Sprite,Foreground,Centre,"SB\snowflake.png",320,240 M,1,89071,90749,13,-12,13,483 F,1,89071,90749,1,0 S,0,89071,90749,2 P,0,89071,90749,A
Sprite,Foreground,Centre,"SB\snowflake.png",320,240 M,1,89201,90879,343,-12,343,482 F,1,89201,90879,1,0 S,0,89201,90879,2 P,0,89201,90879,A
Sprite,Foreground,Centre,"SB\snowflake.png",320,240 M,1,89331,91009,696,-12,696,484 F,1,89331,91009,1,0 S,0,89331,91009,1 P,0,89331,91009,A
Sprite,Foreground,Centre,"SB\snowflake.png",320,240 M,1,89461,91139,599,-12,599,483 F,1,89461,91139,1,0 S,0,89461,91139,2 P,0,89461,91139,A
Sprite,Foreground,Centre,"SB\snowflake.png",320,240 M,1,89592,91270,496,-12,496,481 F,1,89592,91270,1,0 S,0,89592,91270,2 P,0,89592,91270,A
Sprite,Foreground,Centre,"SB\snowflake.png",320,240 M,1,89722,91400,406,-12,406,476 F,1,89722,91400,1,0 S,0,89722,91400,2 P,0,89722,91400,A
Sprite,Foreground,Centre,"SB\snowflake.png",320,240 M,1,89852,91530,414,-12,414,482 F,1,89852,91530,1,0 S,0,89852,91530,1 P,0,89852,91530,A
Sprite,Foreground,Centre,"SB\snowflake.png",320,240 M,1,89982,91660,735,-12,735,484 F,1,89982,91660,1,0 S,0,89982,91660,2 P,0,89982,91660,A
Sprite,Foreground,Centre,"SB\snowflake.png",320,240 M,1,90112,91790,754,-12,754,473 F,1,90112,91790,1,0 S,0,90112,91790,2 P,0,90112,91790,A
Sprite,Foreground,Centre,"SB\snowflake.png",320,240 M,1,90243,91921,723,-12,723,484 F,1,90243,91921,1,0 S,0,90243,91921,2 P,0,90243,91921,A
Sprite,Foreground,Centre,"SB\snowflake.png",320,240 M,1,90373,92051,208,-12,208,472 F,1,90373,92051,1,0 S,0,90373,92051,2 P,0,90373,92051,A
Sprite,Foreground,Centre,"SB\snowflake.png",320,240 M,1,90503,92181,262,-12,262,484 F,1,90503,92181,1,0 S,0,90503,92181,1 P,0,90503,92181,A
Sprite,Foreground,Centre,"SB\snowflake.png",320,240 M,1,90633,92311,60,-12,60,481 F,1,90633,92311,1,0 S,0,90633,92311,1 P,0,90633,92311,A
Sprite,Foreground,Centre,"SB\snowflake.png",320,240 M,1,90763,92441,-30,-12,-30,474 F,1,90763,92441,1,0 S,0,90763,92441,1 P,0,90763,92441,A
Sprite,Foreground,Centre,"SB\snowflake.png",320,240 M,1,90894,92572,269,-12,269,482 F,1,90894,92572,1,0 S,0,90894,92572,1 P,0,90894,92572,A
Sprite,Foreground,Centre,"SB\snowflake.png",320,240 M,1,91024,92702,-1,-12,-1,479 F,1,91024,92702,1,0 S,0,91024,92702,1 P,0,91024,92702,A
Sprite,Foreground,Centre,"SB\snowflake.png",320,240 M,1,91154,92832,-95,-12,-95,473 F,1,91154,92832,1,0 S,0,91154,92832,1 P,0,91154,92832,A
Sprite,Foreground,Centre,"SB\snowflake.png",320,240 M,1,91284,92962,52,-12,52,479 F,1,91284,92962,1,0 S,0,91284,92962,1 P,0,91284,92962,A
Sprite,Foreground,Centre,"SB\snowflake.png",320,240 M,1,91414,93092,733,-12,733,475 F,1,91414,93092,1,0 S,0,91414,93092,1 P,0,91414,93092,A
Sprite,Foreground,Centre,"SB\snowflake.png",320,240 M,1,91545,93223,743,-12,743,483 F,1,91545,93223,1,0 S,0,91545,93223,2 P,0,91545,93223,A
Sprite,Foreground,Centre,"SB\snowflake.png",320,240 M,1,91675,93353,321,-12,321,482 F,1,91675,93353,1,0 S,0,91675,93353,2 P,0,91675,93353,A
Sprite,Foreground,Centre,"SB\snowflake.png",320,240 M,1,91805,93483,-116,-12,-116,470 F,1,91805,93483,1,0 S,0,91805,93483,1 P,0,91805,93483,A
Sprite,Foreground,Centre,"SB\snowflake.png",320,240 M,1,91935,93613,411,-12,411,480 F,1,91935,93613,1,0 S,0,91935,93613,1 P,0,91935,93613,A
Sprite,Foreground,Centre,"SB\snowflake.png",320,240 M,1,92065,93743,603,-12,603,474 F,1,92065,93743,1,0 S,0,92065,93743,1 P,0,92065,93743,A
Sprite,Foreground,Centre,"SB\snowflake.png",320,240 M,1,92196,93874,493,-12,493,470 F,1,92196,93874,1,0 S,0,92196,93874,2 P,0,92196,93874,A
Sprite,Foreground,Centre,"SB\snowflake.png",320,240 M,1,92326,94004,313,-12,313,479 F,1,92326,94004,1,0 S,0,92326,94004,2 P,0,92326,94004,A
Sprite,Foreground,Centre,"SB\snowflake.png",320,240 M,1,92456,94134,-47,-12,-47,476 F,1,92456,94134,1,0 S,0,92456,94134,2 P,0,92456,94134,A
Sprite,Foreground,Centre,"SB\snowflake.png",320,240 M,1,92586,94264,481,-12,481,473 F,1,92586,94264,1,0 S,0,92586,94264,2 P,0,92586,94264,A
Sprite,Foreground,Centre,"SB\snowflake.png",320,240 M,1,92716,94394,411,-12,411,475 F,1,92716,94394,1,0 S,0,92716,94394,1 P,0,92716,94394,A
Sprite,Foreground,Centre,"SB\snowflake.png",320,240 M,1,92847,94525,424,-12,424,473 F,1,92847,94525,1,0 S,0,92847,94525,1 P,0,92847,94525,A
Sprite,Foreground,Centre,"SB\snowflake.png",320,240 M,1,92977,94655,350,-12,350,482 F,1,92977,94655,1,0 S,0,92977,94655,1 P,0,92977,94655,A
Sprite,Foreground,Centre,"SB\snowflake.png",320,240 M,1,93107,94785,648,-12,648,471 F,1,93107,94785,1,0 S,0,93107,94785,2 P,0,93107,94785,A
Sprite,Foreground,Centre,"SB\snowflake.png",320,240 M,1,93237,94915,304,-12,304,481 F,1,93237,94915,1,0 S,0,93237,94915,1 P,0,93237,94915,A
Sprite,Foreground,Centre,"SB\snowflake.png",320,240 M,1,93367,95045,518,-12,518,472 F,1,93367,95045,1,0 S,0,93367,95045,2 P,0,93367,95045,A
Sprite,Foreground,Centre,"SB\snowflake.png",320,240 M,1,93498,95176,671,-12,671,486 F,1,93498,95176,1,0 S,0,93498,95176,1 P,0,93498,95176,A
Sprite,Foreground,Centre,"SB\snowflake.png",320,240 M,1,93628,95306,736,-12,736,482 F,1,93628,95306,1,0 S,0,93628,95306,1 P,0,93628,95306,A
Sprite,Foreground,Centre,"SB\snowflake.png",320,240 M,1,93758,95436,329,-12,329,480 F,1,93758,95436,1,0 S,0,93758,95436,1 P,0,93758,95436,A
Sprite,Foreground,Centre,"SB\snowflake.png",320,240 M,1,93888,95566,542,-12,542,481 F,1,93888,95566,1,0 S,0,93888,95566,2 P,0,93888,95566,A
Sprite,Foreground,Centre,"SB\snowflake.png",320,240 M,1,94018,95696,222,-12,222,470 F,1,94018,95696,1,0 S,0,94018,95696,2 P,0,94018,95696,A
Sprite,Foreground,Centre,"SB\snowflake.png",320,240 M,1,94149,95827,350,-12,350,474 F,1,94149,95827,1,0 S,0,94149,95827,1 P,0,94149,95827,A
Sprite,Foreground,Centre,"SB\snowflake.png",320,240 M,1,94279,95957,488,-12,488,483 F,1,94279,95957,1,0 S,0,94279,95957,2 P,0,94279,95957,A
Sprite,Foreground,Centre,"SB\snowflake.png",320,240 M,1,94409,96087,271,-12,271,473 F,1,94409,96087,1,0 S,0,94409,96087,1 P,0,94409,96087,A
Sprite,Foreground,Centre,"SB\snowflake.png",320,240 M,1,94539,96217,303,-12,303,485 F,1,94539,96217,1,0 S,0,94539,96217,2 P,0,94539,96217,A
Sprite,Foreground,Centre,"SB\snowflake.png",320,240 M,1,94669,96347,702,-12,702,471 F,1,94669,96347,1,0 S,0,94669,96347,1 P,0,94669,96347,A
Sprite,Foreground,Centre,"SB\snowflake.png",320,240 M,1,94800,96478,626,-12,626,475 F,1,94800,96478,1,0 S,0,94800,96478,1 P,0,94800,96478,A
Sprite,Foreground,Centre,"SB\snowflake.png",320,240 M,1,94930,96608,85,-12,85,482 F,1,94930,96608,1,0 S,0,94930,96608,2 P,0,94930,96608,A
Sprite,Foreground,Centre,"SB\snowflake.png",320,240 M,1,95060,96738,87,-12,87,481 F,1,95060,96738,1,0 S,0,95060,96738,2 P,0,95060,96738,A
Sprite,Foreground,Centre,"SB\snowflake.png",320,240 M,1,95190,96868,386,-12,386,486 F,1,95190,96868,1,0 S,0,95190,96868,1 P,0,95190,96868,A
Sprite,Foreground,Centre,"SB\snowflake.png",320,240 M,1,95320,96998,364,-12,364,475 F,1,95320,96998,1,0 S,0,95320,96998,2 P,0,95320,96998,A
Sprite,Foreground,Centre,"SB\snowflake.png",320,240 M,1,95451,97129,-31,-12,-31,483 F,1,95451,97129,1,0 S,0,95451,97129,1 P,0,95451,97129,A
Sprite,Foreground,Centre,"SB\snowflake.png",320,240 M,1,95581,97259,-65,-12,-65,470 F,1,95581,97259,1,0 S,0,95581,97259,2 P,0,95581,97259,A
Sprite,Foreground,Centre,"SB\snowflake.png",320,240 M,1,95711,97389,251,-12,251,479 F,1,95711,97389,1,0 S,0,95711,97389,1 P,0,95711,97389,A
Sprite,Foreground,Centre,"SB\snowflake.png",320,240 M,1,95841,97519,186,-12,186,485 F,1,95841,97519,1,0 S,0,95841,97519,1 P,0,95841,97519,A
Sprite,Foreground,Centre,"SB\snowflake.png",320,240 M,1,95971,97649,594,-12,594,481 F,1,95971,97649,1,0 S,0,95971,97649,1 P,0,95971,97649,A
Sprite,Foreground,Centre,"SB\snowflake.png",320,240 M,1,96102,97780,613,-12,613,478 F,1,96102,97780,1,0 S,0,96102,97780,2 P,0,96102,97780,A
Sprite,Foreground,Centre,"SB\snowflake.png",320,240 M,1,96232,97910,357,-12,357,479 F,1,96232,97910,1,0 S,0,96232,97910,2 P,0,96232,97910,A
Sprite,Foreground,Centre,"SB\snowflake.png",320,240 M,1,96362,98040,164,-12,164,470 F,1,96362,98040,1,0 S,0,96362,98040,1 P,0,96362,98040,A
Sprite,Foreground,Centre,"SB\snowflake.png",320,240 M,1,96492,98170,140,-12,140,483 F,1,96492,98170,1,0 S,0,96492,98170,1 P,0,96492,98170,A
Sprite,Foreground,Centre,"SB\snowflake.png",320,240 M,1,96622,98300,392,-12,392,484 F,1,96622,98300,1,0 S,0,96622,98300,1 P,0,96622,98300,A
Sprite,Foreground,Centre,"SB\snowflake.png",320,240 M,1,96753,98431,607,-12,607,478 F,1,96753,98431,1,0 S,0,96753,98431,2 P,0,96753,98431,A
Sprite,Foreground,Centre,"SB\snowflake.png",320,240 M,1,96883,98561,639,-12,639,475 F,1,96883,98561,1,0 S,0,96883,98561,1 P,0,96883,98561,A
Sprite,Foreground,Centre,"SB\snowflake.png",320,240 M,1,97013,98691,-6,-12,-6,471 F,1,97013,98691,1,0 S,0,97013,98691,2 P,0,97013,98691,A
Sprite,Foreground,Centre,"SB\snowflake.png",320,240 M,1,97143,98821,-77,-12,-77,475 F,1,97143,98821,1,0 S,0,97143,98821,1 P,0,97143,98821,A
Sprite,Foreground,Centre,"SB\snowflake.png",320,240 M,1,97273,98951,578,-12,578,475 F,1,97273,98951,1,0 S,0,97273,98951,2 P,0,97273,98951,A
Sprite,Foreground,Centre,"SB\snowflake.png",320,240 M,1,97404,99082,604,-12,604,472 F,1,97404,99082,1,0 S,0,97404,99082,1 P,0,97404,99082,A
Sprite,Foreground,Centre,"SB\snowflake.png",320,240 M,1,97534,99212,-107,-12,-107,479 F,1,97534,99212,1,0 S,0,97534,99212,2 P,0,97534,99212,A
Sprite,Foreground,Centre,"SB\snowflake.png",320,240 M,1,97664,99342,322,-12,322,484 F,1,97664,99342,1,0 S,0,97664,99342,1 P,0,97664,99342,A
Sprite,Foreground,Centre,"SB\snowflake.png",320,240 M,1,97794,99472,544,-12,544,475 F,1,97794,99472,1,0 S,0,97794,99472,2 P,0,97794,99472,A
Sprite,Foreground,Centre,"SB\snowflake.png",320,240 M,1,97924,99602,536,-12,536,480 F,1,97924,99602,1,0 S,0,97924,99602,2 P,0,97924,99602,A
Sprite,Foreground,Centre,"SB\snowflake.png",320,240 M,1,98055,99733,126,-12,126,485 F,1,98055,99733,1,0 S,0,98055,99733,2 P,0,98055,99733,A
Sprite,Foreground,Centre,"SB\snowflake.png",320,240 M,1,98185,99863,463,-12,463,479 F,1,98185,99863,1,0 S,0,98185,99863,2 P,0,98185,99863,A
Sprite,Foreground,Centre,"SB\snowflake.png",320,240 M,1,98315,99993,232,-12,232,471 F,1,98315,99993,1,0 S,0,98315,99993,2 P,0,98315,99993,A
Sprite,Foreground,Centre,"SB\snowflake.png",320,240 M,1,98445,100123,179,-12,179,481 F,1,98445,100123,1,0 S,0,98445,100123,2 P,0,98445,100123,A
Sprite,Foreground,Centre,"SB\snowflake.png",320,240 M,1,98575,100253,241,-12,241,478 F,1,98575,100253,1,0 S,0,98575,100253,1 P,0,98575,100253,A
Sprite,Foreground,Centre,"SB\snowflake.png",320,240 M,1,98706,100384,88,-12,88,474 F,1,98706,100384,1,0 S,0,98706,100384,2 P,0,98706,100384,A
Sprite,Foreground,Centre,"SB\snowflake.png",320,240 M,1,98836,100514,502,-12,502,485 F,1,98836,100514,1,0 S,0,98836,100514,1 P,0,98836,100514,A
Sprite,Foreground,Centre,"SB\snowflake.png",320,240 M,1,98966,100644,438,-12,438,476 F,1,98966,100644,1,0 S,0,98966,100644,2 P,0,98966,100644,A
Sprite,Foreground,Centre,"SB\snowflake.png",320,240 M,1,99096,100774,177,-12,177,485 F,1,99096,100774,1,0 S,0,99096,100774,1 P,0,99096,100774,A
Sprite,Foreground,Centre,"SB\snowflake.png",320,240 M,1,99226,100904,433,-12,433,480 F,1,99226,100904,1,0 S,0,99226,100904,1 P,0,99226,100904,A
Sprite,Foreground,Centre,"SB\snowflake.png",320,240 M,1,99357,101035,-117,-12,-117,471 F,1,99357,101035,1,0 S,0,99357,101035,1 P,0,99357,101035,A
Sprite,Foreground,Centre,"SB\snowflake.png",320,240 M,1,99487,101165,246,-12,246,480 F,1,99487,101165,1,0 S,0,99487,101165,2 P,0,99487,101165,A
Sprite,Foreground,Centre,"SB\snowflake.png",320,240 M,1,99617,101295,233,-12,233,476 F,1,99617,101295,1,0 S,0,99617,101295,1 P,0,99617,101295,A
Sprite,Foreground,Centre,"SB\snowflake.png",320,240 M,1,99747,101425,543,-12,543,477 F,1,99747,101425,1,0 S,0,99747,101425,1 P,0,99747,101425,A
Sprite,Foreground,Centre,"SB\snowflake.png",320,240 M,1,99877,101555,-103,-12,-103,470 F,1,99877,101555,1,0 S,0,99877,101555,2 P,0,99877,101555,A
Sprite,Foreground,Centre,"SB\snowflake.png",320,240 M,1,100008,101686,619,-12,619,478 F,1,100008,101686,1,0 S,0,100008,101686,1 P,0,100008,101686,A
Sprite,Foreground,Centre,"SB\snowflake.png",320,240 M,1,100138,101816,236,-12,236,474 F,1,100138,101816,1,0 S,0,100138,101816,2 P,0,100138,101816,A
Sprite,Foreground,Centre,"SB\snowflake.png",320,240 M,1,100268,101946,-67,-12,-67,475 F,1,100268,101946,1,0 S,0,100268,101946,1 P,0,100268,101946,A
Sprite,Foreground,Centre,"SB\snowflake.png",320,240 M,1,100398,102076,547,-12,547,474 F,1,100398,102076,1,0 S,0,100398,102076,2 P,0,100398,102076,A
Sprite,Foreground,Centre,"SB\snowflake.png",320,240 M,1,100528,102206,352,-12,352,473 F,1,100528,102206,1,0 S,0,100528,102206,1 P,0,100528,102206,A
Sprite,Foreground,Centre,"SB\snowflake.png",320,240 M,1,100659,102337,476,-12,476,484 F,1,100659,102337,1,0 S,0,100659,102337,2 P,0,100659,102337,A
Sprite,Foreground,Centre,"SB\snowflake.png",320,240 M,1,100789,102467,326,-12,326,475 F,1,100789,102467,1,0 S,0,100789,102467,1 P,0,100789,102467,A
Sprite,Foreground,Centre,"SB\snowflake.png",320,240 M,1,100919,102597,388,-12,388,482 F,1,100919,102597,1,0 S,0,100919,102597,2 P,0,100919,102597,A
Sprite,Foreground,Centre,"SB\snowflake.png",320,240 M,1,101049,102727,651,-12,651,476 F,1,101049,102727,1,0 S,0,101049,102727,2 P,0,101049,102727,A
Sprite,Foreground,Centre,"SB\snowflake.png",320,240 M,1,101179,102857,673,-12,673,470 F,1,101179,102857,1,0 S,0,101179,102857,2 P,0,101179,102857,A
Sprite,Foreground,Centre,"SB\snowflake.png",320,240 M,1,101310,102988,243,-12,243,485 F,1,101310,102988,1,0 S,0,101310,102988,2 P,0,101310,102988,A
Sprite,Foreground,Centre,"SB\snowflake.png",320,240 M,1,101440,103118,186,-12,186,473 F,1,101440,103118,1,0 S,0,101440,103118,1 P,0,101440,103118,A
Sprite,Foreground,Centre,"SB\snowflake.png",320,240 M,1,101570,103248,210,-12,210,479 F,1,101570,103248,1,0 S,0,101570,103248,1 P,0,101570,103248,A
Sprite,Foreground,Centre,"SB\snowflake.png",320,240 M,1,101700,103378,190,-12,190,475 F,1,101700,103378,1,0 S,0,101700,103378,2 P,0,101700,103378,A
Sprite,Foreground,Centre,"SB\snowflake.png",320,240 M,1,101830,103508,594,-12,594,472 F,1,101830,103508,1,0 S,0,101830,103508,2 P,0,101830,103508,A
Sprite,Foreground,Centre,"SB\snowflake.png",320,240 M,1,101961,103639,165,-12,165,483 F,1,101961,103639,1,0 S,0,101961,103639,2 P,0,101961,103639,A
Sprite,Foreground,Centre,"SB\snowflake.png",320,240 M,1,102091,103769,37,-12,37,481 F,1,102091,103769,1,0 S,0,102091,103769,1 P,0,102091,103769,A
Sprite,Foreground,Centre,"SB\snowflake.png",320,240 M,1,102221,103899,432,-12,432,475 F,1,102221,103899,1,0 S,0,102221,103899,2 P,0,102221,103899,A
Sprite,Foreground,Centre,"SB\snowflake.png",320,240 M,1,102351,104029,493,-12,493,471 F,1,102351,104029,1,0 S,0,102351,104029,1 P,0,102351,104029,A
Sprite,Foreground,Centre,"SB\snowflake.png",320,240 M,1,102481,104159,561,-12,561,481 F,1,102481,104159,1,0 S,0,102481,104159,2 P,0,102481,104159,A
Sprite,Foreground,Centre,"SB\snowflake.png",320,240 M,1,102612,104290,633,-12,633,471 F,1,102612,104290,1,0 S,0,102612,104290,1 P,0,102612,104290,A
Sprite,Foreground,Centre,"SB\snowflake.png",320,240 M,1,102742,104420,105,-12,105,470 F,1,102742,104420,1,0 S,0,102742,104420,1 P,0,102742,104420,A
Sprite,Foreground,Centre,"SB\snowflake.png",320,240 M,1,102872,104550,203,-12,203,484 F,1,102872,104550,1,0 S,0,102872,104550,1 P,0,102872,104550,A
Sprite,Foreground,Centre,"SB\snowflake.png",320,240 M,1,103002,104680,716,-12,716,479 F,1,103002,104680,1,0 S,0,103002,104680,1 P,0,103002,104680,A
Sprite,Foreground,Centre,"SB\snowflake.png",320,240 M,1,103132,104810,104,-12,104,476 F,1,103132,104810,1,0 S,0,103132,104810,1 P,0,103132,104810,A
Sprite,Foreground,Centre,"SB\snowflake.png",320,240 M,1,103263,104941,745,-12,745,475 F,1,103263,104941,1,0 S,0,103263,104941,2 P,0,103263,104941,A
Sprite,Foreground,Centre,"SB\snowflake.png",320,240 M,1,103393,105071,411,-12,411,486 F,1,103393,105071,1,0 S,0,103393,105071,2 P,0,103393,105071,A
Sprite,Foreground,Centre,"SB\snowflake.png",320,240 M,1,103523,105201,396,-12,396,484 F,1,103523,105201,1,0 S,0,103523,105201,2 P,0,103523,105201,A
Sprite,Foreground,Centre,"SB\snowflake.png",320,240 M,1,103653,105331,220,-12,220,471 F,1,103653,105331,1,0 S,0,103653,105331,2 P,0,103653,105331,A
Sprite,Foreground,Centre,"SB\snowflake.png",320,240 M,1,103783,105461,377,-12,377,473 F,1,103783,105461,1,0 S,0,103783,105461,2 P,0,103783,105461,A
Sprite,Foreground,Centre,"SB\snowflake.png",320,240 M,1,103914,105592,1,-12,1,481 F,1,103914,105592,1,0 S,0,103914,105592,2 P,0,103914,105592,A
Sprite,Foreground,Centre,"SB\snowflake.png",320,240 M,1,104044,105722,664,-12,664,483 F,1,104044,105722,1,0 S,0,104044,105722,1 P,0,104044,105722,A
Sprite,Foreground,Centre,"SB\snowflake.png",320,240 M,1,104174,105852,105,-12,105,475 F,1,104174,105852,1,0 S,0,104174,105852,2 P,0,104174,105852,A
Sprite,Foreground,Centre,"SB\snowflake.png",320,240 M,1,104304,105982,-28,-12,-28,481 F,1,104304,105982,1,0 S,0,104304,105982,2 P,0,104304,105982,A
Sprite,Foreground,Centre,"SB\snowflake.png",320,240 M,1,104434,106112,726,-12,726,483 F,1,104434,106112,1,0 S,0,104434,106112,1 P,0,104434,106112,A
Sprite,Foreground,Centre,"SB\snowflake.png",320,240 M,1,104565,106243,-21,-12,-21,476 F,1,104565,106243,1,0 S,0,104565,106243,1 P,0,104565,106243,A
Sprite,Foreground,Centre,"SB\snowflake.png",320,240 M,1,104695,106373,698,-12,698,478 F,1,104695,106373,1,0 S,0,104695,106373,2 P,0,104695,106373,A
Sprite,Foreground,Centre,"SB\snowflake.png",320,240 M,1,104825,106503,543,-12,543,486 F,1,104825,106503,1,0 S,0,104825,106503,1 P,0,104825,106503,A
Sprite,Foreground,Centre,"SB\snowflake.png",320,240 M,1,104955,106633,510,-12,510,477 F,1,104955,106633,1,0 S,0,104955,106633,1 P,0,104955,106633,A
Sprite,Foreground,Centre,"SB\snowflake.png",320,240 M,1,105085,106763,64,-12,64,479 F,1,105085,106763,1,0 S,0,105085,106763,2 P,0,105085,106763,A
Sprite,Foreground,Centre,"SB\snowflake.png",320,240 M,1,105216,106894,677,-12,677,479 F,1,105216,106894,1,0 S,0,105216,106894,2 P,0,105216,106894,A
Sprite,Foreground,Centre,"SB\snowflake.png",320,240 M,1,105346,107024,413,-12,413,482 F,1,105346,107024,1,0 S,0,105346,107024,2 P,0,105346,107024,A
Sprite,Foreground,Centre,"SB\snowflake.png",320,240 M,1,105476,107154,619,-12,619,481 F,1,105476,107154,1,0 S,0,105476,107154,1 P,0,105476,107154,A
Sprite,Foreground,Centre,"SB\snowflake.png",320,240 M,1,105606,107284,411,-12,411,473 F,1,105606,107284,1,0 S,0,105606,107284,2 P,0,105606,107284,A
Sprite,Foreground,Centre,"SB\snowflake.png",320,240 M,1,105736,107414,-88,-12,-88,480 F,1,105736,107414,1,0 S,0,105736,107414,2 P,0,105736,107414,A
Sprite,Foreground,Centre,"SB\snowflake.png",320,240 M,1,105867,107545,141,-12,141,478 F,1,105867,107545,1,0 S,0,105867,107545,2 P,0,105867,107545,A
Sprite,Foreground,Centre,"SB\snowflake.png",320,240 M,1,105997,107675,-24,-12,-24,476 F,1,105997,107675,1,0 S,0,105997,107675,1 P,0,105997,107675,A
Sprite,Foreground,Centre,"SB\snowflake.png",320,240 M,1,106127,107805,544,-12,544,485 F,1,106127,107805,1,0 S,0,106127,107805,2 P,0,106127,107805,A
Sprite,Foreground,Centre,"SB\snowflake.png",320,240 M,1,106257,107935,515,-12,515,477 F,1,106257,107935,1,0 S,0,106257,107935,1 P,0,106257,107935,A
Sprite,Foreground,Centre,"SB\snowflake.png",320,240 M,1,106387,108065,521,-12,521,473 F,1,106387,108065,1,0 S,0,106387,108065,1 P,0,106387,108065,A
Sprite,Foreground,Centre,"SB\snowflake.png",320,240 M,1,106518,108196,203,-12,203,481 F,1,106518,108196,1,0 S,0,106518,108196,1 P,0,106518,108196,A
Sprite,Foreground,Centre,"SB\snowflake.png",320,240 M,1,106648,108326,529,-12,529,472 F,1,106648,108326,1,0 S,0,106648,108326,1 P,0,106648,108326,A
Sprite,Foreground,Centre,"SB\snowflake.png",320,240 M,1,106778,108456,-4,-12,-4,476 F,1,106778,108456,1,0 S,0,106778,108456,1 P,0,106778,108456,A
Sprite,Foreground,Centre,"SB\snowflake.png",320,240 M,1,106908,108586,-63,-12,-63,470 F,1,106908,108586,1,0 S,0,106908,108586,1 P,0,106908,108586,A
Sprite,Foreground,Centre,"SB\snowflake.png",320,240 M,1,107038,108716,484,-12,484,486 F,1,107038,108716,1,0 S,0,107038,108716,1 P,0,107038,108716,A
Sprite,Foreground,Centre,"SB\snowflake.png",320,240 M,1,107169,108847,145,-12,145,481 F,1,107169,108847,1,0 S,0,107169,108847,2 P,0,107169,108847,A
Sprite,Foreground,Centre,"SB\snowflake.png",320,240 M,1,107299,108977,203,-12,203,481 F,1,107299,108977,1,0 S,0,107299,108977,1 P,0,107299,108977,A
Sprite,Foreground,Centre,"SB\snowflake.png",320,240 M,1,107429,109107,681,-12,681,480 F,1,107429,109107,1,0 S,0,107429,109107,1 P,0,107429,109107,A
Sprite,Foreground,Centre,"SB\snowflake.png",320,240 M,1,107559,109237,21,-12,21,472 F,1,107559,109237,1,0 S,0,107559,109237,1 P,0,107559,109237,A
Sprite,Foreground,Centre,"SB\snowflake.png",320,240 M,1,107689,109367,411,-12,411,477 F,1,107689,109367,1,0 S,0,107689,109367,2 P,0,107689,109367,A
Sprite,Foreground,Centre,"SB\snowflake.png",320,240 M,1,107820,109498,128,-12,128,473 F,1,107820,109498,1,0 S,0,107820,109498,1 P,0,107820,109498,A
Sprite,Foreground,Centre,"SB\snowflake.png",320,240 M,1,107950,109628,267,-12,267,481 F,1,107950,109628,1,0 S,0,107950,109628,1 P,0,107950,109628,A
Sprite,Foreground,Centre,"SB\snowflake.png",320,240 M,1,108080,109758,326,-12,326,475 F,1,108080,109758,1,0 S,0,108080,109758,1 P,0,108080,109758,A
Sprite,Foreground,Centre,"SB\snowflake.png",320,240 M,1,108210,109888,270,-12,270,474 F,1,108210,109888,1,0 S,0,108210,109888,1 P,0,108210,109888,A
Sprite,Foreground,Centre,"SB\snowflake.png",320,240 M,1,108340,110018,-25,-12,-25,470 F,1,108340,110018,1,0 S,0,108340,110018,1 P,0,108340,110018,A
Sprite,Foreground,Centre,"SB\snowflake.png",320,240 M,1,108471,110149,221,-12,221,475 F,1,108471,110149,1,0 S,0,108471,110149,1 P,0,108471,110149,A
Sprite,Foreground,Centre,"SB\snowflake.png",320,240 M,1,108601,110279,720,-12,720,481 F,1,108601,110279,1,0 S,0,108601,110279,1 P,0,108601,110279,A
Sprite,Foreground,Centre,"SB\snowflake.png",320,240 M,1,108731,110409,542,-12,542,482 F,1,108731,110409,1,0 S,0,108731,110409,1 P,0,108731,110409,A
Sprite,Foreground,Centre,"SB\snowflake.png",320,240 M,1,108861,110539,382,-12,382,486 F,1,108861,110539,1,0 S,0,108861,110539,1 P,0,108861,110539,A
Sprite,Foreground,Centre,"SB\snowflake.png",320,240 M,1,108991,110669,-29,-12,-29,470 F,1,108991,110669,1,0 S,0,108991,110669,2 P,0,108991,110669,A
Sprite,Foreground,Centre,"SB\snowflake.png",320,240 M,1,109122,110800,743,-12,743,478 F,1,109122,110800,1,0 S,0,109122,110800,2 P,0,109122,110800,A
Sprite,Foreground,Centre,"SB\snowflake.png",320,240 M,1,109252,110930,720,-12,720,472 F,1,109252,110930,1,0 S,0,109252,110930,2 P,0,109252,110930,A
Sprite,Foreground,Centre,"SB\snowflake.png",320,240 M,1,109382,111060,613,-12,613,471 F,1,109382,111060,1,0 S,0,109382,111060,1 P,0,109382,111060,A
Sprite,Foreground,Centre,"SB\snowflake.png",320,240 M,1,109512,111190,133,-12,133,477 F,1,109512,111190,1,0 S,0,109512,111190,2 P,0,109512,111190,A
Sprite,Foreground,Centre,"SB\snowflake.png",320,240 M,1,109642,111320,195,-12,195,474 F,1,109642,111320,1,0 S,0,109642,111320,2 P,0,109642,111320,A
Sprite,Foreground,Centre,"SB\snowflake.png",320,240 M,1,109773,111451,221,-12,221,470 F,1,109773,111451,1,0 S,0,109773,111451,2 P,0,109773,111451,A
Sprite,Foreground,Centre,"SB\snowflake.png",320,240 M,1,109903,111581,389,-12,389,471 F,1,109903,111581,1,0 S,0,109903,111581,2 P,0,109903,111581,A
Sprite,Foreground,Centre,"SB\snowflake.png",320,240 M,1,110033,111711,638,-12,638,477 F,1,110033,111711,1,0 S,0,110033,111711,2 P,0,110033,111711,A
Sprite,Foreground,Centre,"SB\snowflake.png",320,240 M,1,110163,111841,569,-12,569,482 F,1,110163,111841,1,0 S,0,110163,111841,2 P,0,110163,111841,A
Sprite,Foreground,Centre,"SB\snowflake.png",320,240 M,1,110293,111971,254,-12,254,483 F,1,110293,111971,1,0 S,0,110293,111971,2 P,0,110293,111971,A
Sprite,Foreground,Centre,"SB\snowflake.png",320,240 M,1,110424,112102,531,-12,531,482 F,1,110424,112102,1,0 S,0,110424,112102,1 P,0,110424,112102,A
Sprite,Foreground,Centre,"SB\snowflake.png",320,240 M,1,110554,112232,120,-12,120,480 F,1,110554,112232,1,0 S,0,110554,112232,1 P,0,110554,112232,A
Sprite,Foreground,Centre,"SB\snowflake.png",320,240 M,1,110684,112362,566,-12,566,474 F,1,110684,112362,1,0 S,0,110684,112362,1 P,0,110684,112362,A
Sprite,Foreground,Centre,"SB\snowflake.png",320,240 M,1,110814,112492,630,-12,630,483 F,1,110814,112492,1,0 S,0,110814,112492,2 P,0,110814,112492,A
Sprite,Foreground,Centre,"SB\snowflake.png",320,240 M,1,110944,112622,68,-12,68,480 F,1,110944,112622,1,0 S,0,110944,112622,2 P,0,110944,112622,A
Sprite,Foreground,Centre,"SB\snowflake.png",320,240 M,1,111075,112753,78,-12,78,477 F,1,111075,112753,1,0 S,0,111075,112753,1 P,0,111075,112753,A
Sprite,Foreground,Centre,"SB\snowflake.png",320,240 M,1,111205,112883,317,-12,317,480 F,1,111205,112883,1,0 S,0,111205,112883,1 P,0,111205,112883,A
Sprite,Foreground,Centre,"SB\snowflake.png",320,240 M,1,111335,113013,656,-12,656,483 F,1,111335,113013,1,0 S,0,111335,113013,2 P,0,111335,113013,A
Sprite,Foreground,Centre,"SB\snowflake.png",320,240 M,1,111465,113143,714,-12,714,484 F,1,111465,113143,1,0 S,0,111465,113143,1 P,0,111465,113143,A
Sprite,Foreground,Centre,"SB\snowflake.png",320,240 M,1,111595,113273,-101,-12,-101,474 F,1,111595,113273,1,0 S,0,111595,113273,1 P,0,111595,113273,A
Sprite,Foreground,Centre,"SB\snowflake.png",320,240 M,1,111726,113404,237,-12,237,476 F,1,111726,113404,1,0 S,0,111726,113404,1 P,0,111726,113404,A
Sprite,Foreground,Centre,"SB\snowflake.png",320,240 M,1,111856,113534,147,-12,147,476 F,1,111856,113534,1,0 S,0,111856,113534,2 P,0,111856,113534,A
Sprite,Foreground,Centre,"SB\snowflake.png",320,240 M,1,111986,113664,511,-12,511,477 F,1,111986,113664,1,0 S,0,111986,113664,1 P,0,111986,113664,A
Sprite,Foreground,Centre,"SB\snowflake.png",320,240 M,1,112116,113794,417,-12,417,481 F,1,112116,113794,1,0 S,0,112116,113794,2 P,0,112116,113794,A
Sprite,Foreground,Centre,"SB\snowflake.png",320,240 M,1,112246,113924,576,-12,576,473 F,1,112246,113924,1,0 S,0,112246,113924,2 P,0,112246,113924,A
Sprite,Foreground,Centre,"SB\snowflake.png",320,240 M,1,112377,114055,115,-12,115,486 F,1,112377,114055,1,0 S,0,112377,114055,2 P,0,112377,114055,A
Sprite,Foreground,Centre,"SB\snowflake.png",320,240 M,1,112507,114185,603,-12,603,472 F,1,112507,114185,1,0 S,0,112507,114185,2 P,0,112507,114185,A
Sprite,Foreground,Centre,"SB\snowflake.png",320,240 M,1,112637,114315,150,-12,150,481 F,1,112637,114315,1,0 S,0,112637,114315,2 P,0,112637,114315,A
Sprite,Foreground,Centre,"SB\snowflake.png",320,240 M,1,112767,114445,9,-12,9,485 F,1,112767,114445,1,0 S,0,112767,114445,2 P,0,112767,114445,A
Sprite,Foreground,Centre,"SB\snowflake.png",320,240 M,1,112897,114575,665,-12,665,475 F,1,112897,114575,1,0 S,0,112897,114575,1 P,0,112897,114575,A
Sprite,Foreground,Centre,"SB\snowflake.png",320,240 M,1,113028,114706,550,-12,550,486 F,1,113028,114706,1,0 S,0,113028,114706,2 P,0,113028,114706,A
Sprite,Foreground,Centre,"SB\snowflake.png",320,240 M,1,113158,114836,-111,-12,-111,472 F,1,113158,114836,1,0 S,0,113158,114836,1 P,0,113158,114836,A
Sprite,Foreground,Centre,"SB\snowflake.png",320,240 M,1,113288,114966,264,-12,264,472 F,1,113288,114966,1,0 S,0,113288,114966,2 P,0,113288,114966,A
Sprite,Foreground,Centre,"SB\snowflake.png",320,240 M,1,113418,115096,99,-12,99,475 F,1,113418,115096,1,0 S,0,113418,115096,2 P,0,113418,115096,A
Sprite,Foreground,Centre,"SB\snowflake.png",320,240 M,1,113548,115226,733,-12,733,479 F,1,113548,115226,1,0 S,0,113548,115226,2 P,0,113548,115226,A
Sprite,Foreground,Centre,"SB\snowflake.png",320,240 M,1,113679,115357,736,-12,736,483 F,1,113679,115357,1,0 S,0,113679,115357,1 P,0,113679,115357,A
Sprite,Foreground,Centre,"SB\snowflake.png",320,240 M,1,113809,115487,400,-12,400,477 F,1,113809,115487,1,0 S,0,113809,115487,2 P,0,113809,115487,A
Sprite,Foreground,Centre,"SB\snowflake.png",320,240 M,1,113939,115617,672,-12,672,480 F,1,113939,115617,1,0 S,0,113939,115617,1 P,0,113939,115617,A
Sprite,Foreground,Centre,"SB\snowflake.png",320,240 M,1,114069,115747,-7,-12,-7,478 F,1,114069,115747,1,0 S,0,114069,115747,1 P,0,114069,115747,A
Sprite,Foreground,Centre,"SB\snowflake.png",320,240 M,1,114199,115877,491,-12,491,481 F,1,114199,115877,1,0 S,0,114199,115877,1 P,0,114199,115877,A
Sprite,Foreground,Centre,"SB\snowflake.png",320,240 M,1,114330,116008,316,-12,316,483 F,1,114330,116008,1,0 S,0,114330,116008,2 P,0,114330,116008,A
Sprite,Foreground,Centre,"SB\snowflake.png",320,240 M,1,114460,116138,-6,-12,-6,484 F,1,114460,116138,1,0 S,0,114460,116138,2 P,0,114460,116138,A
Sprite,Foreground,Centre,"SB\snowflake.png",320,240 M,1,114590,116268,485,-12,485,474 F,1,114590,116268,1,0 S,0,114590,116268,2 P,0,114590,116268,A
Sprite,Foreground,Centre,"SB\snowflake.png",320,240 M,1,114720,116398,-48,-12,-48,482 F,1,114720,116398,1,0 S,0,114720,116398,2 P,0,114720,116398,A
Sprite,Foreground,Centre,"SB\snowflake.png",320,240 M,1,114850,116528,618,-12,618,471 F,1,114850,116528,1,0 S,0,114850,116528,2 P,0,114850,116528,A
Sprite,Foreground,Centre,"SB\snowflake.png",320,240 M,1,114981,116659,595,-12,595,470 F,1,114981,116659,1,0 S,0,114981,116659,1 P,0,114981,116659,A
Sprite,Foreground,Centre,"SB\snowflake.png",320,240 M,1,115111,116789,-28,-12,-28,482 F,1,115111,116789,1,0 S,0,115111,116789,1 P,0,115111,116789,A
Sprite,Foreground,Centre,"SB\snowflake.png",320,240 M,1,115241,116919,-40,-12,-40,480 F,1,115241,116919,1,0 S,0,115241,116919,1 P,0,115241,116919,A
Sprite,Foreground,Centre,"SB\snowflake.png",320,240 M,1,115371,117049,644,-12,644,479 F,1,115371,117049,1,0 S,0,115371,117049,2 P,0,115371,117049,A
Sprite,Foreground,Centre,"SB\snowflake.png",320,240 M,1,115501,117179,199,-12,199,475 F,1,115501,117179,1,0 S,0,115501,117179,2 P,0,115501,117179,A
Sprite,Foreground,Centre,"SB\snowflake.png",320,240 M,1,115632,117310,455,-12,455,482 F,1,115632,117310,1,0 S,0,115632,117310,2 P,0,115632,117310,A
Sprite,Foreground,Centre,"SB\snowflake.png",320,240 M,1,115762,117440,267,-12,267,481 F,1,115762,117440,1,0 S,0,115762,117440,2 P,0,115762,117440,A
Sprite,Foreground,Centre,"SB\snowflake.png",320,240 M,1,115892,117570,357,-12,357,470 F,1,115892,117570,1,0 S,0,115892,117570,2 P,0,115892,117570,A
Sprite,Foreground,Centre,"SB\snowflake.png",320,240 M,1,116022,117700,530,-12,530,475 F,1,116022,117700,1,0 S,0,116022,117700,1 P,0,116022,117700,A
Sprite,Foreground,Centre,"SB\snowflake.png",320,240 M,1,116152,117830,341,-12,341,484 F,1,116152,117830,1,0 S,0,116152,117830,2 P,0,116152,117830,A
Sprite,Foreground,Centre,"SB\snowflake.png",320,240 M,1,116283,117961,510,-12,510,480 F,1,116283,117961,1,0 S,0,116283,117961,1 P,0,116283,117961,A
Sprite,Foreground,Centre,"SB\snowflake.png",320,240 M,1,116413,118091,362,-12,362,483 F,1,116413,118091,1,0 S,0,116413,118091,1 P,0,116413,118091,A
Sprite,Foreground,Centre,"SB\snowflake.png",320,240 M,1,116543,118221,267,-12,267,486 F,1,116543,118221,1,0 S,0,116543,118221,2 P,0,116543,118221,A
Sprite,Foreground,Centre,"SB\snowflake.png",320,240 M,1,116673,118351,689,-12,689,478 F,1,116673,118351,1,0 S,0,116673,118351,1 P,0,116673,118351,A
Sprite,Foreground,Centre,"SB\snowflake.png",320,240 M,1,116803,118481,0,-12,0,486 F,1,116803,118481,1,0 S,0,116803,118481,1 P,0,116803,118481,A
Sprite,Foreground,Centre,"SB\snowflake.png",320,240 M,1,116934,118612,114,-12,114,485 F,1,116934,118612,1,0 S,0,116934,118612,1 P,0,116934,118612,A
Sprite,Foreground,Centre,"SB\snowflake.png",320,240 M,1,117064,118742,687,-12,687,471 F,1,117064,118742,1,0 S,0,117064,118742,1 P,0,117064,118742,A
Sprite,Foreground,Centre,"SB\snowflake.png",320,240 M,1,117194,118872,750,-12,750,484 F,1,117194,118872,1,0 S,0,117194,118872,1 P,0,117194,118872,A
Sprite,Foreground,Centre,"SB\snowflake.png",320,240 M,1,117324,119002,215,-12,215,478 F,1,117324,119002,1,0 S,0,117324,119002,1 P,0,117324,119002,A
Sprite,Foreground,Centre,"SB\snowflake.png",320,240 M,1,117454,119132,-114,-12,-114,484 F,1,117454,119132,1,0 S,0,117454,119132,1 P,0,117454,119132,A
Sprite,Foreground,Centre,"SB\snowflake.png",320,240 M,1,117585,119263,282,-12,282,483 F,1,117585,119263,1,0 S,0,117585,119263,2 P,0,117585,119263,A
Sprite,Foreground,Centre,"SB\snowflake.png",320,240 M,1,117715,119393,559,-12,559,483 F,1,117715,119393,1,0 S,0,117715,119393,1 P,0,117715,119393,A
Sprite,Foreground,Centre,"SB\snowflake.png",320,240 M,1,117845,119523,717,-12,717,479 F,1,117845,119523,1,0 S,0,117845,119523,2 P,0,117845,119523,A
Sprite,Foreground,Centre,"SB\snowflake.png",320,240 M,1,117559,119237,334,-12,292,480 F,1,117559,119237,1,0 S,0,117559,119237,1 P,0,117559,119237,A
Sprite,Foreground,Centre,"SB\snowflake.png",320,240 M,1,117689,119367,296,-12,110,476 F,1,117689,119367,1,0 S,0,117689,119367,1 P,0,117689,119367,A
Sprite,Foreground,Centre,"SB\snowflake.png",320,240 M,1,117819,119497,268,-12,-60,475 F,1,117819,119497,1,0 S,0,117819,119497,1 P,0,117819,119497,A
Sprite,Foreground,Centre,"SB\snowflake.png",320,240 M,1,117950,119628,714,-12,430,477 F,1,117950,119628,1,0 S,0,117950,119628,2 P,0,117950,119628,A
Sprite,Foreground,Centre,"SB\snowflake.png",320,240 M,1,118080,119758,597,-12,651,470 F,1,118080,119758,1,0 S,0,118080,119758,1 P,0,118080,119758,A
Sprite,Foreground,Centre,"SB\snowflake.png",320,240 M,1,118210,119888,233,-12,624,482 F,1,118210,119888,1,0 S,0,118210,119888,1 P,0,118210,119888,A
Sprite,Foreground,Centre,"SB\snowflake.png",320,240 M,1,118340,120018,-17,-12,430,481 F,1,118340,120018,1,0 S,0,118340,120018,2 P,0,118340,120018,A
Sprite,Foreground,Centre,"SB\snowflake.png",320,240 M,1,118470,120148,168,-12,346,479 F,1,118470,120148,1,0 S,0,118470,120148,2 P,0,118470,120148,A
Sprite,Foreground,Centre,"SB\snowflake.png",320,240 M,1,118601,120279,237,-12,674,471 F,1,118601,120279,1,0 S,0,118601,120279,2 P,0,118601,120279,A
Sprite,Foreground,Centre,"SB\snowflake.png",320,240 M,1,118731,120409,320,-12,728,483 F,1,118731,120409,1,0 S,0,118731,120409,2 P,0,118731,120409,A
Sprite,Foreground,Centre,"SB\snowflake.png",320,240 M,1,118861,120539,424,-12,541,482 F,1,118861,120539,1,0 S,0,118861,120539,1 P,0,118861,120539,A
Sprite,Foreground,Centre,"SB\snowflake.png",320,240 M,1,118991,120669,438,-12,261,484 F,1,118991,120669,1,0 S,0,118991,120669,2 P,0,118991,120669,A
Sprite,Foreground,Centre,"SB\snowflake.png",320,240 M,1,119121,120799,426,-12,341,484 F,1,119121,120799,1,0 S,0,119121,120799,2 P,0,119121,120799,A
Sprite,Foreground,Centre,"SB\snowflake.png",320,240 M,1,119252,120930,593,-12,219,478 F,1,119252,120930,1,0 S,0,119252,120930,2 P,0,119252,120930,A
Sprite,Foreground,Centre,"SB\snowflake.png",320,240 M,1,119382,121060,251,-12,-44,478 F,1,119382,121060,1,0 S,0,119382,121060,1 P,0,119382,121060,A
Sprite,Foreground,Centre,"SB\snowflake.png",320,240 M,1,119512,121190,678,-12,564,482 F,1,119512,121190,1,0 S,0,119512,121190,2 P,0,119512,121190,A
Sprite,Foreground,Centre,"SB\snowflake.png",320,240 M,1,119642,121320,259,-12,-55,470 F,1,119642,121320,1,0 S,0,119642,121320,2 P,0,119642,121320,A
Sprite,Foreground,Centre,"SB\snowflake.png",320,240 M,1,119772,121450,197,-12,657,482 F,1,119772,121450,1,0 S,0,119772,121450,1 P,0,119772,121450,A
Sprite,Foreground,Centre,"SB\snowflake.png",320,240 M,1,119903,121581,661,-12,452,481 F,1,119903,121581,1,0 S,0,119903,121581,1 P,0,119903,121581,A
Sprite,Foreground,Centre,"SB\snowflake.png",320,240 M,1,120033,121711,650,-12,-51,474 F,1,120033,121711,1,0 S,0,120033,121711,1 P,0,120033,121711,A
Sprite,Foreground,Centre,"SB\snowflake.png",320,240 M,1,120163,121841,-17,-12,305,471 F,1,120163,121841,1,0 S,0,120163,121841,1 P,0,120163,121841,A
Sprite,Foreground,Centre,"SB\snowflake.png",320,240 M,1,120293,121971,350,-12,116,474 F,1,120293,121971,1,0 S,0,120293,121971,2 P,0,120293,121971,A
Sprite,Foreground,Centre,"SB\snowflake.png",320,240 M,1,120423,122101,628,-12,504,486 F,1,120423,122101,1,0 S,0,120423,122101,2 P,0,120423,122101,A
Sprite,Foreground,Centre,"SB\snowflake.png",320,240 M,1,120554,122232,364,-12,335,479 F,1,120554,122232,1,0 S,0,120554,122232,1 P,0,120554,122232,A
Sprite,Foreground,Centre,"SB\snowflake.png",320,240 M,1,120684,122362,690,-12,458,473 F,1,120684,122362,1,0 S,0,120684,122362,2 P,0,120684,122362,A
Sprite,Foreground,Centre,"SB\snowflake.png",320,240 M,1,120814,122492,553,-12,220,476 F,1,120814,122492,1,0 S,0,120814,122492,1 P,0,120814,122492,A
Sprite,Foreground,Centre,"SB\snowflake.png",320,240 M,1,120944,122622,611,-12,338,476 F,1,120944,122622,1,0 S,0,120944,122622,2 P,0,120944,122622,A
Sprite,Foreground,Centre,"SB\snowflake.png",320,240 M,1,121074,122752,709,-12,747,478 F,1,121074,122752,1,0 S,0,121074,122752,2 P,0,121074,122752,A
Sprite,Foreground,Centre,"SB\snowflake.png",320,240 M,1,121205,122883,-37,-12,446,478 F,1,121205,122883,1,0 S,0,121205,122883,2 P,0,121205,122883,A
Sprite,Foreground,Centre,"SB\snowflake.png",320,240 M,1,121335,123013,40,-12,469,479 F,1,121335,123013,1,0 S,0,121335,123013,1 P,0,121335,123013,A
Sprite,Foreground,Centre,"SB\snowflake.png",320,240 M,1,121465,123143,198,-12,347,481 F,1,121465,123143,1,0 S,0,121465,123143,2 P,0,121465,123143,A
Sprite,Foreground,Centre,"SB\snowflake.png",320,240 M,1,121595,123273,280,-12,129,476 F,1,121595,123273,1,0 S,0,121595,123273,1 P,0,121595,123273,A
Sprite,Foreground,Centre,"SB\snowflake.png",320,240 M,1,121725,123403,12,-12,643,471 F,1,121725,123403,1,0 S,0,121725,123403,1 P,0,121725,123403,A
Sprite,Foreground,Centre,"SB\snowflake.png",320,240 M,1,121856,123534,173,-12,174,471 F,1,121856,123534,1,0 S,0,121856,123534,2 P,0,121856,123534,A
Sprite,Foreground,Centre,"SB\snowflake.png",320,240 M,1,121986,123664,372,-12,-111,471 F,1,121986,123664,1,0 S,0,121986,123664,1 P,0,121986,123664,A
Sprite,Foreground,Centre,"SB\snowflake.png",320,240 M,1,122116,123794,127,-12,-2,479 F,1,122116,123794,1,0 S,0,122116,123794,2 P,0,122116,123794,A
Sprite,Foreground,Centre,"SB\snowflake.png",320,240 M,1,122246,123924,-34,-12,610,482 F,1,122246,123924,1,0 S,0,122246,123924,1 P,0,122246,123924,A
Sprite,Foreground,Centre,"SB\snowflake.png",320,240 M,1,122376,124054,146,-12,626,480 F,1,122376,124054,1,0 S,0,122376,124054,2 P,0,122376,124054,A
Sprite,Foreground,Centre,"SB\snowflake.png",320,240 M,1,122507,124185,462,-12,411,475 F,1,122507,124185,1,0 S,0,122507,124185,1 P,0,122507,124185,A
Sprite,Foreground,Centre,"SB\snowflake.png",320,240 M,1,122637,124315,75,-12,389,473 F,1,122637,124315,1,0 S,0,122637,124315,2 P,0,122637,124315,A
Sprite,Foreground,Centre,"SB\snowflake.png",320,240 M,1,122767,124445,621,-12,369,486 F,1,122767,124445,1,0 S,0,122767,124445,2 P,0,122767,124445,A
Sprite,Foreground,Centre,"SB\snowflake.png",320,240 M,1,122897,124575,192,-12,246,483 F,1,122897,124575,1,0 S,0,122897,124575,1 P,0,122897,124575,A
Sprite,Foreground,Centre,"SB\snowflake.png",320,240 M,1,123027,124705,165,-12,537,484 F,1,123027,124705,1,0 S,0,123027,124705,2 P,0,123027,124705,A
Sprite,Foreground,Centre,"SB\snowflake.png",320,240 M,1,123158,124836,157,-12,17,481 F,1,123158,124836,1,0 S,0,123158,124836,2 P,0,123158,124836,A
Sprite,Foreground,Centre,"SB\snowflake.png",320,240 M,1,123288,124966,301,-12,483,476 F,1,123288,124966,1,0 S,0,123288,124966,1 P,0,123288,124966,A
Sprite,Foreground,Centre,"SB\snowflake.png",320,240 M,1,123418,125096,715,-12,454,483 F,1,123418,125096,1,0 S,0,123418,125096,2 P,0,123418,125096,A
Sprite,Foreground,Centre,"SB\snowflake.png",320,240 M,1,123548,125226,493,-12,693,480 F,1,123548,125226,1,0 S,0,123548,125226,1 P,0,123548,125226,A
Sprite,Foreground,Centre,"SB\snowflake.png",320,240 M,1,123678,125356,351,-12,616,478 F,1,123678,125356,1,0 S,0,123678,125356,1 P,0,123678,125356,A
Sprite,Foreground,Centre,"SB\snowflake.png",320,240 M,1,123809,125487,654,-12,-65,477 F,1,123809,125487,1,0 S,0,123809,125487,1 P,0,123809,125487,A
Sprite,Foreground,Centre,"SB\snowflake.png",320,240 M,1,123939,125617,679,-12,550,475 F,1,123939,125617,1,0 S,0,123939,125617,2 P,0,123939,125617,A
Sprite,Foreground,Centre,"SB\snowflake.png",320,240 M,1,124069,125747,-60,-12,685,476 F,1,124069,125747,1,0 S,0,124069,125747,1 P,0,124069,125747,A
Sprite,Foreground,Centre,"SB\snowflake.png",320,240 M,1,124199,125877,20,-12,60,479 F,1,124199,125877,1,0 S,0,124199,125877,1 P,0,124199,125877,A
Sprite,Foreground,Centre,"SB\snowflake.png",320,240 M,1,124329,126007,492,-12,439,478 F,1,124329,126007,1,0 S,0,124329,126007,1 P,0,124329,126007,A
Sprite,Foreground,Centre,"SB\snowflake.png",320,240 M,1,124460,126138,226,-12,-22,471 F,1,124460,126138,1,0 S,0,124460,126138,1 P,0,124460,126138,A
Sprite,Foreground,Centre,"SB\snowflake.png",320,240 M,1,124590,126268,295,-12,446,477 F,1,124590,126268,1,0 S,0,124590,126268,1 P,0,124590,126268,A
Sprite,Foreground,Centre,"SB\snowflake.png",320,240 M,1,124720,126398,249,-12,109,477 F,1,124720,126398,1,0 S,0,124720,126398,2 P,0,124720,126398,A
Sprite,Foreground,Centre,"SB\snowflake.png",320,240 M,1,124850,126528,47,-12,150,477 F,1,124850,126528,1,0 S,0,124850,126528,2 P,0,124850,126528,A
Sprite,Foreground,Centre,"SB\snowflake.png",320,240 M,1,124980,126658,562,-12,350,473 F,1,124980,126658,1,0 S,0,124980,126658,1 P,0,124980,126658,A
Sprite,Foreground,Centre,"SB\snowflake.png",320,240 M,1,125111,126789,174,-12,128,471 F,1,125111,126789,1,0 S,0,125111,126789,1 P,0,125111,126789,A
Sprite,Foreground,Centre,"SB\snowflake.png",320,240 M,1,125241,126919,98,-12,388,478 F,1,125241,126919,1,0 S,0,125241,126919,1 P,0,125241,126919,A
Sprite,Foreground,Centre,"SB\snowflake.png",320,240 M,1,125371,127049,584,-12,454,481 F,1,125371,127049,1,0 S,0,125371,127049,1 P,0,125371,127049,A
Sprite,Foreground,Centre,"SB\snowflake.png",320,240 M,1,125501,127179,248,-12,281,482 F,1,125501,127179,1,0 S,0,125501,127179,2 P,0,125501,127179,A
Sprite,Foreground,Centre,"SB\snowflake.png",320,240 M,1,125631,127309,665,-12,565,485 F,1,125631,127309,1,0 S,0,125631,127309,2 P,0,125631,127309,A
Sprite,Foreground,Centre,"SB\snowflake.png",320,240 M,1,125762,127440,225,-12,58,477 F,1,125762,127440,1,0 S,0,125762,127440,1 P,0,125762,127440,A
Sprite,Foreground,Centre,"SB\snowflake.png",320,240 M,1,125892,127570,631,-12,651,482 F,1,125892,127570,1,0 S,0,125892,127570,1 P,0,125892,127570,A
Sprite,Foreground,Centre,"SB\snowflake.png",320,240 M,1,126022,127700,50,-12,358,478 F,1,126022,127700,1,0 S,0,126022,127700,1 P,0,126022,127700,A
Sprite,Foreground,Centre,"SB\snowflake.png",320,240 M,1,126152,127830,615,-12,537,480 F,1,126152,127830,1,0 S,0,126152,127830,1 P,0,126152,127830,A
Sprite,Foreground,Centre,"SB\snowflake.png",320,240 M,1,126282,127960,348,-12,449,479 F,1,126282,127960,1,0 S,0,126282,127960,1 P,0,126282,127960,A
Sprite,Foreground,Centre,"SB\snowflake.png",320,240 M,1,126413,128091,164,-12,574,476 F,1,126413,128091,1,0 S,0,126413,128091,2 P,0,126413,128091,A
Sprite,Foreground,Centre,"SB\snowflake.png",320,240 M,1,126543,128221,364,-12,186,479 F,1,126543,128221,1,0 S,0,126543,128221,1 P,0,126543,128221,A
Sprite,Foreground,Centre,"SB\snowflake.png",320,240 M,1,126673,128351,-78,-12,23,483 F,1,126673,128351,1,0 S,0,126673,128351,1 P,0,126673,128351,A
Sprite,Foreground,Centre,"SB\snowflake.png",320,240 M,1,126803,128481,687,-12,700,471 F,1,126803,128481,1,0 S,0,126803,128481,2 P,0,126803,128481,A
Sprite,Foreground,Centre,"SB\snowflake.png",320,240 M,1,126933,128611,645,-12,699,479 F,1,126933,128611,1,0 S,0,126933,128611,2 P,0,126933,128611,A
Sprite,Foreground,Centre,"SB\snowflake.png",320,240 M,1,127064,128742,11,-12,30,482 F,1,127064,128742,1,0 S,0,127064,128742,1 P,0,127064,128742,A
Sprite,Foreground,Centre,"SB\snowflake.png",320,240 M,1,127194,128872,530,-12,448,472 F,1,127194,128872,1,0 S,0,127194,128872,2 P,0,127194,128872,A
Sprite,Foreground,Centre,"SB\snowflake.png",320,240 M,1,127324,129002,-61,-12,298,474 F,1,127324,129002,1,0 S,0,127324,129002,1 P,0,127324,129002,A
Sprite,Foreground,Centre,"SB\snowflake.png",320,240 M,1,127454,129132,618,-12,722,480 F,1,127454,129132,1,0 S,0,127454,129132,2 P,0,127454,129132,A
Sprite,Foreground,Centre,"SB\snowflake.png",320,240 M,1,127584,129262,475,-12,692,472 F,1,127584,129262,1,0 S,0,127584,129262,1 P,0,127584,129262,A
Sprite,Foreground,Centre,"SB\snowflake.png",320,240 M,1,127715,129393,402,-12,347,483 F,1,127715,129393,1,0 S,0,127715,129393,1 P,0,127715,129393,A
Sprite,Foreground,Centre,"SB\snowflake.png",320,240 M,1,127845,129523,219,-12,92,485 F,1,127845,129523,1,0 S,0,127845,129523,2 P,0,127845,129523,A
Sprite,Foreground,Centre,"SB\snowflake.png",320,240 M,1,127975,129653,216,-12,433,472 F,1,127975,129653,1,0 S,0,127975,129653,1 P,0,127975,129653,A
Sprite,Foreground,Centre,"SB\snowflake.png",320,240 M,1,128105,129783,229,-12,-93,486 F,1,128105,129783,1,0 S,0,128105,129783,1 P,0,128105,129783,A
Sprite,Foreground,Centre,"SB\snowflake.png",320,240 M,1,128235,129913,271,-12,491,484 F,1,128235,129913,1,0 S,0,128235,129913,1 P,0,128235,129913,A
Sprite,Foreground,Centre,"SB\snowflake.png",320,240 M,1,128366,130044,678,-12,137,477 F,1,128366,130044,1,0 S,0,128366,130044,2 P,0,128366,130044,A
Sprite,Foreground,Centre,"SB\snowflake.png",320,240 M,1,128496,130174,73,-12,-103,470 F,1,128496,130174,1,0 S,0,128496,130174,1 P,0,128496,130174,A
Sprite,Foreground,Centre,"SB\snowflake.png",320,240 M,1,128626,130304,66,-12,631,477 F,1,128626,130304,1,0 S,0,128626,130304,2 P,0,128626,130304,A
Sprite,Foreground,Centre,"SB\snowflake.png",320,240 M,1,128756,130434,601,-12,361,484 F,1,128756,130434,1,0 S,0,128756,130434,2 P,0,128756,130434,A
Sprite,Foreground,Centre,"SB\snowflake.png",320,240 M,1,128886,130564,68,-12,591,475 F,1,128886,130564,1,0 S,0,128886,130564,1 P,0,128886,130564,A
Sprite,Foreground,Centre,"SB\snowflake.png",320,240 M,1,129017,130695,450,-12,740,482 F,1,129017,130695,1,0 S,0,129017,130695,2 P,0,129017,130695,A
Sprite,Foreground,Centre,"SB\snowflake.png",320,240 M,1,129147,130825,666,-12,493,480 F,1,129147,130825,1,0 S,0,129147,130825,2 P,0,129147,130825,A
Sprite,Foreground,Centre,"SB\snowflake.png",320,240 M,1,129277,130955,-35,-12,588,482 F,1,129277,130955,1,0 S,0,129277,130955,1 P,0,129277,130955,A
Sprite,Foreground,Centre,"SB\snowflake.png",320,240 M,1,129407,131085,201,-12,386,484 F,1,129407,131085,1,0 S,0,129407,131085,2 P,0,129407,131085,A
Sprite,Foreground,Centre,"SB\snowflake.png",320,240 M,1,129537,131215,353,-12,404,470 F,1,129537,131215,1,0 S,0,129537,131215,1 P,0,129537,131215,A
Sprite,Foreground,Centre,"SB\snowflake.png",320,240 M,1,129668,131346,665,-12,633,481 F,1,129668,131346,1,0 S,0,129668,131346,2 P,0,129668,131346,A
Sprite,Foreground,Centre,"SB\snowflake.png",320,240 M,1,129798,131476,-31,-12,748,480 F,1,129798,131476,1,0 S,0,129798,131476,2 P,0,129798,131476,A
Sprite,Foreground,Centre,"SB\snowflake.png",320,240 M,1,129928,131606,87,-12,147,484 F,1,129928,131606,1,0 S,0,129928,131606,2 P,0,129928,131606,A
Sprite,Foreground,Centre,"SB\snowflake.png",320,240 M,1,130058,131736,328,-12,107,477 F,1,130058,131736,1,0 S,0,130058,131736,1 P,0,130058,131736,A
Sprite,Foreground,Centre,"SB\snowflake.png",320,240 M,1,130188,131866,-104,-12,578,484 F,1,130188,131866,1,0 S,0,130188,131866,2 P,0,130188,131866,A
Sprite,Foreground,Centre,"SB\snowflake.png",320,240 M,1,130319,131997,436,-12,696,485 F,1,130319,131997,1,0 S,0,130319,131997,2 P,0,130319,131997,A
Sprite,Foreground,Centre,"SB\snowflake.png",320,240 M,1,130449,132127,-71,-12,735,485 F,1,130449,132127,1,0 S,0,130449,132127,1 P,0,130449,132127,A
Sprite,Foreground,Centre,"SB\snowflake.png",320,240 M,1,130579,132257,-85,-12,-79,480 F,1,130579,132257,1,0 S,0,130579,132257,2 P,0,130579,132257,A
Sprite,Foreground,Centre,"SB\snowflake.png",320,240 M,1,130709,132387,-28,-12,35,478 F,1,130709,132387,1,0 S,0,130709,132387,2 P,0,130709,132387,A
Sprite,Foreground,Centre,"SB\snowflake.png",320,240 M,1,130839,132517,-63,-12,492,475 F,1,130839,132517,1,0 S,0,130839,132517,2 P,0,130839,132517,A
Sprite,Foreground,Centre,"SB\snowflake.png",320,240 M,1,130970,132648,128,-12,-5,471 F,1,130970,132648,1,0 S,0,130970,132648,2 P,0,130970,132648,A
Sprite,Foreground,Centre,"SB\snowflake.png",320,240 M,1,131100,132778,-31,-12,-92,476 F,1,131100,132778,1,0 S,0,131100,132778,2 P,0,131100,132778,A
Sprite,Foreground,Centre,"SB\snowflake.png",320,240 M,1,131230,132908,27,-12,-29,486 F,1,131230,132908,1,0 S,0,131230,132908,2 P,0,131230,132908,A
Sprite,Foreground,Centre,"SB\snowflake.png",320,240 M,1,131360,133038,106,-12,221,476 F,1,131360,133038,1,0 S,0,131360,133038,2 P,0,131360,133038,A
Sprite,Foreground,Centre,"SB\snowflake.png",320,240 M,1,131490,133168,289,-12,456,470 F,1,131490,133168,1,0 S,0,131490,133168,1 P,0,131490,133168,A
Sprite,Foreground,Centre,"SB\snowflake.png",320,240 M,1,131621,133299,615,-12,164,479 F,1,131621,133299,1,0 S,0,131621,133299,1 P,0,131621,133299,A
Sprite,Foreground,Centre,"SB\snowflake.png",320,240 M,1,131751,133429,699,-12,412,478 F,1,131751,133429,1,0 S,0,131751,133429,2 P,0,131751,133429,A
Sprite,Foreground,Centre,"SB\snowflake.png",320,240 M,1,131881,133559,688,-12,655,481 F,1,131881,133559,1,0 S,0,131881,133559,1 P,0,131881,133559,A
Sprite,Foreground,Centre,"SB\snowflake.png",320,240 M,1,132011,133689,-110,-12,472,477 F,1,132011,133689,1,0 S,0,132011,133689,2 P,0,132011,133689,A
Sprite,Foreground,Centre,"SB\snowflake.png",320,240 M,1,132141,133819,-117,-12,76,479 F,1,132141,133819,1,0 S,0,132141,133819,2 P,0,132141,133819,A
Sprite,Foreground,Centre,"SB\snowflake.png",320,240 M,1,132272,133950,471,-12,170,480 F,1,132272,133950,1,0 S,0,132272,133950,1 P,0,132272,133950,A
Sprite,Foreground,Centre,"SB\snowflake.png",320,240 M,1,132402,134080,426,-12,-34,471 F,1,132402,134080,1,0 S,0,132402,134080,1 P,0,132402,134080,A
Sprite,Foreground,Centre,"SB\snowflake.png",320,240 M,1,132532,134210,559,-12,283,482 F,1,132532,134210,1,0 S,0,132532,134210,2 P,0,132532,134210,A
Sprite,Foreground,Centre,"SB\snowflake.png",320,240 M,1,132662,134340,369,-12,389,484 F,1,132662,134340,1,0 S,0,132662,134340,2 P,0,132662,134340,A
Sprite,Foreground,Centre,"SB\snowflake.png",320,240 M,1,132792,134470,206,-12,519,478 F,1,132792,134470,1,0 S,0,132792,134470,2 P,0,132792,134470,A
Sprite,Foreground,Centre,"SB\snowflake.png",320,240 M,1,132923,134601,571,-12,90,478 F,1,132923,134601,1,0 S,0,132923,134601,2 P,0,132923,134601,A
Sprite,Foreground,Centre,"SB\snowflake.png",320,240 M,1,133053,134731,422,-12,546,470 F,1,133053,134731,1,0 S,0,133053,134731,1 P,0,133053,134731,A
Sprite,Foreground,Centre,"SB\snowflake.png",320,240 M,1,133183,134861,412,-12,-104,472 F,1,133183,134861,1,0 S,0,133183,134861,1 P,0,133183,134861,A
Sprite,Foreground,Centre,"SB\snowflake.png",320,240 M,1,133313,134991,604,-12,564,484 F,1,133313,134991,1,0 S,0,133313,134991,1 P,0,133313,134991,A
Sprite,Foreground,Centre,"SB\snowflake.png",320,240 M,1,133443,135121,361,-12,703,470 F,1,133443,135121,1,0 S,0,133443,135121,2 P,0,133443,135121,A
Sprite,Foreground,Centre,"SB\snowflake.png",320,240 M,1,133574,135252,248,-12,186,482 F,1,133574,135252,1,0 S,0,133574,135252,1 P,0,133574,135252,A
Sprite,Foreground,Centre,"SB\snowflake.png",320,240 M,1,133704,135382,707,-12,597,479 F,1,133704,135382,1,0 S,0,133704,135382,1 P,0,133704,135382,A
Sprite,Foreground,Centre,"SB\snowflake.png",320,240 M,1,133834,135512,219,-12,408,484 F,1,133834,135512,1,0 S,0,133834,135512,1 P,0,133834,135512,A
Sprite,Foreground,Centre,"SB\snowflake.png",320,240 M,1,133964,135642,-104,-12,282,478 F,1,133964,135642,1,0 S,0,133964,135642,1 P,0,133964,135642,A
Sprite,Foreground,Centre,"SB\snowflake.png",320,240 M,1,134094,135772,355,-12,259,485 F,1,134094,135772,1,0 S,0,134094,135772,1 P,0,134094,135772,A
Sprite,Foreground,Centre,"SB\snowflake.png",320,240 M,1,134225,135903,397,-12,655,477 F,1,134225,135903,1,0 S,0,134225,135903,2 P,0,134225,135903,A
Sprite,Foreground,Centre,"SB\snowflake.png",320,240 M,1,134355,136033,623,-12,90,485 F,1,134355,136033,1,0 S,0,134355,136033,1 P,0,134355,136033,A
Sprite,Foreground,Centre,"SB\snowflake.png",320,240 M,1,134485,136163,118,-12,-92,473 F,1,134485,136163,1,0 S,0,134485,136163,1 P,0,134485,136163,A
Sprite,Foreground,Centre,"SB\snowflake.png",320,240 M,1,134615,136293,569,-12,265,483 F,1,134615,136293,1,0 S,0,134615,136293,1 P,0,134615,136293,A
Sprite,Foreground,Centre,"SB\snowflake.png",320,240 M,1,134745,136423,78,-12,669,477 F,1,134745,136423,1,0 S,0,134745,136423,1 P,0,134745,136423,A
Sprite,Foreground,Centre,"SB\snowflake.png",320,240 M,1,134876,136554,-38,-12,266,481 F,1,134876,136554,1,0 S,0,134876,136554,2 P,0,134876,136554,A
Sprite,Foreground,Centre,"SB\snowflake.png",320,240 M,1,135006,136684,744,-12,245,476 F,1,135006,136684,1,0 S,0,135006,136684,2 P,0,135006,136684,A
Sprite,Foreground,Centre,"SB\snowflake.png",320,240 M,1,135136,136814,-66,-12,198,478 F,1,135136,136814,1,0 S,0,135136,136814,1 P,0,135136,136814,A
Sprite,Foreground,Centre,"SB\snowflake.png",320,240 M,1,135266,136944,12,-12,488,484 F,1,135266,136944,1,0 S,0,135266,136944,1 P,0,135266,136944,A
Sprite,Foreground,Centre,"SB\snowflake.png",320,240 M,1,135396,137074,742,-12,107,475 F,1,135396,137074,1,0 S,0,135396,137074,2 P,0,135396,137074,A
Sprite,Foreground,Centre,"SB\snowflake.png",320,240 M,1,135527,137205,-28,-12,458,475 F,1,135527,137205,1,0 S,0,135527,137205,2 P,0,135527,137205,A
Sprite,Foreground,Centre,"SB\snowflake.png",320,240 M,1,135657,137335,482,-12,248,480 F,1,135657,137335,1,0 S,0,135657,137335,2 P,0,135657,137335,A
Sprite,Foreground,Centre,"SB\snowflake.png",320,240 M,1,135787,137465,239,-12,380,481 F,1,135787,137465,1,0 S,0,135787,137465,1 P,0,135787,137465,A
Sprite,Foreground,Centre,"SB\snowflake.png",320,240 M,1,135917,137595,628,-12,468,475 F,1,135917,137595,1,0 S,0,135917,137595,1 P,0,135917,137595,A
Sprite,Foreground,Centre,"SB\snowflake.png",320,240 M,1,136047,137725,253,-12,696,484 F,1,136047,137725,1,0 S,0,136047,137725,1 P,0,136047,137725,A
Sprite,Foreground,Centre,"SB\snowflake.png",320,240 M,1,136178,137856,345,-12,-77,471 F,1,136178,137856,1,0 S,0,136178,137856,2 P,0,136178,137856,A
Sprite,Foreground,Centre,"SB\snowflake.png",320,240 M,1,136308,137986,610,-12,9,478 F,1,136308,137986,1,0 S,0,136308,137986,2 P,0,136308,137986,A
Sprite,Foreground,Centre,"SB\snowflake.png",320,240 M,1,136438,138116,169,-12,-49,470 F,1,136438,138116,1,0 S,0,136438,138116,2 P,0,136438,138116,A
Sprite,Foreground,Centre,"SB\snowflake.png",320,240 M,1,136568,138246,441,-12,548,476 F,1,136568,138246,1,0 S,0,136568,138246,2 P,0,136568,138246,A
Sprite,Foreground,Centre,"SB\snowflake.png",320,240 M,1,136698,138376,386,-12,-100,478 F,1,136698,138376,1,0 S,0,136698,138376,1 P,0,136698,138376,A
Sprite,Foreground,Centre,"SB\snowflake.png",320,240 M,1,136829,138507,157,-12,680,478 F,1,136829,138507,1,0 S,0,136829,138507,1 P,0,136829,138507,A
Sprite,Foreground,Centre,"SB\snowflake.png",320,240 M,1,136959,138637,31,-12,601,474 F,1,136959,138637,1,0 S,0,136959,138637,1 P,0,136959,138637,A
Sprite,Foreground,Centre,"SB\snowflake.png",320,240 M,1,137089,138767,442,-12,149,481 F,1,137089,138767,1,0 S,0,137089,138767,1 P,0,137089,138767,A
Sprite,Foreground,Centre,"SB\snowflake.png",320,240 M,1,137219,138897,113,-12,-31,470 F,1,137219,138897,1,0 S,0,137219,138897,2 P,0,137219,138897,A
Sprite,Foreground,Centre,"SB\snowflake.png",320,240 M,1,137349,139027,559,-12,418,473 F,1,137349,139027,1,0 S,0,137349,139027,2 P,0,137349,139027,A
Sprite,Foreground,Centre,"SB\snowflake.png",320,240 M,1,137480,139158,460,-12,379,474 F,1,137480,139158,1,0 S,0,137480,139158,1 P,0,137480,139158,A
Sprite,Foreground,Centre,"SB\snowflake.png",320,240 M,1,137610,139288,327,-12,363,483 F,1,137610,139288,1,0 S,0,137610,139288,1 P,0,137610,139288,A
Sprite,Foreground,Centre,"SB\snowflake.png",320,240 M,1,137740,139418,684,-12,423,476 F,1,137740,139418,1,0 S,0,137740,139418,2 P,0,137740,139418,A
Sprite,Foreground,Centre,"SB\snowflake.png",320,240 M,1,137870,139548,322,-12,612,481 F,1,137870,139548,1,0 S,0,137870,139548,1 P,0,137870,139548,A
Sprite,Foreground,Centre,"SB\snowflake.png",320,240 M,1,117559,119237,43,-12,43,478 F,1,117559,119237,1,0 S,0,117559,119237,1 P,0,117559,119237,A
Sprite,Foreground,Centre,"SB\snowflake.png",320,240 M,1,117652,119330,515,-12,515,474 F,1,117652,119330,1,0 S,0,117652,119330,1 P,0,117652,119330,A
Sprite,Foreground,Centre,"SB\snowflake.png",320,240 M,1,117745,119423,-11,-12,-11,480 F,1,117745,119423,1,0 S,0,117745,119423,1 P,0,117745,119423,A
Sprite,Foreground,Centre,"SB\snowflake.png",320,240 M,1,117838,119516,-75,-12,-75,485 F,1,117838,119516,1,0 S,0,117838,119516,1 P,0,117838,119516,A
Sprite,Foreground,Centre,"SB\snowflake.png",320,240 M,1,117931,119609,47,-12,47,480 F,1,117931,119609,1,0 S,0,117931,119609,1 P,0,117931,119609,A
Sprite,Foreground,Centre,"SB\snowflake.png",320,240 M,1,118024,119702,590,-12,590,485 F,1,118024,119702,1,0 S,0,118024,119702,1 P,0,118024,119702,A
Sprite,Foreground,Centre,"SB\snowflake.png",320,240 M,1,118117,119795,69,-12,69,486 F,1,118117,119795,1,0 S,0,118117,119795,1 P,0,118117,119795,A
Sprite,Foreground,Centre,"SB\snowflake.png",320,240 M,1,118210,119888,309,-12,309,475 F,1,118210,119888,1,0 S,0,118210,119888,1 P,0,118210,119888,A
Sprite,Foreground,Centre,"SB\snowflake.png",320,240 M,1,118303,119981,566,-12,566,471 F,1,118303,119981,1,0 S,0,118303,119981,1 P,0,118303,119981,A
Sprite,Foreground,Centre,"SB\snowflake.png",320,240 M,1,118396,120074,183,-12,183,485 F,1,118396,120074,1,0 S,0,118396,120074,1 P,0,118396,120074,A
Sprite,Foreground,Centre,"SB\snowflake.png",320,240 M,1,118489,120167,192,-12,192,474 F,1,118489,120167,1,0 S,0,118489,120167,1 P,0,118489,120167,A
Sprite,Foreground,Centre,"SB\snowflake.png",320,240 M,1,118582,120260,722,-12,722,480 F,1,118582,120260,1,0 S,0,118582,120260,1 P,0,118582,120260,A
Sprite,Foreground,Centre,"SB\snowflake.png",320,240 M,1,118675,120353,-39,-12,-39,470 F,1,118675,120353,1,0 S,0,118675,120353,1 P,0,118675,120353,A
Sprite,Foreground,Centre,"SB\snowflake.png",320,240 M,1,118768,120446,335,-12,335,483 F,1,118768,120446,1,0 S,0,118768,120446,1 P,0,118768,120446,A
Sprite,Foreground,Centre,"SB\snowflake.png",320,240 M,1,118861,120539,751,-12,751,483 F,1,118861,120539,1,0 S,0,118861,120539,1 P,0,118861,120539,A
Sprite,Foreground,Centre,"SB\snowflake.png",320,240 M,1,118954,120632,297,-12,297,471 F,1,118954,120632,1,0 S,0,118954,120632,1 P,0,118954,120632,A
Sprite,Foreground,Centre,"SB\snowflake.png",320,240 M,1,119047,120725,124,-12,124,475 F,1,119047,120725,1,0 S,0,119047,120725,1 P,0,119047,120725,A
Sprite,Foreground,Centre,"SB\snowflake.png",320,240 M,1,119140,120818,55,-12,55,486 F,1,119140,120818,1,0 S,0,119140,120818,1 P,0,119140,120818,A
Sprite,Foreground,Centre,"SB\snowflake.png",320,240 M,1,119233,120911,395,-12,395,476 F,1,119233,120911,1,0 S,0,119233,120911,1 P,0,119233,120911,A
Sprite,Foreground,Centre,"SB\snowflake.png",320,240 M,1,119326,121004,68,-12,68,481 F,1,119326,121004,1,0 S,0,119326,121004,1 P,0,119326,121004,A
Sprite,Foreground,Centre,"SB\snowflake.png",320,240 M,1,119419,121097,40,-12,40,482 F,1,119419,121097,1,0 S,0,119419,121097,1 P,0,119419,121097,A
Sprite,Foreground,Centre,"SB\snowflake.png",320,240 M,1,119512,121190,486,-12,486,481 F,1,119512,121190,1,0 S,0,119512,121190,1 P,0,119512,121190,A
Sprite,Foreground,Centre,"SB\snowflake.png",320,240 M,1,119605,121283,445,-12,445,475 F,1,119605,121283,1,0 S,0,119605,121283,1 P,0,119605,121283,A
Sprite,Foreground,Centre,"SB\snowflake.png",320,240 M,1,119698,121376,713,-12,713,475 F,1,119698,121376,1,0 S,0,119698,121376,1 P,0,119698,121376,A
Sprite,Foreground,Centre,"SB\snowflake.png",320,240 M,1,119791,121469,662,-12,662,470 F,1,119791,121469,1,0 S,0,119791,121469,1 P,0,119791,121469,A
Sprite,Foreground,Centre,"SB\snowflake.png",320,240 M,1,119884,121562,65,-12,65,482 F,1,119884,121562,1,0 S,0,119884,121562,1 P,0,119884,121562,A
Sprite,Foreground,Centre,"SB\snowflake.png",320,240 M,1,119977,121655,329,-12,329,484 F,1,119977,121655,1,0 S,0,119977,121655,1 P,0,119977,121655,A
Sprite,Foreground,Centre,"SB\snowflake.png",320,240 M,1,120070,121748,734,-12,734,484 F,1,120070,121748,1,0 S,0,120070,121748,1 P,0,120070,121748,A
Sprite,Foreground,Centre,"SB\snowflake.png",320,240 M,1,120163,121841,400,-12,400,485 F,1,120163,121841,1,0 S,0,120163,121841,1 P,0,120163,121841,A
Sprite,Foreground,Centre,"SB\snowflake.png",320,240 M,1,120256,121934,148,-12,148,470 F,1,120256,121934,1,0 S,0,120256,121934,1 P,0,120256,121934,A
Sprite,Foreground,Centre,"SB\snowflake.png",320,240 M,1,120349,122027,120,-12,120,474 F,1,120349,122027,1,0 S,0,120349,122027,1 P,0,120349,122027,A
Sprite,Foreground,Centre,"SB\snowflake.png",320,240 M,1,120442,122120,142,-12,142,485 F,1,120442,122120,1,0 S,0,120442,122120,1 P,0,120442,122120,A
Sprite,Foreground,Centre,"SB\snowflake.png",320,240 M,1,120535,122213,-87,-12,-87,480 F,1,120535,122213,1,0 S,0,120535,122213,1 P,0,120535,122213,A
Sprite,Foreground,Centre,"SB\snowflake.png",320,240 M,1,120628,122306,14,-12,14,472 F,1,120628,122306,1,0 S,0,120628,122306,1 P,0,120628,122306,A
Sprite,Foreground,Centre,"SB\snowflake.png",320,240 M,1,120721,122399,565,-12,565,477 F,1,120721,122399,1,0 S,0,120721,122399,1 P,0,120721,122399,A
Sprite,Foreground,Centre,"SB\snowflake.png",320,240 M,1,120814,122492,-111,-12,-111,475 F,1,120814,122492,1,0 S,0,120814,122492,1 P,0,120814,122492,A
Sprite,Foreground,Centre,"SB\snowflake.png",320,240 M,1,120907,122585,704,-12,704,473 F,1,120907,122585,1,0 S,0,120907,122585,1 P,0,120907,122585,A
Sprite,Foreground,Centre,"SB\snowflake.png",320,240 M,1,121000,122678,462,-12,462,480 F,1,121000,122678,1,0 S,0,121000,122678,1 P,0,121000,122678,A
Sprite,Foreground,Centre,"SB\snowflake.png",320,240 M,1,121093,122771,634,-12,634,482 F,1,121093,122771,1,0 S,0,121093,122771,1 P,0,121093,122771,A
Sprite,Foreground,Centre,"SB\snowflake.png",320,240 M,1,121186,122864,630,-12,630,479 F,1,121186,122864,1,0 S,0,121186,122864,1 P,0,121186,122864,A
Sprite,Foreground,Centre,"SB\snowflake.png",320,240 M,1,121279,122957,515,-12,515,484 F,1,121279,122957,1,0 S,0,121279,122957,1 P,0,121279,122957,A
Sprite,Foreground,Centre,"SB\snowflake.png",320,240 M,1,121372,123050,119,-12,119,484 F,1,121372,123050,1,0 S,0,121372,123050,1 P,0,121372,123050,A
Sprite,Foreground,Centre,"SB\snowflake.png",320,240 M,1,121465,123143,-49,-12,-49,476 F,1,121465,123143,1,0 S,0,121465,123143,1 P,0,121465,123143,A
Sprite,Foreground,Centre,"SB\snowflake.png",320,240 M,1,121558,123236,-53,-12,-53,473 F,1,121558,123236,1,0 S,0,121558,123236,1 P,0,121558,123236,A
Sprite,Foreground,Centre,"SB\snowflake.png",320,240 M,1,121651,123329,-63,-12,-63,478 F,1,121651,123329,1,0 S,0,121651,123329,1 P,0,121651,123329,A
Sprite,Foreground,Centre,"SB\snowflake.png",320,240 M,1,121744,123422,498,-12,498,482 F,1,121744,123422,1,0 S,0,121744,123422,1 P,0,121744,123422,A
Sprite,Foreground,Centre,"SB\snowflake.png",320,240 M,1,121837,123515,235,-12,235,484 F,1,121837,123515,1,0 S,0,121837,123515,1 P,0,121837,123515,A
Sprite,Foreground,Centre,"SB\snowflake.png",320,240 M,1,121930,123608,388,-12,388,486 F,1,121930,123608,1,0 S,0,121930,123608,1 P,0,121930,123608,A
Sprite,Foreground,Centre,"SB\snowflake.png",320,240 M,1,122023,123701,630,-12,630,472 F,1,122023,123701,1,0 S,0,122023,123701,1 P,0,122023,123701,A
Sprite,Foreground,Centre,"SB\snowflake.png",320,240 M,1,122116,123794,409,-12,409,472 F,1,122116,123794,1,0 S,0,122116,123794,1 P,0,122116,123794,A
Sprite,Foreground,Centre,"SB\snowflake.png",320,240 M,1,122209,123887,77,-12,77,473 F,1,122209,123887,1,0 S,0,122209,123887,1 P,0,122209,123887,A
Sprite,Foreground,Centre,"SB\snowflake.png",320,240 M,1,122302,123980,-23,-12,-23,478 F,1,122302,123980,1,0 S,0,122302,123980,1 P,0,122302,123980,A
Sprite,Foreground,Centre,"SB\snowflake.png",320,240 M,1,122395,124073,132,-12,132,480 F,1,122395,124073,1,0 S,0,122395,124073,1 P,0,122395,124073,A
Sprite,Foreground,Centre,"SB\snowflake.png",320,240 M,1,122488,124166,427,-12,427,482 F,1,122488,124166,1,0 S,0,122488,124166,1 P,0,122488,124166,A
Sprite,Foreground,Centre,"SB\snowflake.png",320,240 M,1,122581,124259,747,-12,747,473 F,1,122581,124259,1,0 S,0,122581,124259,1 P,0,122581,124259,A
Sprite,Foreground,Centre,"SB\snowflake.png",320,240 M,1,122674,124352,-107,-12,-107,475 F,1,122674,124352,1,0 S,0,122674,124352,1 P,0,122674,124352,A
Sprite,Foreground,Centre,"SB\snowflake.png",320,240 M,1,122767,124445,18,-12,18,470 F,1,122767,124445,1,0 S,0,122767,124445,1 P,0,122767,124445,A
Sprite,Foreground,Centre,"SB\snowflake.png",320,240 M,1,122860,124538,727,-12,727,478 F,1,122860,124538,1,0 S,0,122860,124538,1 P,0,122860,124538,A
Sprite,Foreground,Centre,"SB\snowflake.png",320,240 M,1,122953,124631,479,-12,479,486 F,1,122953,124631,1,0 S,0,122953,124631,1 P,0,122953,124631,A
Sprite,Foreground,Centre,"SB\snowflake.png",320,240 M,1,123046,124724,627,-12,627,471 F,1,123046,124724,1,0 S,0,123046,124724,1 P,0,123046,124724,A
Sprite,Foreground,Centre,"SB\snowflake.png",320,240 M,1,123139,124817,465,-12,465,472 F,1,123139,124817,1,0 S,0,123139,124817,1 P,0,123139,124817,A
Sprite,Foreground,Centre,"SB\snowflake.png",320,240 M,1,123232,124910,75,-12,75,486 F,1,123232,124910,1,0 S,0,123232,124910,1 P,0,123232,124910,A
Sprite,Foreground,Centre,"SB\snowflake.png",320,240 M,1,123325,125003,741,-12,741,485 F,1,123325,125003,1,0 S,0,123325,125003,1 P,0,123325,125003,A
Sprite,Foreground,Centre,"SB\snowflake.png",320,240 M,1,123418,125096,744,-12,744,481 F,1,123418,125096,1,0 S,0,123418,125096,1 P,0,123418,125096,A
Sprite,Foreground,Centre,"SB\snowflake.png",320,240 M,1,123511,125189,-32,-12,-32,481 F,1,123511,125189,1,0 S,0,123511,125189,1 P,0,123511,125189,A
Sprite,Foreground,Centre,"SB\snowflake.png",320,240 M,1,123604,125282,9,-12,9,478 F,1,123604,125282,1,0 S,0,123604,125282,1 P,0,123604,125282,A
Sprite,Foreground,Centre,"SB\snowflake.png",320,240 M,1,123697,125375,574,-12,574,470 F,1,123697,125375,1,0 S,0,123697,125375,1 P,0,123697,125375,A
Sprite,Foreground,Centre,"SB\snowflake.png",320,240 M,1,123790,125468,612,-12,612,474 F,1,123790,125468,1,0 S,0,123790,125468,1 P,0,123790,125468,A
Sprite,Foreground,Centre,"SB\snowflake.png",320,240 M,1,123883,125561,-9,-12,-9,482 F,1,123883,125561,1,0 S,0,123883,125561,1 P,0,123883,125561,A
Sprite,Foreground,Centre,"SB\snowflake.png",320,240 M,1,123976,125654,487,-12,487,474 F,1,123976,125654,1,0 S,0,123976,125654,1 P,0,123976,125654,A
Sprite,Foreground,Centre,"SB\snowflake.png",320,240 M,1,124069,125747,328,-12,328,471 F,1,124069,125747,1,0 S,0,124069,125747,1 P,0,124069,125747,A
Sprite,Foreground,Centre,"SB\snowflake.png",320,240 M,1,124162,125840,382,-12,382,477 F,1,124162,125840,1,0 S,0,124162,125840,1 P,0,124162,125840,A
Sprite,Foreground,Centre,"SB\snowflake.png",320,240 M,1,124255,125933,360,-12,360,470 F,1,124255,125933,1,0 S,0,124255,125933,1 P,0,124255,125933,A
Sprite,Foreground,Centre,"SB\snowflake.png",320,240 M,1,124348,126026,63,-12,63,480 F,1,124348,126026,1,0 S,0,124348,126026,1 P,0,124348,126026,A
Sprite,Foreground,Centre,"SB\snowflake.png",320,240 M,1,124441,126119,235,-12,235,482 F,1,124441,126119,1,0 S,0,124441,126119,1 P,0,124441,126119,A
Sprite,Foreground,Centre,"SB\snowflake.png",320,240 M,1,124534,126212,169,-12,169,481 F,1,124534,126212,1,0 S,0,124534,126212,1 P,0,124534,126212,A
Sprite,Foreground,Centre,"SB\snowflake.png",320,240 M,1,124627,126305,627,-12,627,479 F,1,124627,126305,1,0 S,0,124627,126305,1 P,0,124627,126305,A
Sprite,Foreground,Centre,"SB\snowflake.png",320,240 M,1,124720,126398,305,-12,305,479 F,1,124720,126398,1,0 S,0,124720,126398,1 P,0,124720,126398,A
Sprite,Foreground,Centre,"SB\snowflake.png",320,240 M,1,124813,126491,-61,-12,-61,470 F,1,124813,126491,1,0 S,0,124813,126491,1 P,0,124813,126491,A
Sprite,Foreground,Centre,"SB\snowflake.png",320,240 M,1,124906,126584,650,-12,650,480 F,1,124906,126584,1,0 S,0,124906,126584,1 P,0,124906,126584,A
Sprite,Foreground,Centre,"SB\snowflake.png",320,240 M,1,124999,126677,120,-12,120,479 F,1,124999,126677,1,0 S,0,124999,126677,1 P,0,124999,126677,A
Sprite,Foreground,Centre,"SB\snowflake.png",320,240 M,1,125092,126770,454,-12,454,486 F,1,125092,126770,1,0 S,0,125092,126770,1 P,0,125092,126770,A
Sprite,Foreground,Centre,"SB\snowflake.png",320,240 M,1,125185,126863,393,-12,393,483 F,1,125185,126863,1,0 S,0,125185,126863,1 P,0,125185,126863,A
Sprite,Foreground,Centre,"SB\snowflake.png",320,240 M,1,125278,126956,61,-12,61,483 F,1,125278,126956,1,0 S,0,125278,126956,1 P,0,125278,126956,A
Sprite,Foreground,Centre,"SB\snowflake.png",320,240 M,1,125371,127049,298,-12,298,483 F,1,125371,127049,1,0 S,0,125371,127049,1 P,0,125371,127049,A
Sprite,Foreground,Centre,"SB\snowflake.png",320,240 M,1,125464,127142,196,-12,196,474 F,1,125464,127142,1,0 S,0,125464,127142,1 P,0,125464,127142,A
Sprite,Foreground,Centre,"SB\snowflake.png",320,240 M,1,125557,127235,356,-12,356,476 F,1,125557,127235,1,0 S,0,125557,127235,1 P,0,125557,127235,A
Sprite,Foreground,Centre,"SB\snowflake.png",320,240 M,1,125650,127328,-73,-12,-73,485 F,1,125650,127328,1,0 S,0,125650,127328,1 P,0,125650,127328,A
Sprite,Foreground,Centre,"SB\snowflake.png",320,240 M,1,125743,127421,513,-12,513,476 F,1,125743,127421,1,0 S,0,125743,127421,1 P,0,125743,127421,A
Sprite,Foreground,Centre,"SB\snowflake.png",320,240 M,1,125836,127514,343,-12,343,472 F,1,125836,127514,1,0 S,0,125836,127514,1 P,0,125836,127514,A
Sprite,Foreground,Centre,"SB\snowflake.png",320,240 M,1,125929,127607,255,-12,255,481 F,1,125929,127607,1,0 S,0,125929,127607,1 P,0,125929,127607,A
Sprite,Foreground,Centre,"SB\snowflake.png",320,240 M,1,126022,127700,250,-12,250,482 F,1,126022,127700,1,0 S,0,126022,127700,1 P,0,126022,127700,A
Sprite,Foreground,Centre,"SB\snowflake.png",320,240 M,1,126115,127793,-17,-12,-17,481 F,1,126115,127793,1,0 S,0,126115,127793,1 P,0,126115,127793,A
Sprite,Foreground,Centre,"SB\snowflake.png",320,240 M,1,126208,127886,535,-12,535,475 F,1,126208,127886,1,0 S,0,126208,127886,1 P,0,126208,127886,A
Sprite,Foreground,Centre,"SB\snowflake.png",320,240 M,1,126301,127979,625,-12,625,486 F,1,126301,127979,1,0 S,0,126301,127979,1 P,0,126301,127979,A
Sprite,Foreground,Centre,"SB\snowflake.png",320,240 M,1,126394,128072,527,-12,527,478 F,1,126394,128072,1,0 S,0,126394,128072,1 P,0,126394,128072,A
Sprite,Foreground,Centre,"SB\snowflake.png",320,240 M,1,126487,128165,536,-12,536,476 F,1,126487,128165,1,0 S,0,126487,128165,1 P,0,126487,128165,A
Sprite,Foreground,Centre,"SB\snowflake.png",320,240 M,1,126580,128258,532,-12,532,475 F,1,126580,128258,1,0 S,0,126580,128258,1 P,0,126580,128258,A
Sprite,Foreground,Centre,"SB\snowflake.png",320,240 M,1,126673,128351,66,-12,66,477 F,1,126673,128351,1,0 S,0,126673,128351,1 P,0,126673,128351,A
Sprite,Foreground,Centre,"SB\snowflake.png",320,240 M,1,126766,128444,447,-12,447,477 F,1,126766,128444,1,0 S,0,126766,128444,1 P,0,126766,128444,A
Sprite,Foreground,Centre,"SB\snowflake.png",320,240 M,1,126859,128537,422,-12,422,470 F,1,126859,128537,1,0 S,0,126859,128537,1 P,0,126859,128537,A
Sprite,Foreground,Centre,"SB\snowflake.png",320,240 M,1,126952,128630,489,-12,489,485 F,1,126952,128630,1,0 S,0,126952,128630,1 P,0,126952,128630,A
Sprite,Foreground,Centre,"SB\snowflake.png",320,240 M,1,127045,128723,10,-12,10,481 F,1,127045,128723,1,0 S,0,127045,128723,1 P,0,127045,128723,A
Sprite,Foreground,Centre,"SB\snowflake.png",320,240 M,1,127138,128816,-45,-12,-45,481 F,1,127138,128816,1,0 S,0,127138,128816,1 P,0,127138,128816,A
Sprite,Foreground,Centre,"SB\snowflake.png",320,240 M,1,127231,128909,398,-12,398,470 F,1,127231,128909,1,0 S,0,127231,128909,1 P,0,127231,128909,A
Sprite,Foreground,Centre,"SB\snowflake.png",320,240 M,1,127324,129002,-83,-12,-83,473 F,1,127324,129002,1,0 S,0,127324,129002,1 P,0,127324,129002,A
Sprite,Foreground,Centre,"SB\snowflake.png",320,240 M,1,127417,129095,704,-12,704,470 F,1,127417,129095,1,0 S,0,127417,129095,1 P,0,127417,129095,A
Sprite,Foreground,Centre,"SB\snowflake.png",320,240 M,1,127510,129188,661,-12,661,483 F,1,127510,129188,1,0 S,0,127510,129188,1 P,0,127510,129188,A
Sprite,Foreground,Centre,"SB\snowflake.png",320,240 M,1,127603,129281,517,-12,517,475 F,1,127603,129281,1,0 S,0,127603,129281,1 P,0,127603,129281,A
Sprite,Foreground,Centre,"SB\snowflake.png",320,240 M,1,127696,129374,207,-12,207,482 F,1,127696,129374,1,0 S,0,127696,129374,1 P,0,127696,129374,A
Sprite,Foreground,Centre,"SB\snowflake.png",320,240 M,1,127789,129467,130,-12,130,483 F,1,127789,129467,1,0 S,0,127789,129467,1 P,0,127789,129467,A
Sprite,Foreground,Centre,"SB\snowflake.png",320,240 M,1,127882,129560,92,-12,92,481 F,1,127882,129560,1,0 S,0,127882,129560,1 P,0,127882,129560,A
Sprite,Foreground,Centre,"SB\snowflake.png",320,240 M,1,127975,129653,170,-12,170,484 F,1,127975,129653,1,0 S,0,127975,129653,1 P,0,127975,129653,A
Sprite,Foreground,Centre,"SB\snowflake.png",320,240 M,1,128068,129746,-107,-12,-107,486 F,1,128068,129746,1,0 S,0,128068,129746,1 P,0,128068,129746,A
Sprite,Foreground,Centre,"SB\snowflake.png",320,240 M,1,128161,129839,603,-12,603,477 F,1,128161,129839,1,0 S,0,128161,129839,1 P,0,128161,129839,A
Sprite,Foreground,Centre,"SB\snowflake.png",320,240 M,1,128254,129932,506,-12,506,479 F,1,128254,129932,1,0 S,0,128254,129932,1 P,0,128254,129932,A
Sprite,Foreground,Centre,"SB\snowflake.png",320,240 M,1,128347,130025,99,-12,99,470 F,1,128347,130025,1,0 S,0,128347,130025,1 P,0,128347,130025,A
Sprite,Foreground,Centre,"SB\snowflake.png",320,240 M,1,128440,130118,110,-12,110,486 F,1,128440,130118,1,0 S,0,128440,130118,1 P,0,128440,130118,A
Sprite,Foreground,Centre,"SB\snowflake.png",320,240 M,1,128533,130211,258,-12,258,474 F,1,128533,130211,1,0 S,0,128533,130211,1 P,0,128533,130211,A
Sprite,Foreground,Centre,"SB\snowflake.png",320,240 M,1,128626,130304,69,-12,69,471 F,1,128626,130304,1,0 S,0,128626,130304,1 P,0,128626,130304,A
Sprite,Foreground,Centre,"SB\snowflake.png",320,240 M,1,128719,130397,406,-12,406,484 F,1,128719,130397,1,0 S,0,128719,130397,1 P,0,128719,130397,A
Sprite,Foreground,Centre,"SB\snowflake.png",320,240 M,1,128812,130490,700,-12,700,483 F,1,128812,130490,1,0 S,0,128812,130490,1 P,0,128812,130490,A
Sprite,Foreground,Centre,"SB\snowflake.png",320,240 M,1,128905,130583,640,-12,640,481 F,1,128905,130583,1,0 S,0,128905,130583,1 P,0,128905,130583,A
Sprite,Foreground,Centre,"SB\snowflake.png",320,240 M,1,128998,130676,202,-12,202,470 F,1,128998,130676,1,0 S,0,128998,130676,1 P,0,128998,130676,A
Sprite,Foreground,Centre,"SB\snowflake.png",320,240 M,1,129091,130769,161,-12,161,476 F,1,129091,130769,1,0 S,0,129091,130769,1 P,0,129091,130769,A
Sprite,Foreground,Centre,"SB\snowflake.png",320,240 M,1,129184,130862,-59,-12,-59,471 F,1,129184,130862,1,0 S,0,129184,130862,1 P,0,129184,130862,A
Sprite,Foreground,Centre,"SB\snowflake.png",320,240 M,1,129277,130955,180,-12,180,478 F,1,129277,130955,1,0 S,0,129277,130955,1 P,0,129277,130955,A
Sprite,Foreground,Centre,"SB\snowflake.png",320,240 M,1,129370,131048,569,-12,569,470 F,1,129370,131048,1,0 S,0,129370,131048,1 P,0,129370,131048,A
Sprite,Foreground,Centre,"SB\snowflake.png",320,240 M,1,129463,131141,486,-12,486,482 F,1,129463,131141,1,0 S,0,129463,131141,1 P,0,129463,131141,A
Sprite,Foreground,Centre,"SB\snowflake.png",320,240 M,1,129556,131234,637,-12,637,476 F,1,129556,131234,1,0 S,0,129556,131234,1 P,0,129556,131234,A
Sprite,Foreground,Centre,"SB\snowflake.png",320,240 M,1,129649,131327,238,-12,238,473 F,1,129649,131327,1,0 S,0,129649,131327,1 P,0,129649,131327,A
Sprite,Foreground,Centre,"SB\bright.jpg",320,240 C,0,13503,,187,58,255 F,1,13503,13923,0.6,0 S,0,13503,13923,1 P,0,13503,13923,A
Sprite,Foreground,Centre,"SB\bright.jpg",320,240 C,0,13923,,209,159,255 F,1,13923,14343,0.6,0 S,0,13923,14343,1 P,0,13923,14343,A
Sprite,Foreground,Centre,"SB\bright.jpg",320,240 C,0,14342,,249,63,255 F,1,14342,14762,0.6,0 S,0,14342,14762,1 P,0,14342,14762,A
Sprite,Foreground,Centre,"SB\bright.jpg",320,240 C,0,14762,,199,11,255 F,1,14762,15182,0.6,0 S,0,14762,15182,1 P,0,14762,15182,A
Sprite,Foreground,Centre,"SB\bright.jpg",320,240 C,0,13503,,195,247,255 F,1,13503,13923,0.6,0 S,0,13503,13923,1 P,0,13503,13923,A
Sprite,Foreground,Centre,"SB\fog.png",320,240 F,2,57739,59418,0,0.5 M,1,57739,62776,391,900,391,-180 F,2,57739,62776,0.5,0 V,0,57739,62776,1,3 P,0,57739,62776,A
Sprite,Foreground,Centre,"SB\fog.png",320,240 F,2,58339,60018,0,0.5 M,1,58339,63376,183,900,183,-180 F,2,58339,63376,0.5,0 V,0,58339,63376,1,2 P,0,58339,63376,A
Sprite,Foreground,Centre,"SB\fog.png",320,240 F,2,59539,61218,0,0.5 M,1,59539,64576,521,900,521,-180 F,2,59539,64576,0.5,0 V,0,59539,64576,1,2,1,1 P,0,59539,64576,A
Sprite,Foreground,Centre,"SB\fog.png",320,240 F,2,60139,61818,0,0.5 M,1,60139,65176,58,900,58,-180 F,2,60139,65176,0.5,0 V,0,60139,65176,1,2 P,0,60139,65176,A
Sprite,Foreground,Centre,"SB\fog.png",320,240 F,2,61939,63618,0,0.5 M,1,61939,66976,316,900,316,-180 F,2,61939,66976,0.5,0 V,0,61939,66976,1,3 P,0,61939,66976,A
Sprite,Foreground,Centre,"SB\fog.png",320,240 F,2,63139,64818,0,0.5 M,1,63139,68176,93,900,93,-180 F,2,63139,68176,0.5,0 V,0,63139,68176,1,2 P,0,63139,68176,A
Sprite,Foreground,Centre,"SB\fog.png",320,240 F,2,64339,66018,0,0.5 M,1,64339,69376,641,900,641,-180 F,2,64339,69376,0.5,0 V,0,64339,69376,1,2,1,3 P,0,64339,69376,A
Sprite,Foreground,Centre,"SB\fog.png",320,240 F,2,65539,67218,0,0.5 M,1,65539,70576,483,900,483,-180 F,2,65539,70576,0.5,0 V,0,65539,70576,1,2,1,1 P,0,65539,70576,A
Sprite,Foreground,Centre,"SB\fog.png",320,240 F,2,66139,67818,0,0.5 M,1,66139,71176,175,900,175,-180 F,2,66139,71176,0.5,0 V,0,66139,71176,1,1,1,2 P,0,66139,71176,A
Sprite,Foreground,Centre,"SB\fog.png",320,240 F,2,67339,69018,0,0.5 M,1,67339,72376,56,900,56,-180 F,2,67339,72376,0.5,0 V,0,67339,72376,1,3,1,2 P,0,67339,72376,A
Sprite,Foreground,Centre,"SB\fog.png",320,240 F,2,67939,69618,0,0.5 M,1,67939,72976,640,900,640,-180 F,2,67939,72976,0.5,0 V,0,67939,72976,1,3 P,0,67939,72976,A
//Storyboard Sound Samples

[TimingPoints]
77,419.58041958042,4,2,1,30,1,0
16860,-100,4,2,1,50,0,0
17699,-100,4,2,10,45,0,0
17804,-100,4,2,1,50,0,0
18958,-100,4,2,10,45,0,0
19063,-100,4,2,1,50,0,0
19377,-100,4,2,10,45,0,0
19482,-100,4,2,1,50,0,0
20636,-100,4,2,10,45,0,0
20741,-100,4,2,1,50,0,0
21056,-100,4,2,10,45,0,0
21160,-100,4,2,1,50,0,0
22314,-100,4,2,10,45,0,0
22419,-100,4,2,1,50,0,0
22734,-100,4,2,10,45,0,0
22839,-100,4,2,1,50,0,0
24412,-100,4,2,10,45,0,0
24517,-100,4,2,1,50,0,0
25671,-100,4,2,11,45,0,0
25776,-100,4,2,1,50,0,0
26090,-100,4,2,11,25,0,0
26195,-100,4,2,1,30,0,0
26510,-100,4,2,1,50,0,0
26930,-100,4,2,1,50,0,0
27349,-100,4,2,11,45,0,0
27454,-100,4,2,1,50,0,0
27769,-100,4,2,10,45,0,0
27874,-100,4,2,1,50,0,0
29028,-100,4,2,11,45,0,0
29132,-100,4,2,1,50,0,0
29447,-100,4,2,10,45,0,0
29552,-100,4,2,1,50,0,0
29867,-100,4,2,1,40,0,0
30286,-100,4,2,1,50,0,0
30706,-100,4,2,11,45,0,0
30811,-100,4,2,1,50,0,0
32384,-100,4,2,11,45,0,0
32489,-100,4,2,1,50,0,0
32804,-100,4,2,11,25,0,0
32909,-100,4,2,1,30,0,0
33223,-100,4,2,1,50,0,0
33643,-100,4,2,1,50,0,0
34063,-100,4,2,11,45,0,0
34167,-100,4,2,1,50,0,0
34482,-100,4,2,10,45,0,0
34587,-100,4,2,1,50,0,0
35741,-100,4,2,11,45,0,0
35846,-100,4,2,1,50,0,0
36160,-100,4,2,11,25,0,0
36265,-100,4,2,1,30,0,0
37000,-100,4,2,1,50,0,0
39517,-100,4,2,1,30,0,0
40356,-100,4,2,1,50,0,0
43293,-100,4,2,11,45,0,0
43398,-100,4,2,1,50,0,0
44552,-100,4,2,10,45,0,0
44657,-100,4,2,1,50,0,0
45391,-100,4,2,10,45,0,0
45496,-100,4,2,1,50,0,0
47909,-100,4,2,10,45,0,0
48014,-100,4,2,1,50,0,0
49167,-100,4,2,10,45,0,0
49272,-100,4,2,1,50,0,0
50846,-100,4,2,10,45,0,0
50951,-100,4,2,1,50,0,0
51265,-100,4,2,10,45,0,0
51370,-100,4,2,1,50,0,0
52524,-100,4,2,10,45,0,0
52629,-100,4,2,1,50,0,0
52944,-100,4,2,10,45,0,0
53049,-100,4,2,1,50,0,0
54622,-100,4,2,10,45,0,0
54727,-100,4,2,1,50,0,0
57139,-100,4,2,1,40,0,0
57979,-100,4,2,10,35,0,0
58293,-100,4,2,1,40,0,0
59447,-100,4,2,10,35,0,0
59762,-100,4,2,1,40,0,0
61335,-100,4,2,10,35,0,0
61650,-100,4,2,1,40,0,0
62594,-100,4,2,10,35,0,0
62909,-100,4,2,1,40,0,0
63223,-100,4,2,10,35,0,0
63328,-100,4,2,1,40,0,0
64692,-100,4,2,10,35,0,0
65007,-100,4,2,1,40,0,0
66160,-100,4,2,10,35,0,0
66475,-100,4,2,1,40,0,0
68049,-100,4,2,10,35,0,0
68363,-100,4,2,1,40,0,0
69517,-100,4,2,10,35,0,0
69622,-100,4,2,1,40,0,0
69937,-100,4,2,10,35,0,0
70042,-100,4,2,1,40,0,0
70566,-100,4,2,1,40,0,0
83993,-100,4,2,1,60,0,1
84832,-100,4,2,10,55,0,1
84937,-100,4,2,1,60,0,1
87769,-100,4,2,10,55,0,1
87874,-100,4,2,1,60,0,1
89447,-100,4,2,10,55,0,1
89552,-100,4,2,1,60,0,1
92804,-100,4,2,11,55,0,1
92909,-100,4,2,1,60,0,1
93223,-100,4,2,11,55,0,1
93328,-100,4,2,1,60,0,1
94482,-100,4,2,11,55,0,1
94587,-100,4,2,1,60,0,1
94902,-100,4,2,11,55,0,1
95007,-100,4,2,1,60,0,1
96160,-100,4,2,11,55,0,1
96265,-100,4,2,1,60,0,1
96580,-100,4,2,11,55,0,1
96685,-100,4,2,1,60,0,1
97000,-100,4,2,1,40,0,1
97314,-100,4,2,1,60,0,0
97419,-100,4,2,1,60,0,1
99517,-100,4,2,10,55,0,1
99622,-100,4,2,1,60,0,1
99937,-100,4,2,10,55,0,1
100042,-100,4,2,1,60,0,1
101195,-100,4,2,10,55,0,1
101300,-100,4,2,1,60,0,1
101615,-100,4,2,10,55,0,1
101720,-100,4,2,1,60,0,1
102874,-100,4,2,10,55,0,1
102979,-100,4,2,1,60,0,1
103293,-100,4,2,10,55,0,1
103398,-100,4,2,1,60,0,1
104972,-100,4,2,10,55,0,1
105077,-100,4,2,1,60,0,1
106650,-100,4,2,11,55,0,1
106755,-100,4,2,1,60,0,1
107909,-100,4,2,11,55,0,1
108014,-100,4,2,1,60,0,1
108328,-100,4,2,10,55,0,1
108433,-100,4,2,1,60,0,1
109587,-100,4,2,11,55,0,1
109692,-100,4,2,1,60,0,1
110007,-100,4,2,11,55,0,1
110111,-100,4,2,1,60,0,1
110426,-100,4,2,1,40,0,1
110741,-100,4,2,1,60,0,0
110846,-100,4,2,1,60,0,1
112944,-100,4,2,11,55,0,1
113049,-100,4,2,1,60,0,1
114622,-100,4,2,11,55,0,1
114727,-100,4,2,1,60,0,1
115042,-100,4,2,10,55,0,1
115146,-100,4,2,1,60,0,1
116300,-100,4,2,11,55,0,1
116405,-100,4,2,1,60,0,1
116720,-100,4,2,11,55,0,1
116825,-100,4,2,1,60,0,1
117979,-100,4,2,11,55,0,1
118083,-100,4,2,1,60,0,1
118398,-100,4,2,10,55,0,1
118503,-100,4,2,1,60,0,1
119657,-100,4,2,11,55,0,1
119762,-100,4,2,1,60,0,1
120077,-100,4,2,11,55,0,1
120181,-100,4,2,1,60,0,1
121335,-100,4,2,11,55,0,1
121440,-100,4,2,1,60,0,1
121755,-100,4,2,10,55,0,1
121860,-100,4,2,1,60,0,1
123853,-100,4,2,1,40,0,1
124167,-100,4,2,1,60,0,0
124272,-100,4,2,1,60,0,1
125111,-100,4,2,10,55,0,1
125216,-100,4,2,1,60,0,1
126370,-100,4,2,11,55,0,1
126475,-100,4,2,1,60,0,1
126790,-100,4,2,10,55,0,1
126895,-100,4,2,1,60,0,1
128049,-100,4,2,11,55,0,1
128153,-100,4,2,1,60,0,1
128468,-100,4,2,10,55,0,1
128573,-100,4,2,1,60,0,1
129727,-100,4,2,11,55,0,1
129832,-100,4,2,1,60,0,1
130146,-100,4,2,11,55,0,1
130461,-100,4,2,1,60,0,1
131825,-100,4,2,10,55,0,1
131930,-100,4,2,1,60,0,1
133503,-100,4,2,10,55,0,1
133608,-100,4,2,1,60,0,1
134342,-100,4,2,1,50,0,1
134762,-100,4,2,11,55,0,1
134867,-100,4,2,1,50,0,1
135181,-100,4,2,10,55,0,1
135286,-100,4,2,1,50,0,1
136021,-100,4,2,1,40,0,1
136440,-100,4,2,11,35,0,1
136545,-100,4,2,1,40,0,1
136860,-100,4,2,10,35,0,1
136965,-100,4,2,1,40,0,1
137699,-100,4,2,1,40,0,0

[Colours]
Combo1 : 175,174,160
Combo2 : 64,149,181
Combo3 : 58,186,167
Combo4 : 255,47,47
Combo5 : 236,217,111

[HitObjects]
256,332,16860,5,6,1:0:0:0:
183,257,17279,2,0,P|256:229|329:257,1,160,2|2,0:0|0:0,0:0:0:0:
388,168,18538,2,0,L|404:44,2,120,2|0|2,0:0|0:0|0:0,0:0:0:0:
480,216,20216,2,0,B|448:168|372:168|372:168|244:168,1,240,2|2,0:0|0:0,0:0:0:0:
216,72,21895,2,0,L|336:72,2,120,2|0|2,0:0|0:0|0:0,0:0:0:0:
128,20,23573,5,2,0:0:0:0:
40,76,23993,2,0,B|40:156|40:156|8:176|-8:224,1,160,10|10,0:0|0:0,0:0:0:0:
96,244,25251,2,0,P|156:244|208:280,2,120,2|0|10,0:0|0:0|0:0,0:0:0:0:
128,344,26930,6,0,L|380:344,1,240,2|10,0:0|0:0,0:0:0:0:
412,252,28608,2,0,L|160:252,1,240,2|2,0:0|1:0,0:0:0:0:
92,320,30286,6,0,B|96:280|124:248|124:248|96:216|92:176,1,160,4|2,1:0|0:0,0:0:0:0:
176,116,31545,1,10,0:0:0:0:
264,60,31965,2,0,B|300:60|300:60|348:60|380:92,2,120,2|0|10,0:0|0:0|0:0,0:0:0:0:
308,156,33643,6,0,B|308:252|204:252|204:364,1,240,2|10,0:0|0:0,0:0:0:0:
308,364,35321,2,0,B|308:252|204:252|204:156,1,240,2|10,0:0|0:0,0:0:0:0:
256,64,37000,5,2,0:0:0:0:
307,156,37419,1,8,0:0:0:0:
256,356,38258,1,10,0:0:0:0:
204,156,39097,1,10,0:0:0:0:
352,300,39937,1,10,0:0:0:0:
256,260,40356,5,2,0:0:0:0:
160,300,40776,2,0,B|124:280|124:280|72:280,1,80,10|2,0:0|0:0,0:0:0:0:
28,192,41615,1,10,0:0:0:0:
85,104,42035,2,0,B|124:104|124:104|160:84,1,80,2|10,0:0|0:0,0:0:0:0:
256,40,42874,2,0,P|336:40|392:96,1,160,2|6,0:0|0:0,0:0:0:0:
340,184,44132,6,0,L|500:116,2,160,2|2|2,0:0|0:0|0:0,0:0:0:0:
372,284,46230,2,0,L|298:314,1,80,2|2,0:0|0:0,0:0:0:0:
197,284,47070,5,2,0:0:0:0:
132,364,47489,2,0,P|60:364|0:304,1,160,2|2,0:0|0:0,0:0:0:0:
100,268,48748,2,0,B|124:192|124:192|100:116,1,160,2|2,0:0|0:0,0:0:0:0:
4,72,50007,1,2,0:0:0:0:
92,20,50426,6,0,B|204:20|204:20|220:24|220:24|344:24,1,240,2|2,0:0|0:0,0:0:0:0:
436,52,52104,2,0,P|316:52|316:148,1,240,2|2,0:0|0:0,0:0:0:0:
392,216,53783,5,2,0:0:0:0:
320,292,54202,2,0,B|296:320|256:339|256:339|216:320|192:292,1,160,2|2,0:0|0:0,0:0:0:0:
120,216,55461,1,2,0:0:0:0:
48,140,55881,2,0,B|80:112|80:112|80:72,1,80,2|2,0:0|0:0,0:0:0:0:
168,16,56720,1,2,0:0:0:0:
256,72,57139,6,0,P|344:72|344:200,1,240,4|0,0:0|1:2,0:0:0:0:
436,256,58818,2,0,B|408:200|324:200|372:200|200:200,1,240,2|0,0:0|1:0,0:0:0:0:
120,248,60496,6,0,B|148:304|232:304|184:304|356:304,1,240,2|0,0:0|1:0,0:0:0:0:
436,256,62174,2,0,P|348:256|348:128,1,240,2|0,0:0|1:0,0:0:0:0:
432,76,63853,6,0,B|352:76|352:76|272:64|272:64|188:64,1,240,2|0,0:0|1:0,0:0:0:0:
150,160,65531,2,0,P|89:256|150:352,1,240,2|0,0:0|1:0,0:0:0:0:
194,256,67209,6,0,P|255:160|194:64,1,240,2|0,0:0|1:0,0:0:0:0:
150,160,68888,2,0,L|402:160,1,240,2|0,0:0|1:0,0:0:0:0:
450,244,70566,5,4,1:0:0:0:
48,344,83993,5,6,1:2:0:0:
128,280,84412,2,0,B|196:320|196:320|292:320,1,160,2|2,0:0|0:0,0:0:0:0:
364,264,85671,2,0,P|392:216|392:176,1,80,2|2,0:0|0:0,0:0:0:0:
288,188,86511,2,0,P|260:140|260:100,1,80,2|2,0:0|0:0,0:0:0:0:
332,44,87349,6,0,L|168:52,1,160,2|2,0:0|0:0,0:0:0:0:
96,124,88608,1,2,0:0:0:0:
20,196,89028,2,0,B|56:232|112:228|112:228|104:256|112:288,1,160,2|2,0:0|0:0,0:0:0:0:
184,364,90286,1,10,0:0:0:0:
256,288,90706,6,0,B|296:288|296:288|332:312,1,80,10|10,0:0|0:0,0:0:0:0:
412,372,91545,1,10,0:0:0:0:
496,312,91965,1,10,0:0:0:0:
412,252,92384,2,0,P|394:196|412:140,2,120,10|0|10,0:0|0:0|0:0,0:0:0:0:
500,196,94063,6,0,P|518:140|500:84,2,120,10|0|10,0:0|0:0|0:0,0:0:0:0:
412,140,95741,2,0,B|372:86|294:86|294:86|188:86,1,240,10|10,0:0|1:0,0:0:0:0:
115,12,97419,5,4,1:0:0:0:
40,84,97839,2,0,B|40:124|40:124|68:156,1,80,2|2,0:0|0:0,0:0:0:0:
128,240,98678,1,2,0:0:0:0:
204,312,99097,2,0,P|104:344|24:248,1,240,2|2,0:0|0:0,0:0:0:0:
128,240,100776,6,0,P|228:208|308:304,1,240,2|2,0:0|0:0,0:0:0:0:
204,312,102454,2,0,L|281:78,1,240,2|2,0:0|0:0,0:0:0:0:
376,48,104132,5,2,0:0:0:0:
444,128,104552,2,0,B|452:172|487:192|487:192|452:212|444:256,1,160,8|8,0:0|0:0,0:0:0:0:
352,304,105811,1,2,0:0:0:0:
256,344,106230,2,0,B|248:300|213:280|213:280|248:260|256:216,1,160,8|8,0:0|0:0,0:0:0:0:
356,192,107489,6,0,L|116:192,1,240,2|8,0:0|0:0,0:0:0:0:
152,96,109167,2,0,L|392:96,1,240,2|8,0:0|0:0,0:0:0:0:
436,192,110846,5,6,0:0:0:0:
475,288,111265,2,0,P|436:294|397:287,2,80,10|2|10,0:0|0:0|0:0,0:0:0:0:
436,192,112524,2,0,B|392:168|340:196|340:196|328:168|296:152,1,160,2|10,0:0|0:0,0:0:0:0:
216,92,113783,1,10,0:0:0:0:
132,32,114202,6,0,B|84:32|84:32|48:32|12:56,2,120,2|0|10,0:0|0:0|0:0,0:0:0:0:
216,92,115881,2,0,B|264:92|264:92|300:92|336:68,2,120,2|0|10,0:0|0:0|0:0,0:0:0:0:
132,32,117559,6,0,L|256:237,1,240,2|10,0:0|0:0,0:0:0:0:
348,276,119237,2,0,P|256:341|164:276,1,240,2|10,0:0|0:0,0:0:0:0:
255,237,120916,6,0,L|377:30,1,240,2|10,0:0|0:0,0:0:0:0:
440,112,122594,1,2,0:0:0:0:
508,192,123014,2,0,B|472:212|472:212|448:248,2,80,10|2|10,0:0|0:0|1:0,0:0:0:0:
440,112,124272,5,6,0:0:0:0:
376,32,124692,2,0,B|316:32|316:32|268:32|228:72,1,160,10|10,0:0|0:0,0:0:0:0:
144,132,125951,2,0,P|126:76|144:20,2,120,2|0|10,0:0|0:0|0:0,0:0:0:0:
188,224,127629,6,0,P|206:280|188:336,2,120,2|0|10,0:0|0:0|0:0,0:0:0:0:
100,280,129307,2,0,L|344:280,1,240,2|10,0:0|0:0,0:0:0:0:
396,192,130986,5,2,0:0:0:0:
332,112,131405,2,0,B|256:136|256:136|180:112,1,160,10|10,0:0|0:0,0:0:0:0:
116,192,132664,1,2,0:0:0:0:
180,272,133083,2,0,B|256:248|256:248|332:272,1,160,10|10,0:0|0:0,0:0:0:0:
256,348,134342,6,0,L|16:348,1,240,2|10,0:0|0:0,0:0:0:0:
48,240,136021,2,0,L|288:240,1,240,2|2,0:0|0:0,0:0:0:0:
320,140,137699,5,6,1:2:0:0:
