osu file format v14

[General]
AudioFilename: Meoww.mp3
AudioLeadIn: 3000
PreviewTime: 39873
Countdown: 0
SampleSet: Soft
StackLeniency: 0.7
Mode: 0
LetterboxInBreaks: 0
WidescreenStoryboard: 0

[Editor]
DistanceSpacing: 0.9
BeatDivisor: 4
GridSize: 4
TimelineZoom: 2.899999

[Metadata]
Title:A Meow Mix (Electronic Dance Version)
TitleUnicode:A Meow Mix (Electronic Dance Version)
Artist:DJ Ashworth
ArtistUnicode:DJ Ashworth
Creator:Euny
Version:Meoooooooow
Source:
Tags:Electronic House ByBy_ChAn Lanturn Pjecoo appleeaterx P_A_N
BeatmapID:692031
BeatmapSetID:309583

[Difficulty]
HPDrainRate:7.5
CircleSize:4
OverallDifficulty:7.5
ApproachRate:9
SliderMultiplier:2.2
SliderTickRate:1

[Events]
//Background and Video events
Video,0,"MeowMix.avi"
0,0,"bg.jpg",0,0
//Break Periods
//Storyboard Layer 0 (Background)
//Storyboard Layer 1 (Fail)
//Storyboard Layer 2 (Pass)
//Storyboard Layer 3 (Foreground)
//Storyboard Sound Samples

[TimingPoints]
29,468.75,4,2,1,50,1,0
7529,-100,4,2,3,50,0,0
7997,-100,4,2,2,50,0,0
8232,-100,4,2,1,50,0,0
8935,-100,4,2,2,50,0,0
9169,-100,4,2,1,50,0,0
9872,-100,4,2,2,50,0,0
10107,-100,4,2,1,50,0,0
10810,-100,4,2,2,50,0,0
11044,-100,4,2,1,50,0,0
11747,-100,4,2,2,50,0,0
11982,-100,4,2,1,50,0,0
12685,-100,4,2,2,50,0,0
12919,-100,4,2,1,50,0,0
13622,-100,4,2,2,50,0,0
13857,-100,4,2,1,50,0,0
14560,-100,4,2,2,50,0,0
15029,-100,4,2,1,30,0,0
15497,-100,4,2,1,35,0,0
15966,-100,4,2,1,40,0,0
16435,-100,4,2,1,50,0,0
16904,-100,4,2,1,54,0,0
17372,-100,4,2,1,61,0,0
17841,-100,4,2,1,67,0,0
18310,-100,4,2,1,69,0,0
18779,-100,4,2,1,77,0,0
22529,-166.666666666667,4,2,3,50,0,0
30029,-142.857142857143,4,2,1,50,0,0
31904,-125,4,2,1,50,0,0
33779,-111.111111111111,4,2,1,50,0,0
35654,-100,4,2,1,50,0,0
41279,-142.857142857143,4,2,3,65,0,1
41747,-90.9090909090909,4,2,1,65,0,1
42685,-66.6666666666667,4,2,1,65,0,1
45029,-125,4,2,1,65,0,1
45497,-83.3333333333333,4,2,1,65,0,1
46435,-66.6666666666667,4,2,1,65,0,1
46904,-83.3333333333333,4,2,1,65,0,1
48779,-125,4,2,2,65,0,1
49247,-83.3333333333333,4,2,2,65,0,1
50185,-66.6666666666667,4,2,2,65,0,1
52529,-125,4,2,2,65,0,1
52997,-76.9230769230769,4,2,2,65,0,1
53935,-66.6666666666667,4,2,2,65,0,1
54404,-83.3333333333333,4,3,1,50,0,0
55810,-66.6666666666667,4,2,2,50,0,0
56279,-111.111111111111,4,2,3,65,0,1
56747,-76.9230769230769,4,2,1,65,0,1
57685,-66.6666666666667,4,2,1,65,0,1
58154,-66.6666666666667,4,2,1,65,0,1
60029,-111.111111111111,4,2,1,65,0,1
60497,-76.9230769230769,4,2,1,65,0,1
61435,-66.6666666666667,4,2,1,65,0,1
61904,-76.9230769230769,4,2,1,65,0,1
63779,-111.111111111111,4,2,1,65,0,1
64247,-76.9230769230769,4,2,1,65,0,1
65185,-66.6666666666667,4,2,1,65,0,1
65654,-76.9230769230769,4,2,1,65,0,1
67060,-66.6666666666667,4,2,1,65,0,1
67529,-111.111111111111,4,2,1,65,0,1
67997,-76.9230769230769,4,2,1,65,0,1
68935,-66.6666666666667,4,2,1,65,0,1
69404,-83.3333333333333,4,3,1,50,0,0
70810,-66.6666666666667,4,2,2,50,0,0
71279,-100,4,2,1,50,0,0
71357,468.75,4,2,1,50,1,0
71708,468.75,4,2,1,50,1,0
73114,-100,4,2,3,20,0,0

[Colours]
Combo1 : 255,2,129
Combo2 : 255,172,214

[HitObjects]
112,176,29,6,0,B|168:184|200:152|216:132|216:132|266:139|248:184|212:212,1,220,2|8,0:0|0:0,0:0:0:0:
128,68,732,1,0,0:0:0:0:
292,64,966,2,0,P|332:144|268:272,1,220,2|8,0:0|0:0,0:0:0:0:
412,152,1669,1,0,0:0:0:0:
428,317,1904,6,0,L|224:233,1,220,2|8,0:0|0:0,0:0:0:0:
70,172,2607,1,0,0:0:0:0:
121,328,2841,2,0,P|208:274|210:151,1,220,2|8,0:0|0:0,0:0:0:0:
139,18,3544,1,0,0:0:0:0:
277,108,3779,6,0,B|351:146|351:146|406:174|456:130|423:86,1,220,2|8,0:0|0:0,0:0:0:0:
270,21,4482,1,0,0:0:0:0:
368,153,4716,2,0,P|362:265|241:307,1,220,2|8,0:0|0:0,0:0:0:0:
210,159,5419,1,0,0:0:0:0:
85,50,5654,5,2,0:0:0:0:
58,212,5888,1,0,0:0:0:0:
209,158,6122,2,0,P|224:210|213:264,1,110,8|0,0:0|0:0,0:0:0:0:
378,258,6591,2,0,P|363:206|374:152,1,110,2|0,0:0|0:0,0:0:0:0:
493,38,7059,1,8,0:0:0:0:
487,202,7293,1,0,0:0:0:0:
273,149,7529,6,0,P|257:81|322:19,1,165,4|0,0:0|0:0,0:0:0:0:
376,16,7997,1,8,0:0:0:0:
376,16,8232,1,0,0:0:0:0:
265,229,8466,2,0,P|206:192|208:103,1,165,2|0,0:0|0:0,0:0:0:0:
240,60,8934,1,8,0:0:0:0:
240,60,9169,1,0,0:0:0:0:
316,292,9404,6,0,P|248:307|186:242,1,165,2|0,0:0|0:0,0:0:0:0:
184,188,9872,1,8,0:0:0:0:
184,188,10107,1,0,0:0:0:0:
394,301,10341,6,0,P|356:359|266:357,1,165,2|0,0:0|0:0,0:0:0:0:
224,324,10809,1,8,0:0:0:0:
224,324,11044,1,0,0:0:0:0:
109,204,11279,6,0,P|121:144|214:116,1,165,2|0,0:0|0:0,0:0:0:0:
263,140,11747,1,8,0:0:0:0:
123,258,11982,1,0,0:0:0:0:
287,238,12216,2,0,B|310:198|291:114|291:114|255:146,1,165,2|0,0:0|0:0,0:0:0:0:
223,180,12685,1,8,0:0:0:0:
365,262,12919,1,0,0:0:0:0:
405,101,13154,6,0,B|356:64|356:64|337:47|329:9|329:9|302:29|273:37,1,165,2|0,0:0|0:0,0:0:0:0:
256,74,13622,1,8,0:0:0:0:
198,229,13857,1,0,0:0:0:0:
365,262,14091,2,0,L|407:96,1,165,2|0,0:0|0:0,0:0:0:0:
420,47,14560,1,8,0:0:0:0:
256,74,14794,1,0,0:0:0:0:
256,210,15029,5,2,1:2:0:0:
391,303,15263,1,8,1:2:0:0:
184,312,15497,5,2,1:2:0:0:
396,184,15732,1,8,1:2:0:0:
324,332,15966,5,2,1:2:0:0:
164,144,16200,1,8,1:2:0:0:
72,280,16435,5,2,1:2:0:0:
288,160,16669,1,8,1:2:0:0:
209,302,16904,5,2,1:2:0:0:
44,144,17138,1,8,1:2:0:0:
131,350,17372,5,2,1:2:0:0:
281,65,17607,1,8,1:2:0:0:
92,199,17841,5,2,1:2:0:0:
408,192,18075,1,8,1:2:0:0:
386,13,18310,5,2,1:2:0:0:
304,352,18544,1,8,1:2:0:0:
140,232,18779,6,0,P|125:257|102:268,3,55,2|0|8|0,1:2|1:2|1:2|1:2,1:2:0:0:
92,188,19247,6,0,P|67:203|41:201,3,55,2|0|8|0,1:2|1:2|1:2|1:2,1:2:0:0:
80,128,19716,6,0,P|50:128|29:114,3,55,2|0|8|0,1:2|1:2|1:2|1:2,1:2:0:0:
104,72,20185,6,0,P|78:57|67:34,3,55,2|0|8|0,1:2|1:2|1:2|1:2,1:2:0:0:
148,60,20654,5,2,1:2:0:0:
168,60,20771,1,0,1:2:0:0:
188,72,20888,1,8,1:2:0:0:
212,88,21005,1,0,1:2:0:0:
232,112,21122,5,2,1:2:0:0:
244,144,21239,1,0,1:2:0:0:
252,188,21357,1,8,1:2:0:0:
244,232,21474,1,0,1:2:0:0:
244,280,21591,5,2,1:2:0:0:
278,322,21708,1,0,1:2:0:0:
332,340,21825,1,8,1:2:0:0:
392,312,21943,1,0,1:2:0:0:
432,256,22060,5,4,3:3:0:0:
188,72,22529,6,0,P|156:96|128:132,1,65.9999979858399,4|0,0:0|0:0,0:0:0:0:
172,208,22997,2,0,P|199:189|222:166,1,65.9999979858399,2|0,0:0|0:0,0:0:0:0:
304,108,23466,2,0,L|320:176,1,65.9999979858399,2|0,0:0|0:0,0:0:0:0:
416,200,23935,2,0,L|400:135,1,65.9999979858399,2|0,0:0|0:0,0:0:0:0:
400,36,24404,5,2,0:0:0:0:
400,36,24638,1,0,0:0:0:0:
304,16,24872,2,0,P|271:21|244:40,1,65.9999979858399,2|0,0:0|0:0,0:0:0:0:
212,132,25341,1,2,0:0:0:0:
212,132,25575,1,0,0:0:0:0:
208,232,25810,2,0,P|175:226|148:208,1,65.9999979858399,2|0,0:0|0:0,0:0:0:0:
84,132,26279,6,0,L|56:200,1,65.9999979858399,2|0,0:0|0:0,0:0:0:0:
44,292,26747,2,0,P|71:273|103:268,1,65.9999979858399,2|0,0:0|0:0,0:0:0:0:
180,332,27216,1,2,0:0:0:0:
180,332,27450,1,0,0:0:0:0:
208,232,27685,2,0,L|204:152,1,65.9999979858399,2|0,0:0|0:0,0:0:0:0:
288,112,28154,6,0,L|291:177,1,65.9999979858399,2|0,0:0|0:0,0:0:0:0:
316,272,28622,2,0,P|346:260|369:236,1,65.9999979858399,2|0,0:0|0:0,0:0:0:0:
384,140,29091,1,2,0:0:0:0:
384,140,29325,1,0,0:0:0:0:
420,48,29560,2,0,L|354:50,1,65.9999979858399,2|0,0:0|0:0,0:0:0:0:
240,32,30029,5,8,0:0:0:0:
228,148,30263,1,0,0:0:0:0:
152,60,30497,1,8,0:0:0:0:
140,176,30731,1,0,0:0:0:0:
316,100,30966,5,8,0:0:0:0:
332,212,31200,1,0,0:0:0:0:
416,132,31435,1,8,0:0:0:0:
432,244,31669,1,0,0:0:0:0:
140,176,31904,5,8,0:0:0:0:
124,308,32138,1,0,0:0:0:0:
48,200,32372,1,8,0:0:0:0:
32,332,32606,1,0,0:0:0:0:
332,212,32841,5,8,0:0:0:0:
352,344,33075,1,0,0:0:0:0:
444,248,33310,1,8,0:0:0:0:
464,380,33544,1,0,0:0:0:0:
332,212,33779,6,0,P|349:194|369:180,3,49.4999984893799,8|0|0|0,0:0|0:0|0:0|0:0,0:0:0:0:
393,142,34247,6,0,P|394:117|391:90,3,49.4999984893799,8|0|0|0,0:0|0:0|0:0|0:0,0:0:0:0:
350,75,34716,6,0,P|325:74|301:69,3,49.4999984893799,8|0|0|0,0:0|0:0|0:0|0:0,0:0:0:0:
256,69,35185,6,0,P|248:94|230:118,3,49.4999984893799,8|0|0|0,0:0|0:0|0:0|0:0,0:0:0:0:
229,152,35654,5,8,0:0:0:0:
240,176,35771,1,0,0:0:0:0:
241,206,35888,1,0,0:0:0:0:
229,236,36005,1,0,0:0:0:0:
209,266,36122,5,8,0:0:0:0:
174,281,36239,1,0,0:0:0:0:
127,281,36357,1,0,0:0:0:0:
87,253,36474,1,0,0:0:0:0:
66,208,36591,5,8,0:0:0:0:
75,159,36708,1,0,0:0:0:0:
113,126,36825,1,0,0:0:0:0:
163,116,36943,1,0,0:0:0:0:
216,128,37060,5,8,0:0:0:0:
240,176,37177,1,0,0:0:0:0:
262,226,37294,1,0,0:0:0:0:
307,257,37411,1,0,0:0:0:0:
362,253,37529,5,8,0:0:0:0:
152,200,37763,1,8,0:0:0:0:
344,116,37997,5,8,0:0:0:0:
208,313,38232,1,8,0:0:0:0:
160,108,38466,5,8,0:0:0:0:
412,232,38700,1,8,0:0:0:0:
152,200,38935,5,8,0:0:0:0:
424,119,39169,1,8,0:0:0:0:
160,108,39404,5,2,0:0:0:0:
128,112,39521,1,0,0:0:0:0:
100,132,39638,1,8,0:0:0:0:
76,168,39755,1,0,0:0:0:0:
72,212,39872,5,2,0:0:0:0:
88,252,39989,1,0,0:0:0:0:
132,284,40107,1,8,0:0:0:0:
188,276,40224,1,0,0:0:0:0:
224,232,40341,5,2,0:0:0:0:
248,176,40458,1,0,0:0:0:0:
296,140,40575,1,8,0:0:0:0:
356,132,40693,1,0,0:0:0:0:
404,168,40810,5,2,0:0:0:0:
432,220,40927,1,0,0:0:0:0:
436,280,41044,1,8,0:0:0:0:
400,328,41161,1,0,0:0:0:0:
344,352,41279,6,0,B|332:260|332:260|316:288,1,115.49999647522,4|0,0:0|0:0,0:0:0:0:
278,313,41747,5,2,0:0:0:0:
432,220,41982,1,2,0:0:0:0:
296,140,42216,1,2,0:0:0:0:
436,280,42450,1,2,0:0:0:0:
275,52,42685,6,0,P|378:101|350:212,1,247.500009441376,2|0,0:0|0:0,0:0:0:0:
303,251,43154,5,2,0:0:0:0:
80,196,43388,1,2,0:0:0:0:
296,140,43622,1,2,0:0:0:0:
80,196,43857,1,2,0:0:0:0:
248,344,44091,1,2,0:0:0:0:
80,196,44325,1,2,0:0:0:0:
303,251,44560,6,0,B|316:200|296:140|296:140|346:186|414:203,1,247.500009441376,2|0,0:0|0:0,0:0:0:0:
459,264,45029,6,0,P|487:222|452:141,1,132
416,116,45497,5,2,0:0:0:0:
172,132,45732,1,2,0:0:0:0:
340,40,45966,1,2,0:0:0:0:
153,230,46200,1,2,0:0:0:0:
214,58,46435,6,0,P|101:80|109:193,1,247.500009441376,2|0,0:0|0:0,0:0:0:0:
153,230,46904,5,2,0:0:0:0:
214,58,47138,1,2,0:0:0:0:
56,144,47372,1,2,0:0:0:0:
249,196,47607,1,2,0:0:0:0:
408,100,47841,1,2,0:0:0:0:
249,196,48075,1,2,0:0:0:0:
135,48,48310,2,0,L|144:113,1,65.9999979858399,2|0,0:0|0:0,0:0:0:0:
249,196,48544,2,0,L|239:130,1,65.9999979858399,2|0,0:0|0:0,0:0:0:0:
214,58,48779,6,0,P|270:60|314:125,1,132,8|0,0:0|0:0,0:0:0:0:
324,173,49247,5,8,0:0:0:0:
244,345,49482,1,0,0:0:0:0:
136,272,49716,1,8,0:0:0:0:
399,209,49950,1,0,0:0:0:0:
244,142,50185,6,0,P|280:238|400:209,1,247.500009441376,8|0,0:0|0:0,0:0:0:0:
427,159,50654,5,8,0:0:0:0:
136,272,50888,1,0,0:0:0:0:
120,69,51122,1,8,0:0:0:0:
208,280,51357,1,0,0:0:0:0:
295,65,51591,1,8,0:0:0:0:
77,132,51825,1,0,0:0:0:0:
295,210,52060,2,0,P|403:163|352:49,1,247.500009441376,8|0,0:0|0:0,0:0:0:0:
295,65,52529,6,0,B|297:101|329:132|329:132|281:134|254:146,1,132,8|0,0:0|0:0,0:0:0:0:
225,161,52997,5,8,0:0:0:0:
200,40,53232,1,0,0:0:0:0:
340,264,53466,1,8,0:0:0:0:
152,237,53700,1,0,0:0:0:0:
295,65,53935,6,0,P|408:127|361:238,1,247.500009441376,8|0,0:0|0:0,0:0:0:0:
340,264,54404,5,4,0:0:0:0:
340,264,54521,1,0,0:0:0:0:
183,150,54755,1,8,0:0:0:0:
183,150,54872,1,8,0:0:0:0:
48,295,55107,1,0,0:0:0:0:
243,323,55341,1,8,0:0:0:0:
243,323,55458,1,0,0:0:0:0:
18,29,55810,6,0,B|-27:56|-3:121|61:112|61:112|93:68|159:67,1,247.500009441376,8|0,0:3|0:0,0:0:0:0:
183,150,56279,6,0,P|117:163|129:229,1,148.49999546814,4|0,0:0|0:0,0:0:0:0:
166,268,56747,5,10,0:0:0:0:
382,236,56982,1,2,0:0:0:0:
183,150,57216,1,2,0:0:0:0:
312,352,57450,1,2,0:0:0:0:
183,150,57685,6,0,B|236:160|264:100|264:100|364:112|340:240,1,247.500009441376,10|0,0:0|0:0,0:0:0:0:
332,256,58154,5,2,0:0:0:0:
88,252,58388,1,2,0:0:0:0:
264,100,58622,1,10,0:0:0:0:
148,304,58857,1,2,0:0:0:0:
184,104,59091,1,2,0:0:0:0:
276,308,59325,1,2,0:0:0:0:
436,32,59560,2,0,B|450:66|435:100|414:122|414:122|402:165|431:201|431:201|411:241|418:279,1,247.500009441376,10|0,0:0|0:0,0:0:0:0:
345,312,60029,6,0,B|321:268|341:212|341:212|325:180|329:152,1,148.49999546814
302,124,60497,5,10,0:0:0:0:
416,263,60732,1,2,0:0:0:0:
114,224,60966,1,2,0:0:0:0:
302,124,61200,1,2,0:0:0:0:
159,303,61435,6,0,P|46:285|49:158,1,247.500009441376,10|0,0:0|0:0,0:0:0:0:
79,127,61904,5,2,0:0:0:0:
221,252,62138,1,2,0:0:0:0:
144,76,62372,1,10,0:0:0:0:
159,303,62607,1,2,0:0:0:0:
68,44,62841,1,2,0:0:0:0:
232,328,63076,1,2,0:0:0:0:
204,120,63310,2,0,P|223:91|255:75,1,71.4999967269899,10|0,0:0|0:0,0:0:0:0:
345,168,63544,2,0,P|328:199|300:220,1,71.4999967269899
374,265,63779,6,0,P|410:222|424:120,1,148.49999546814
409,78,64247,5,10,0:0:0:0:
213,172,64482,1,2,0:0:0:0:
404,320,64716,1,2,0:0:0:0:
409,78,64950,1,2,0:0:0:0:
213,172,65185,6,0,B|249:139|316:184|316:184|335:232|377:262|426:248,1,247.500009441376,10|0,0:0|0:0,0:0:0:0:
476,228,65654,5,2,0:0:0:0:
248,242,65888,1,2,0:0:0:0:
406,160,66122,1,10,0:0:0:0:
263,54,66357,1,2,0:0:0:0:
190,300,66591,1,2,0:0:0:0:
112,60,66825,1,2,0:0:0:0:
174,218,67060,6,0,B|102:221|59:176|61:118|61:118|91:142|142:137,1,247.500009441376,10|0,0:0|0:0,0:0:0:0:
215,147,67529,6,0,B|217:103|186:77|186:77|190:53|183:32|183:32|239:55,1,148.49999546814
263,54,67997,5,10,0:0:0:0:
199,316,68232,1,2,0:0:0:0:
347,162,68466,1,2,0:0:0:0:
135,64,68700,1,2,0:0:0:0:
250,243,68935,6,0,P|360:289|457:221,1,247.500009441376,10|0,0:0|0:0,0:0:0:0:
479,165,69404,5,4,0:0:0:0:
479,165,69521,1,0,0:0:0:0:
314,55,69755,1,0,0:0:0:0:
314,55,69872,1,8,0:0:0:0:
250,243,70107,1,0,0:0:0:0:
135,64,70341,1,8,0:0:0:0:
135,64,70458,1,0,0:0:0:0:
479,165,70810,6,0,P|514:254|390:304,1,247.500009441376,8|0,0:3|0:0,0:0:0:0:
256,192,71279,12,4,73114,0:0:0:0:
