osu file format v9

[General]
AudioFilename: AAA.mp3
AudioLeadIn: 0
PreviewTime: 95250
Countdown: 0
SampleSet: Soft
StackLeniency: 0.7
Mode: 0
LetterboxInBreaks: 1

[Editor]
Bookmarks: 18000,24000,36000,48000,60000,72000,84000,94500,95250,96000,107250,108000,113250,117007,121507,121601,121695
DistanceSpacing: 1.2
BeatDivisor: 4
GridSize: 8

[Metadata]
Title:AAA
Artist:DJ Amuro remixed by DM Ashura
Creator:Clickz
Version:Normal
Source:IIDX Remix
Tags:eveless yangzd88 wmfchris

[Difficulty]
HPDrainRate:2
CircleSize:3
OverallDifficulty:2
ApproachRate:2
SliderMultiplier:0.8
SliderTickRate:1

[Events]
//Background and Video events
0,0,"BG.png"
//Break Periods
2,48210,58450
2,72210,82450
//Storyboard Layer 0 (Background)
//Storyboard Layer 1 (Fail)
//Storyboard Layer 2 (Pass)
//Storyboard Layer 3 (Foreground)
//Storyboard Sound Samples
//Background Colour Transformations
3,100,255,255,255

[TimingPoints]
10,375,4,2,0,100,1,0
24010,-100,4,2,0,100,0,1
24292,-100,4,2,2,67,0,0
36010,-100,4,2,2,100,0,1
36199,-100,4,2,2,71,0,0
42010,-100,4,2,2,100,0,1
42200,-100,4,2,2,65,0,0
48010,-100,4,2,2,100,0,1
48200,-100,4,2,2,100,0,0
60010,-100,4,2,2,100,0,1
60107,-100,4,2,1,67,0,0
72010,-100,4,2,1,100,0,1
72202,-100,4,2,1,70,0,0
84010,-100,4,2,1,100,0,1
84109,-100,4,2,1,67,0,0
94422,-100,4,2,2,92,0,0
95219,-100,4,2,2,35,0,0
96010,-100,4,2,2,100,0,1
96156,-100,4,2,2,65,0,0
108010,-100,4,2,2,65,0,1
108204,-100,4,2,2,65,0,0
113079,-100,4,2,1,65,0,0
113923,-100,4,2,2,65,0,0
119454,-100,4,2,2,65,0,0
120010,-100,4,2,2,100,0,1
121330,-100,4,2,1,0,0,1
121510,-100,4,2,1,0,0,0

[Colours]
Combo1 : 157,206,255
Combo2 : 0,0,255

[HitObjects]
256,192,18010,12,4,24010
400,152,24385,6,0,B|399:209|369:243,1,80,8|2
288,200,25135,2,0,B|274:267|234:293,1,80,8|2
168,240,25885,2,0,B|142:296|91:314,2,80,8|2|8
240,176,27010,6,0,B|205:146,4,40,2|2|8|2|2
248,272,28135,1,8
328,224,28510,2,2,B|361:252,4,40,2|2|8|2|2
240,176,29635,1,8
160,232,30010,5,2
87,168,30385,2,0,B|24:180,2,40,8|2|2
60,75,31135,1,8
152,49,31510,1,2
178,141,31885,2,0,B|218:125,2,40,8|2|2
246,226,32635,1,8
359,201,33010,5,2
408,118,33385,2,0,B|434:80,2,40,8|2|2
359,201,34135,1,8
265,198,34510,2,0,B|213:197,4,40,2|2|8|2|2
359,201,35635,1,8
331,292,36010,6,0,B|283:304|236:289,1,80,6|8
169,244,36760,2,0,B|124:231|61:251,1,80,2|8
103,148,37510,2,0,B|163:136|200:156,1,80,2|8
278,148,38260,2,0,B|310:187,2,40,2|2|8
228,65,39010,5,2
323,54,39385,2,0,B|386:36,2,40,8|2|2
228,65,40135,1,8
132,65,40510,2,0,B|86:64,4,40,2|2|8|2|2
184,145,41635,2,0,B|222:181|276:182,1,80,12|6
348,200,42385,6,0,B|410:190|456:206,1,80,8|2
383,284,43135,2,0,B|335:301|289:278,1,80,8|2
249,205,43885,2,0,B|200:205,2,40,8|2|2
341,177,44635,2,0,B|402:156|408:102,1,80,8|2
348,47,45385,6,0,B|318:6,2,40,8|2|2
274,108,46135,1,8
342,176,46510,2,0,B|331:226,4,40,2|2|8|2|2
274,108,47635,1,8
181,81,48010,5,4
152,94,60010,6,0,B|119:64,4,40,4|2|8|2|0
244,121,61135,2,0,B|332:130,1,80,10|0
397,190,61885,2,0,B|470:206,2,40,8|2|0
306,221,62635,2,0,B|299:272,2,40,10|2|0
324,126,63385,5,8
228,119,63760,2,0,B|168:115|117:135,1,80,2|10
97,206,64510,2,0,B|147:188|196:204,1,80,0|10
147,290,65260,2,0,B|149:334,4,40,0|2|10|2|0
123,196,66385,6,0,B|97:131|109:100,1,80,8|2
199,138,67135,2,0,B|203:75|232:56,1,80,10|0
294,127,67885,2,0,B|331:80|373:68,1,80,8|0
393,162,68635,2,0,B|444:172,2,40,10|2|0
357,251,69385,5,8
298,166,69760,2,0,B|232:165|200:182,1,80,2|10
261,260,70510,2,0,B|219:287|196:320,1,80,0|8
117,265,71260,2,0,B|68:264,2,40,2|2|10
125,169,72010,5,4
150,88,84010,6,0,B|116:60,2,40,4|2|8
197,171,84760,2,0,B|234:214|268:220,1,80,0|10
279,124,85510,2,0,B|300:76,2,40,2|0|8
352,186,86260,2,0,B|408:216,4,40,0|2|10|2|0
344,281,87385,5,10
249,299,87760,2,0,B|200:312|148:293,1,80,0|10
119,217,88510,2,0,B|169:190|207:223,1,80,2|10
171,121,89260,2,0,B|141:88,4,40,0|2|10|2|0
264,142,90385,5,10
354,175,90760,2,0,B|408:176|447:197,1,80,0|10
384,273,91510,2,0,B|321:283|288:242,1,80,0|10
225,209,92260,2,0,B|174:212,4,40,0|2|10|2|0
303,153,93385,6,0,B|358:122|407:106,1,80,8|2
297,60,94135,2,0,B|243:66|208:108,1,80,10|2
121,253,95260,6,0,B|88:257,8,20,0|0|0|0|0|0|0|0|4
164,170,96385,1,8
226,243,96760,2,0,B|288:227|312:183,1,80,2|8
255,118,97510,2,0,B|295:72|355:73,1,80,2|8
409,114,98260,2,0,B|470:128,2,40,2|2|8
399,209,99010,5,2
436,297,99385,2,0,B|481:326,2,40,8|2|2
341,278,100135,1,8
247,257,100510,2,0,B|181:258,4,40,2|2|8|2|2
186,331,101635,1,8
112,268,102010,6,0,B|104:198|116:164,1,80,2|8
206,181,102760,2,0,B|220:124|252:84,1,80,2|8
319,71,103510,1,2
313,166,103885,2,0,B|354:191,2,40,8|2|2
235,109,104635,1,8
144,141,105010,6,0,B|93:146,4,40,2|2|8|2|2
169,233,106135,1,8
191,326,106510,2,0,B|157:357,4,40,2|2|8|2|2
286,326,107635,2,0,B|342:328|391:304,1,80,12|4
338,222,108385,6,0,B|381:204|403:163,1,80,8|0
333,100,109135,2,0,B|353:61|338:4,1,80,8|0
248,42,109885,2,0,B|210:5|165:-7,1,80,8|0
138,84,110635,2,0,B|72:80|42:118,1,80,8|0
104,185,111385,2,0,B|62:210|44:259,1,80,8|0
142,271,112135,2,0,B|194:284,2,40,8|0|0
170,81,113260,6,0,B|129:102,4,40,2|0|10|2|2
250,28,114385,6,0,B|285:69|280:119,1,80,8|2
376,102,115135,2,0,B|372:159|333:180,1,80,8|2
390,256,115885,2,0,B|346:284|307:281,1,80,8|0
254,356,116635,2,0,B|198:337|164:299,1,80,8|0
144,230,117385,2,0,B|126:175|143:135,1,80,8|0
204,82,118135,2,0,B|256:68|303:97,1,80,8|0
347,157,118885,2,0,B|337:202|318:244,1,80,8|0
242,180,119635,1,8
242,180,120010,5,4
256,192,120103,12,0,121510
