osu file format v5

[General]
AudioFilename: Beatmania IIDX 11 - IIDX RED - AA.mp3
AudioLeadIn: 0
PreviewTime: -1
Countdown: 1
SampleSet: Normal
EditorBookmarks: 260,6493,12727,25195,50130,51688,64156,76623,82857,89091,101558,107792,114026

[Metadata]
Title:AA
Artist:DJ Amuro
Creator:Reikin
Version:Normal

[Difficulty]
HPDrainRate:5
CircleSize:6
OverallDifficulty:7
SliderMultiplier:1.4
SliderTickRate:2

[Events]
//Background and Video events
0,0,"AABG.PNG"
//Break Periods
2,50330,62956
2,76823,81657
2,101758,106592
//Storyboard Layer 0 (Background)
//Storyboard Layer 1 (Failing)
//Storyboard Layer 2 (Passing)
//Storyboard Layer 3 (Foreground)
//Storyboard Sound Samples
//Background Colour Transformations
3,100,163,162,255

[TimingPoints]
6500,389.61038961039,4,1,0,100

[HitObjects]
256,200,6500,2,0,B|256:8|16:8|16:208|16:232|16:248,1,420
96,352,8059,2,0,B|256:352|267:131|440:136,1,420
456,248,9617,2,0,B|304:248|304:88|48:88,1,420
176,192,11176,2,0,B|328:192,3,140
256,64,12734,5,4
104,304,13513,2,0,B|104:160,2,140
360,192,15072,2,0,B|216:192,1,140
80,192,15851,2,0,B|80:56|256:56|440:192|440:184,1,420
384,312,17409,2,0,B|348:250|296:168,3,140
200,192,18968,5,4
480,192,19747,2,0,B|312:192|260:298|64:192,1,420
64,40,21305,2,0,B|216:40,2,140
256,192,22474,12,4,24422
264,192,25202,2,0,B|120:192,2,140
264,48,26370,1,0
400,48,26760,2,0,B|400:192,3,140
256,192,28318,1,0
112,192,28708,2,0,B|112:48,1,140
248,48,29487,1,0
384,40,29877,2,0,B|384:184,1,140
384,320,30656,2,0,B|232:320,2,140
384,176,31825,6,0,B|240:176,1,140
104,176,32604,1,0
96,312,32994,2,0,B|184:312|184:224,2,140
232,312,34163,1,0
368,312,34552,2,0,B|368:240|264:240,3,140
256,192,36111,12,4,37279
248,192,37669,2,0,B|392:192,2,140
248,336,38837,1,0
112,336,39227,2,0,B|112:192,3,140
256,192,40785,1,0
400,192,41175,2,0,B|400:336,1,140
264,336,41954,1,0
128,344,42344,2,0,B|128:200,1,140
128,64,43123,2,0,B|272:64,2,140
128,208,44292,6,0,B|272:208,1,140
408,208,45071,1,0
416,72,45461,2,0,B|328:72|328:160,2,140
280,72,46630,1,0
144,72,47019,2,0,B|144:144|248:144,3,140
256,192,48578,12,4,50137
24,360,64163,6,0,B|24:32|488:32|480:328,1,700
408,304,66305,1,0
264,304,66695,1,0
128,304,67085,2,0,B|128:216,1,70
128,96,67669,2,0,B|208:96,1,70
336,104,68254,2,0,B|336:248,3,140
192,248,69812,1,0
48,248,70202,2,0,B|48:296,2,35
192,96,70981,5,0
192,96,71176,1,0
192,96,71370,1,0
192,96,71565,1,0
192,96,71760,1,0
328,96,72150,1,0
328,232,72539,1,0
256,192,73513,12,4,76630
256,192,82864,2,0,B|256:144|208:144,2,70
112,192,83643,1,0
184,72,84033,1,0
256,192,84422,2,0,B|256:144|312:144,2,70
400,192,85201,1,0
328,72,85591,1,0
256,192,85981,2,0,B|256:240|304:240,2,70
400,192,86760,1,0
328,312,87150,1,0
256,192,87539,2,0,B|256:240|208:240,2,70
112,192,88318,1,0
184,312,88708,1,0
256,192,89098,6,0,B|256:40|464:48,1,280
456,184,90267,1,0
312,192,90656,2,0,B|312:264|224:264|240:168,2,140
368,72,91825,2,0,B|296:72,1,70
232,72,92215,2,0,B|184:72|184:128,2,70
232,208,92994,1,0
368,208,93383,2,0,B|440:208,1,70
440,280,93773,2,0,B|389:282|376:352,2,70
440,136,94552,1,0
296,136,94942,1,0
200,32,95331,6,0,B|24:32|32:240,1,280
40,352,96500,2,0,B|88:360|96:304,2,70
40,208,97279,1,0
40,64,97669,2,0,B|88:64|88:120,4,70
256,192,98838,12,4,101565
256,192,107799,12,4,114033
