osu file format v5

[General]
AudioFilename: Beatmania IIDX 11 - IIDX RED - AA.mp3
AudioLeadIn: 0
PreviewTime: -1
Countdown: 1
SampleSet: Normal
EditorBookmarks: 260,6493,12727,25195,37662,50130,51688,64156,76623,82857,89091,101558,107792

[Metadata]
Title:AA
Artist:DJ Amuro
Creator:Reikin
Version:Beginner

[Difficulty]
HPDrainRate:3
CircleSize:5
OverallDifficulty:6
SliderMultiplier:1
SliderTickRate:1

[Events]
//Background and Video events
0,0,"AABG.PNG"
//Break Periods
2,50330,62956
2,76823,81657
2,101758,106592
//Storyboard Layer 0 (Background)
//Storyboard Layer 1 (Failing)
//Storyboard Layer 2 (Passing)
//Storyboard Layer 3 (Foreground)
//Storyboard Sound Samples
//Background Colour Transformations
3,100,163,162,255

[TimingPoints]
6500,389.61038961039,4,1,0,100

[HitObjects]
56,48,6500,1,4
456,48,8059,1,0
80,192,9617,1,0
480,192,11176,1,0
80,192,12734,6,0,B|80:128|136:64|216:64,1,200
256,256,14292,2,0,B|352:256|352:96,1,200
168,192,15851,2,0,B|120:184|96:264|208:360,3,200
392,344,18968,1,4
392,144,19747,6,0,B|464:112|376:24|248:64,1,200
256,256,21305,2,0,B|136:256|104:128,1,200
192,56,23254,1,0
288,56,23643,1,0
240,248,24422,1,0
432,192,25202,6,0,B|432:88|336:80|184:80,1,300
88,64,26760,2,0,B|80:168|224:168|232:328,1,300
328,328,28318,2,0,B|464:328|448:160|312:128,1,300
224,112,29877,6,0,B|176:112|152:200,3,100
256,192,31435,6,0,B|344:192|328:56|512:56,1,300
456,144,32994,2,0,B|376:136|368:32|152:32,1,300
96,88,34552,2,0,B|104:144|184:160,3,100
256,192,36111,12,4,37669
424,192,38448,6,0,B|424:64|248:64,1,200
96,72,40007,1,0
96,272,40786,1,0
392,272,41955,1,0
392,168,42344,1,0
200,216,43124,1,0
384,296,43903,5,0
104,192,45072,2,0,B|104:128|200:128,1,100
368,128,46241,1,0
256,296,47020,1,0
256,144,48189,2,0,B|256:40,1,100
256,192,48968,12,4,50137
256,192,64163,5,4
8,360,65331,2,0,B|8:256,2,100
120,192,66890,5,0
216,192,67279,2,0,B|216:80,1,100
312,88,68059,2,0,B|312:192,1,100
408,192,68838,2,0,B|408:88,1,100
504,88,69617,2,0,B|504:192,1,100
504,288,70396,1,4
256,192,71955,5,4
256,192,73513,12,4,76630
256,192,82864,5,4
80,88,83643,2,0,B|32:184|88:304,3,200
256,192,87150,12,4,89098
80,192,89877,6,0,B|80:80,1,100
176,88,90656,2,0,B|176:200,1,100
272,192,91435,2,0,B|272:80,1,100
368,88,92215,1,0
88,192,93383,6,0,B|140:214|216:184,4,100
136,104,95331,1,4
328,40,96111,6,0,B|424:32|432:96,1,100
424,168,96890,2,0,B|328:160|320:224,1,100
232,200,97669,2,0,B|136:192|128:256,1,100
136,328,98448,1,0
256,192,99617,12,4,101565
256,192,107799,12,4,114033
