osu file format v5

[General]
AudioFilename: Beatmania IIDX 11 - IIDX RED - AA.mp3
AudioLeadIn: 0
PreviewTime: -1
Countdown: 1
SampleSet: Normal
EditorBookmarks: 260,6493,12727,25195,31428,37662,50130,51688,64156,76623,82857,89091,95324,101558,107792,114026

[Metadata]
Title:AA
Artist:DJ Amuro
Creator:Reikin
Version:Another

[Difficulty]
HPDrainRate:5
CircleSize:6
OverallDifficulty:8
SliderMultiplier:2
SliderTickRate:4

[Events]
//Background and Video events
0,0,"AABG.PNG"
//Break Periods
2,50374,63450
2,76823,81657
2,101758,106592
//Storyboard Layer 0 (Background)
//Storyboard Layer 1 (Failing)
//Storyboard Layer 2 (Passing)
//Storyboard Layer 3 (Foreground)
//Storyboard Sound Samples
//Background Colour Transformations
3,100,163,162,255

[TimingPoints]
6500,389.61038961039,4,1,0,100

[HitObjects]
256,192,6500,2,0,B|256:112|184:112,2,100
56,192,7279,1,0
240,272,7669,2,0,B|240:336|288:336,1,100
400,336,8059,2,0,B|456:336|456:272,2,100
256,200,8838,2,0,B|256:128|336:128,3,100
384,200,9617,2,0,B|384:256|320:256,2,100
192,256,10396,2,0,B|128:256|128:192,1,100
128,96,10786,2,0,B|176:96|168:144|224:144,1,100
312,144,11176,2,0,B|312:72|392:72,3,100
464,72,11955,1,0
304,192,12344,2,0,B|280:240|280:312,1,100
176,296,12734,5,0
72,120,13124,2,0,B|72:48|152:48,1,100
224,48,13513,1,0
424,48,13903,2,0,B|424:120|360:120,3,100
272,120,14682,1,0
88,192,15072,2,0,B|88:248|152:248,3,100
256,248,15851,2,0,B|344:248|344:312,1,100
440,288,16241,2,0,B|440:192,1,100
440,88,16630,1,0
240,88,17020,2,0,B|112:88|104:200|-32:200,1,200
240,272,17799,1,0
440,272,18189,2,0,B|440:56,2,200
336,296,19357,5,0
440,120,19747,2,0,B|440:48|360:48,1,100
288,48,20136,1,0
88,48,20526,2,0,B|88:120|152:120,3,100
240,120,21305,1,0
424,192,21695,2,0,B|424:248|360:248,3,100
256,248,22474,2,0,B|168:248|168:312,1,100
72,288,22864,2,0,B|72:192,1,100
72,88,23253,1,0
272,88,23643,2,0,B|400:88|408:200|544:200,1,200
272,272,24422,1,0
72,272,24812,2,4,B|72:56,1,200
168,72,25396,5,0
264,72,25591,1,0
264,168,25786,1,0
360,168,25981,1,0
360,368,26370,1,0
256,368,26565,2,0,B|208:368,11,50
256,224,27929,1,0
256,120,28124,1,0
152,120,28318,5,0
80,184,28513,1,0
152,256,28708,1,0
224,320,28903,2,0,B|256:344|344:312,1,100
472,192,29487,1,0
472,88,29682,2,0,B|424:88,11,50
424,240,31046,1,0
344,176,31241,1,0
344,72,31435,5,4
248,72,31630,1,0
248,168,31825,1,0
152,168,32020,1,0
152,264,32215,1,0
336,336,32604,1,0
440,336,32799,2,0,B|480:336,11,50
440,192,34163,1,0
440,88,34358,1,0
336,88,34553,5,0
256,144,34748,1,0
176,88,34943,1,0
168,184,35137,2,0,B|136:208|48:176,1,100
256,256,35722,1,0
352,256,35917,2,0,B|392:256,16,50
400,344,37669,5,4
296,344,37864,1,0
192,344,38059,1,0
192,240,38254,1,0
88,240,38449,1,0
88,40,38838,1,0
184,40,39033,2,0,B|216:80,11,50
312,192,40397,1,0
408,192,40592,1,0
408,288,40786,5,0
304,288,40981,1,0
200,288,41176,1,0
96,288,41371,2,0,B|73:257|97:192,1,100
256,72,41955,1,0
352,72,42150,2,0,B|392:32,11,50
424,144,43514,1,0
344,208,43709,1,0
344,312,43903,5,4
248,312,44098,1,0
248,216,44293,1,0
152,216,44488,1,0
152,120,44683,1,0
336,48,45072,1,0
440,48,45267,2,0,B|480:48,11,50
440,192,46631,1,0
440,296,46826,1,0
336,296,47021,5,0
256,240,47216,1,0
176,296,47411,1,0
167,199,47605,2,0,B|136:176|71:200,1,100
256,128,48190,1,0
352,128,48385,2,0,B|392:128,16,50
248,128,50137,1,4
256,192,64163,6,0,B|256:160|184:112,1,100
96,112,64552,2,0,B|32:120|24:192,1,100
24,272,64942,2,0,B|80:248|120:176,1,100
184,264,65331,2,0,B|224:304|272:280,1,100
376,272,65721,2,0,B|408:304|456:272,1,100
464,160,66111,2,0,B|480:104|464:72,1,100
360,64,66500,2,0,B|320:104|360:168|360:160,1,100
256,184,66890,2,0,B|216:136|240:80,2,100
304,272,67474,2,0,B|248:304|184:272,1,100
104,280,67864,2,0,B|56:224|112:184,1,100
104,88,68254,2,0,B|160:128|216:80,4,100
96,184,69228,2,0,B|80:224|96:272,1,100
200,280,69617,2,0,B|216:232|200:192,1,100
200,80,70007,2,0,B|256:56|312:88,1,100
256,168,70396,1,4
256,192,70786,12,4,71955
256,192,72344,12,4,73513
256,192,73903,12,4,74292
256,192,74682,12,4,75072
256,192,75461,12,4,75851
256,192,76241,12,4,76630
256,192,82864,5,0
352,192,83059,1,0
352,88,83254,1,0
248,88,83448,1,0
144,88,83643,1,0
144,288,84033,1,0
240,288,84228,1,0
336,288,84422,1,0
264,216,84617,1,0
336,152,84812,1,0
160,56,85202,1,0
88,128,85396,1,0
160,200,85591,1,0
232,128,85786,1,0
328,128,85981,1,0
328,328,86370,5,0
128,328,86760,1,0
184,248,86955,1,0
128,160,87150,1,0
320,192,87539,1,0
256,112,87734,1,0
192,192,87929,1,0
256,264,88124,1,0
256,160,88318,1,0
192,352,88708,1,0
288,352,88903,1,0
344,264,89098,6,0,B|368:232|368:208,1,50
368,120,89390,1,0
224,80,89682,1,0
120,80,89877,1,0
24,192,90169,1,0
120,304,90461,1,0
216,304,90656,6,0,B|216:248,1,50
216,152,90948,1,0
368,152,91241,1,0
368,248,91435,2,0,B|368:272|344:296,1,50
248,296,91728,1,0
248,192,91922,2,0,B|248:144,1,50
256,40,92215,6,0,B|280:40|288:72,1,50
384,72,92507,1,0
472,192,92799,1,0
472,288,92994,1,0
336,344,93286,1,0
184,344,93578,1,0
80,344,93773,6,0,B|80:320|120:304,1,50
184,240,94065,1,0
336,240,94357,1,0
256,176,94552,2,0,B|256:216,1,50
160,192,94844,1,0
104,104,95039,2,0,B|120:88|144:96,1,50
72,152,95331,6,0,B|48:184|48:208,1,50
144,264,95623,1,0
288,304,95915,1,0
392,304,96110,1,0
488,192,96402,1,0
392,80,96694,1,0
296,80,96889,6,0,B|296:136,1,50
296,232,97181,1,0
144,232,97474,1,0
144,136,97668,2,0,B|144:112|168:88,1,50
264,88,97961,1,0
264,192,98155,2,0,B|264:240,1,50
256,344,98448,6,0,B|232:344|224:312,1,50
128,312,98740,1,0
40,192,99032,1,0
40,96,99227,1,0
176,40,99519,1,0
328,40,99811,1,0
256,104,100007,6,0,B|256:112,3,50
304,152,100396,2,0,B|304:200,3,50
352,200,100786,2,0,B|360:200,6,50
256,184,101565,1,4
256,192,107799,12,4,114033
