osu file format v5

[General]
AudioFilename: Unlimited Skies.mp3
AudioLeadIn: 0
PreviewTime: -1
Countdown: 1
SampleSet: Normal
StackLeniency: 0.7
Mode: 0
LetterboxInBreaks: 1

[Editor]
DistanceSpacing: 1
BeatDivisor: 2
GridSize: 8

[Metadata]
Title:Unlimited SkieS
Artist:DJ A.Q. feat. Hatsune Miku
Creator:Hakujitsumu
Version:Normal
Source:
Tags:Hatsune Miku

[Difficulty]
HPDrainRate:2
CircleSize:4
OverallDifficulty:3
SliderMultiplier:0.7
SliderTickRate:0.5

[Events]
//Background and Video events
0,0,"Unlimited Skies.jpg"
//Break Periods
2,29613,36337
2,143795,144882
2,168886,177064
//Storyboard Layer 0 (Background)
//Storyboard Layer 1 (Fail)
//Storyboard Layer 2 (Pass)
//Storyboard Layer 3 (Foreground)
//Storyboard Sound Samples
//Background Colour Transformations
3,100,163,162,255

[TimingPoints]
3959,363.636363636364,4,1,0,100,1,0
73049,-100,4,1,0,100,0,1
96686,-100,4,1,0,100,0,0
119595,-100,4,1,0,100,0,1
143595,-100,4,1,0,100,0,0
189473,-100,4,1,0,100,0,1
208140,-100,4,1,0,100,0,0
213413,-100,4,1,0,100,0,1
222140,-100,4,1,0,100,0,0

[Colours]
Combo1 : 205,195,226
Combo2 : 255,255,255
Combo3 : 98,155,122
Combo4 : 255,243,229
Combo5 : 32,49,141

[HitObjects]
256,192,24686,1,0
256,80,25049,1,0
368,80,25413,1,0
368,192,25777,1,0
480,192,26140,5,0
480,304,26504,1,0
376,304,26868,1,0
256,192,27231,12,0,29413
256,192,37777,5,0
256,80,38140,1,0
368,80,38504,1,0
368,192,38868,2,2,L|368:232|328:232,1,70
72,264,39959,5,0
72,152,40322,1,0
72,40,40686,1,0
184,40,41049,1,0
296,40,41413,1,0
296,152,41777,2,2,L|296:192|264:192,1,70
256,56,43958,5,0
144,56,44322,1,0
144,168,44686,2,2,L|144:248|216:248,1,140
344,104,45777,5,0
456,104,46140,1,0
456,216,46504,1,0
344,216,46868,1,0
344,104,47231,1,0
232,104,47595,2,2,L|184:104|184:128,1,70
352,328,49049,6,2,L|232:328|232:224,1,210
352,240,50686,2,2,L|424:240|424:168,1,140
376,112,51777,1,0
312,112,52140,1,0
288,136,52322,1,0
264,160,52504,1,0
416,312,53777,5,0
336,312,54140,1,0
256,312,54504,1,0
176,312,54868,1,0
96,312,55231,1,0
56,336,55413,1,0
32,304,55595,2,2,L|48:192,1,105
80,176,56322,5,0
160,176,56686,1,0
240,176,57049,1,0
320,176,57413,1,0
384,128,57777,1,0
416,160,57959,2,2,B|416:232,1,70
120,192,59413,5,0
200,112,59777,1,0
312,112,60140,1,0
384,200,60504,1,0
312,288,60868,1,0
200,288,61231,1,0
200,192,61595,2,2,L|200:144|224:144|224:104|296:104|296:104|288:104,1,175
328,56,62868,5,0
216,56,63231,1,0
104,56,63595,1,0
216,120,63959,1,0
216,192,65049,6,2,L|272:192|272:192|272:128,1,105
248,184,65959,1,0
248,240,66322,1,0
336,336,67777,5,0
336,336,67958,2,2,L|256:336,1,70
256,272,68504,5,0
256,272,68686,2,2,L|176:272,1,70
176,208,69231,5,0
176,208,69413,2,2,L|96:208,1,70
344,136,70868,5,0
232,136,71231,1,0
232,248,71595,1,0
344,248,71958,5,0
344,248,72140,2,2,L|232:248,1,105
224,176,73049,5,0
336,176,73413,1,0
448,176,73777,1,0
448,64,74140,1,0
336,64,74504,1,0
224,64,74868,1,0
224,176,75231,1,0
328,304,75958,6,2,L|256:304,1,70
152,304,76686,1,0
152,192,77049,1,0
264,192,77413,1,0
432,192,77958,2,2,L|432:120,1,70
264,56,78868,5,0
264,168,79231,1,0
152,168,79595,1,0
152,56,79958,1,0
40,56,80322,1,0
40,168,80686,1,0
40,224,80868,2,2,L|152:224,1,105
312,192,81958,5,0
312,304,82322,1,0
168,304,82868,1,0
168,248,83049,1,0
168,136,83413,1,0
264,136,83777,2,2,L|264:248,1,105
328,248,84686,5,0
424,248,85049,1,0
424,144,85413,1,0
424,48,85777,1,0
256,48,86322,1,0
144,48,86686,2,2,L|216:48,1,70
256,184,87595,5,0
256,72,87958,1,0
368,72,88322,2,2,L|440:72,1,70
472,112,88868,1,0
408,192,89231,1,0
312,192,89595,2,2,L|168:192,1,140
328,160,91231,5,0
328,48,91595,1,0
184,48,92140,5,0
104,128,92504,1,0
216,248,93049,5,0
328,248,93413,1,0
328,136,93777,1,0
440,136,94140,1,0
440,248,94504,1,0
360,328,94868,1,0
248,328,95231,1,0
248,216,95595,1,0
248,328,95959,2,2,L|88:328,1,140
424,72,97413,5,0
328,72,97777,1,0
232,72,98140,1,0
136,72,98504,1,0
88,160,98868,1,0
184,160,99231,1,0
280,160,99595,1,0
376,160,99959,2,2,L|376:320,1,140
256,192,102140,5,0
256,192,102504,1,0
368,192,102868,2,2,L|368:344,1,140
256,336,103958,5,0
144,336,104322,1,0
32,336,104686,1,0
32,224,105049,1,0
32,112,105413,1,0
144,112,105777,2,2,L|144:272,1,140
472,328,107595,5,0
472,216,107958,1,0
472,104,108322,1,0
352,104,108686,2,2,L|312:168|272:96,1,140
168,112,109777,5,0
56,112,110140,1,0
168,112,110504,1,0
56,112,110868,1,0
168,112,111231,1,0
168,240,111595,2,2,L|48:328,1,140
456,56,113777,5,0
456,168,114140,1,0
456,280,114504,2,2,L|400:336|328:336,1,140
224,336,115595,1,0
224,224,115958,1,0
224,112,116322,1,0
112,112,116686,1,0
112,224,117049,1,0
224,224,117413,2,2,L|272:224|272:224|272:192,1,70
256,192,119595,5,0
256,192,119958,1,0
256,104,120322,5,0
144,104,120686,1,0
48,40,121049,1,0
48,152,121413,1,0
48,264,121777,5,4
160,264,122140,1,4
272,264,122504,1,4
384,264,122868,1,4
384,152,123231,5,0
272,152,123595,1,0
264,40,123959,2,2,C|192:40|192:152,1,175
80,272,125413,5,0
192,272,125777,1,0
304,272,126140,1,0
192,272,126504,1,0
80,272,126868,1,0
192,272,127231,1,0
192,160,127595,5,4
192,48,127958,1,4
304,48,128322,1,4
304,160,128686,1,4
416,160,129049,5,0
384,272,129413,1,0
264,312,129777,1,0
128,144,130322,6,2,B|120:80|88:56|48:40|16:32,1,140
304,192,131595,5,0
416,192,131958,1,0
416,80,132322,1,0
416,192,132686,1,0
304,192,133049,1,0
296,80,133413,5,4
184,80,133777,1,4
184,192,134140,1,4
184,80,134504,1,4
72,80,134868,5,0
72,192,135231,1,0
72,192,135413,1,0
72,304,135777,1,0
176,304,136140,2,2,B|256:184,1,140
88,64,137413,5,0
200,64,137777,1,0
312,64,138140,1,0
424,64,138504,1,0
424,176,138868,1,0
424,288,139231,5,4
312,288,139595,1,4
312,176,139958,1,4
200,176,140322,1,4
256,192,140686,12,0,143595
256,192,146322,6,2,C|256:112|320:112,1,140
256,272,147595,5,0
112,272,148140,6,2,C|80:184|128:104,1,175
168,96,149231,2,2,C|216:64|280:104,1,105
312,88,149959,2,2,C|360:144|368:208,1,105
480,304,151049,5,0
368,304,151413,1,0
96,240,152140,6,2,B|48:152|120:96|208:112|264:184,1,280
328,248,153958,1,0
112,256,154686,5,0
112,128,155049,2,2,B|280:72|464:128,1,350
464,192,157231,5,0
392,280,157595,1,0
320,192,157958,1,0
264,288,158322,1,0
160,288,158686,2,2,B|0:160|120:64,1,245
248,56,160686,5,0
312,56,161049,2,2,B|400:160|312:296,1,245
344,112,162868,5,0
232,112,163231,1,0
120,112,163595,1,0
120,224,163958,5,0
120,336,164322,1,0
232,336,164686,1,0
120,336,165049,1,0
232,336,165413,1,0
232,224,165777,1,0
232,224,166140,1,0
256,192,166868,12,0,168686
256,192,178504,5,0
144,192,178868,1,0
136,24,179413,1,0
248,24,179777,1,0
408,296,180686,5,0
296,296,181049,1,0
184,296,181413,1,0
184,296,181958,5,0
296,296,182322,1,0
288,184,182686,2,2,B|136:184,1,140
408,80,184322,5,0
296,80,184686,1,0
360,232,185231,1,0
56,56,186140,5,0
56,192,186504,1,0
192,192,186868,1,0
328,192,187231,1,0
328,48,187595,1,0
200,48,187958,1,0
200,48,188322,1,0
200,176,188686,1,0
200,304,189049,1,0
56,72,190140,5,0
72,72,190322,1,0
88,72,190504,1,0
104,72,190686,1,0
152,72,191049,1,0
376,96,191595,5,4
376,192,191958,1,4
376,288,192322,1,4
376,192,192686,1,4
280,192,193049,5,0
264,192,193231,1,0
248,192,193413,1,0
232,192,193595,1,0
344,192,195231,5,0
344,80,195595,1,0
344,192,195958,1,0
456,192,196322,1,0
264,192,196868,1,0
264,80,197231,1,0
232,80,197413,5,4
120,80,197777,1,4
120,192,198140,1,4
168,296,198504,1,4
296,296,198868,1,0
296,296,199049,1,0
296,296,199231,1,0
296,296,199413,1,0
88,192,201049,5,0
200,192,201413,1,0
312,192,201777,1,0
424,192,202140,1,0
312,64,202686,1,0
200,64,203049,1,0
80,312,203958,5,0
192,312,204322,1,0
304,312,204686,1,0
304,200,205049,1,0
136,200,205595,1,0
136,88,205958,1,0
416,88,206868,5,0
416,200,207231,1,0
416,312,207595,1,0
368,312,207777,1,0
320,312,207958,1,0
272,312,208140,1,0
256,184,209049,5,0
256,72,209413,1,0
256,184,209777,1,0
224,72,210140,1,0
256,184,210504,1,0
224,72,210868,2,0,B|176:72,1,35
288,72,211413,2,0,B|336:72,2,35
256,128,211958,6,0,B|256:216,3,70
48,344,213413,6,2,B|416:344,1,350
392,216,215595,2,2,B|392:144,1,70
280,152,216322,2,2,B|56:152,1,210
72,264,217777,6,2,B|288:264,1,210
280,136,219231,2,2,B|280:352,1,210
168,352,220686,2,2,B|168:56,1,280
336,112,222504,5,0
224,80,222868,1,0
112,56,223231,1,0
112,184,223595,1,0
112,312,223958,1,0
440,256,224504,5,0
416,256,224686,1,0
384,256,224868,2,2,B|64:256|64:8,1,455
136,64,227595,5,0
192,88,227777,1,0
248,112,227959,2,2,B|408:200|408:280|192:272,1,350
56,280,230140,5,0
56,184,230504,1,0
56,72,230868,2,0,B|56:120,3,35
216,152,231958,5,0
328,152,232322,1,0
440,152,232686,1,0
328,152,233049,1,0
328,264,233413,1,0
240,216,233777,1,0
192,216,233958,1,0
144,216,234140,1,0
96,216,234322,1,0
256,192,235231,12,0,236686
