osu file format v13

[General]
AudioFilename: 4826638_Spanish_Fly_Original_mix.mp3
AudioLeadIn: 0
PreviewTime: -1
Countdown: 0
SampleSet: Soft
StackLeniency: 0.7
Mode: 0
LetterboxInBreaks: 1
WidescreenStoryboard: 0

[Editor]
DistanceSpacing: 2
BeatDivisor: 8
GridSize: 4
TimelineZoom: 1

[Metadata]
Title:Spanish Fly (Original mix)
TitleUnicode:Spanish Fly (Original mix)
Artist:DJ 007
ArtistUnicode:DJ 007
Creator:thr1ve
Version:
Source:
Tags:
BeatmapID:560632
BeatmapSetID:242969

[Difficulty]
HPDrainRate:5
CircleSize:4
OverallDifficulty:6
ApproachRate:8
SliderMultiplier:1.4
SliderTickRate:1

[Events]
//Background and Video events
//Break Periods
2,116717,126865
//Storyboard Layer 0 (Background)
//Storyboard Layer 1 (Fail)
//Storyboard Layer 2 (Pass)
//Storyboard Layer 3 (Foreground)
//Storyboard Sound Samples

[TimingPoints]
11084,346.820809248555,4,2,0,29,1,0
92847,-200,4,2,0,29,0,0
93800,-100,4,2,0,29,0,0

[HitObjects]
112,188,11075,5,0,0:0:0:0:
172,72,11344,1,0,0:0:0:0:
172,72,11430,2,0,P|200:100|248:100,1,70
312,120,11776,1,0,0:0:0:0:
392,88,11950,1,0,0:0:0:0:
416,168,12123,2,0,B|376:168|336:200|336:208,1,70
336,272,12470,1,0,0:0:0:0:
280,208,12643,1,0,0:0:0:0:
244,284,12817,1,0,0:0:0:0:
160,292,12991,1,0,0:0:0:0:
244,284,13164,1,0,0:0:0:0:
288,356,13338,1,0,0:0:0:0:
380,252,13511,1,0,0:0:0:0:
380,252,13598,1,0,0:0:0:0:
380,252,13685,2,0,L|432:252,2,35,0|0|0,0:0|0:0|0:0,0:0:0:0:
100,272,14205,2,0,L|60:272,2,35,0|0|0,0:0|0:0|0:0,0:0:0:0:
260,324,14725,1,0,0:0:0:0:
400,232,15072,2,0,P|384:192|392:144,1,70
384,144,15332,1,0,0:0:0:0:
384,120,15419,1,0,0:0:0:0:
312,160,15592,2,0,P|320:200|312:232,2,70,0|0|0,0:0|0:0|0:0,0:0:0:0:
256,96,16112,2,0,L|328:96,1,70
344,96,16373,1,0,0:0:0:0:
368,96,16459,1,0,0:0:0:0:
392,96,16546,1,0,0:0:0:0:
416,96,16633,6,0,L|464:152,1,70
472,232,16979,1,0,0:0:0:0:
268,284,17413,1,0,0:0:0:0:
268,284,17847,2,0,P|340:272|412:292,1,140
252,52,18540,2,0,P|188:64|112:44,1,140
144,184,19060,1,0,0:0:0:0:
144,184,19147,1,0,0:0:0:0:
144,184,19234,1,0,0:0:0:0:
144,184,19320,1,0,0:0:0:0:
144,184,19407,1,0,0:0:0:0:
108,128,22182,6,0,P|164:84|188:36,1,105,0|0,0:0|0:0,0:0:0:0:
200,48,22529,2,0,P|224:80|264:88,1,70
320,144,22875,1,0,0:0:0:0:
288,224,23049,2,0,P|280:272|248:296,2,70,0|0|0,0:0|0:0|0:0,0:0:0:0:
368,216,23569,1,0,0:0:0:0:
336,296,23742,1,0,0:0:0:0:
288,224,23916,1,0,0:0:0:0:
232,280,24089,1,0,0:0:0:0:
224,260,24176,1,0,0:0:0:0:
220,240,24263,1,0,0:0:0:0:
224,220,24349,1,0,0:0:0:0:
232,200,24436,2,0,L|312:200,2,70,0|0|0,0:0|0:0|0:0,0:0:0:0:
160,156,24956,6,0,P|120:148|80:116,1,70
140,60,25303,1,0,0:0:0:0:
224,68,25477,1,0,0:0:0:0:
240,52,25563,1,0,0:0:0:0:
264,44,25650,1,0,0:0:0:0:
288,44,25737,1,0,0:0:0:0:
312,52,25823,2,0,P|336:92|320:124,3,70,0|0|0|0,0:0|0:0|0:0|0:0,0:0:0:0:
252,144,26517,2,0,L|308:208,1,70
380,176,26864,1,0,0:0:0:0:
380,176,27037,1,0,0:0:0:0:
380,176,27211,2,0,L|380:248,2,70,0|0|0,0:0|0:0|0:0,0:0:0:0:
380,244,27731,6,0,P|340:262|300:246,1,70
240,220,28078,1,0,0:0:0:0:
204,296,28251,1,0,0:0:0:0:
204,296,28338,1,0,0:0:0:0:
204,296,28425,1,0,0:0:0:0:
240,220,28598,1,0,0:0:0:0:
164,184,28771,2,0,P|188:152|228:136,1,70
236,136,29031,1,0,0:0:0:0:
260,136,29118,1,0,0:0:0:0:
336,172,29292,2,0,L|408:140,1,70
412,60,29638,1,0,0:0:0:0:
332,84,29812,5,0,0:0:0:0:
356,164,29985,1,0,0:0:0:0:
272,176,30159,1,0,0:0:0:0:
356,164,30332,1,0,0:0:0:0:
272,176,30505,1,0,0:0:0:0:
112,124,30852,1,0,0:0:0:0:
148,200,31025,1,0,0:0:0:0:
44,332,31373,2,0,B|92:300|140:304|188:324,1,140
456,292,32066,2,0,P|412:268|324:284,1,140
220,152,32760,2,0,P|252:136|300:128,1,70
124,80,33280,6,0,L|192:40|192:40,1,70
268,32,33627,1,0,0:0:0:0:
268,32,33800,1,0,0:0:0:0:
232,108,33974,2,0,L|324:136,1,70
368,176,34320,1,0,0:0:0:0:
296,220,34494,1,0,0:0:0:0:
212,224,34667,1,0,0:0:0:0:
296,220,34841,1,0,0:0:0:0:
296,220,35014,2,0,P|332:249|332:289,3,70,0|0|0|0,0:0|0:0|0:0|0:0,0:0:0:0:
296,220,35708,2,0,L|264:156,1,70
232,80,36055,5,0,0:0:0:0:
152,56,36228,2,0,L|88:112,1,70
164,156,36575,2,0,L|148:228,1,70
204,288,36922,1,0,0:0:0:0:
356,220,37268,2,0,L|276:248,1,70
252,168,37615,1,0,0:0:0:0:
168,164,37789,2,0,L|152:236,1,70
144,92,38136,2,0,L|80:148,1,70
100,220,38482,1,0,0:0:0:0:
108,240,38569,1,0,0:0:0:0:
116,260,38656,1,0,0:0:0:0:
124,280,38742,1,0,0:0:0:0:
132,300,38829,1,0,0:0:0:0:
252,340,39089,5,0,0:0:0:0:
244,128,39523,2,0,P|288:124|336:128,1,70
396,108,39869,2,0,P|372:68|336:44,1,70
440,52,40216,2,0,L|388:120,1,70
397,107,40563,2,0,P|431:147|431:171,1,70
452,244,40910,1,0,0:0:0:0:
476,324,41083,1,0,0:0:0:0:
400,288,41257,6,0,P|384:256|344:240,1,70,0|0,0:0|0:0,0:0:0:0:
272,256,41603,1,0,0:0:0:0:
272,256,41777,1,0,0:0:0:0:
116,192,42124,2,0,P|204:176|252:144,1,140
388,60,42818,1,0,0:0:0:0:
388,60,43425,1,0,0:0:0:0:
180,68,43858,1,0,0:0:0:0:
264,72,44031,1,0,0:0:0:0:
240,152,44204,1,0,0:0:0:0:
108,200,44378,2,0,P|84:232|84:272,2,70,0|0|0,0:0|0:0|0:0,0:0:0:0:
192,212,44898,1,0,0:0:0:0:
440,344,45246,5,0,0:0:0:0:
420,336,45332,1,0,0:0:0:0:
400,328,45419,1,0,0:0:0:0:
316,336,45592,1,0,0:0:0:0:
344,256,45766,1,0,0:0:0:0:
400,328,45939,2,0,P|436:272|424:212,1,105
140,44,46633,6,0,P|176:88|228:96,1,105
212,180,47066,1,0,0:0:0:0:
212,180,47153,2,0,P|180:196|160:236,1,70,0|0,0:0|0:0,0:0:0:0:
240,324,47586,1,0,0:0:0:0:
36,40,48020,5,0,0:0:0:0:
40,60,48107,1,0,0:0:0:0:
48,80,48193,1,0,0:0:0:0:
124,116,48367,1,0,0:0:0:0:
48,152,48540,2,0,P|60:208|100:252,1,105
228,220,48974,1,0,0:0:0:0:
384,80,49407,6,0,P|408:112|412:152,3,70,0|0|0|0,0:0|0:0|0:0|0:0,0:0:0:0:
284,196,50101,2,0,P|272:136|228:84,1,105
132,296,50795,5,0,0:0:0:0:
112,292,50882,1,0,0:0:0:0:
92,288,50969,1,0,0:0:0:0:
68,208,51142,1,0,0:0:0:0:
152,212,51315,2,0,P|224:256|272:256,1,105
340,160,51748,1,0,0:0:0:0:
132,136,52182,5,0,0:0:0:0:
132,136,52268,1,0,0:0:0:0:
132,136,52355,2,0,P|160:92|192:80,1,70
216,220,52702,2,0,P|260:252|312:260,2,105,0|0|0,0:0|0:0|0:0,0:0:0:0:
444,56,53569,5,0,0:0:0:0:
448,76,53656,1,0,0:0:0:0:
460,92,53742,1,0,0:0:0:0:
388,136,53916,1,0,0:0:0:0:
464,172,54089,2,0,P|428:212|376:232,1,105
188,312,54783,1,0,0:0:0:0:
344,248,55130,1,0,0:0:0:0:
168,72,55650,5,0,0:0:0:0:
448,44,55997,2,0,P|412:60|312:72,1,140
444,320,56690,1,0,0:0:0:0:
164,344,57037,2,0,P|200:328|300:316,1,140
408,188,57731,1,0,0:0:0:0:
324,188,57904,1,0,0:0:0:0:
368,116,58078,5,0,0:0:0:0:
284,116,58251,1,0,0:0:0:0:
200,116,58425,1,0,0:0:0:0:
128,236,58598,1,0,0:0:0:0:
124,152,58771,1,0,0:0:0:0:
200,116,58945,1,0,0:0:0:0:
276,152,59118,1,0,0:0:0:0:
204,196,59292,1,0,0:0:0:0:
228,276,59465,2,0,P|272:248|280:208,2,70,0|0|0,0:0|0:0|0:0,0:0:0:0:
228,276,59985,1,0,0:0:0:0:
152,312,60159,2,0,L|76:340,2,70,0|0|0,0:0|0:0|0:0,0:0:0:0:
228,276,60679,1,0,0:0:0:0:
308,300,60852,1,0,0:0:0:0:
344,164,61026,5,0,0:0:0:0:
348,144,61113,1,0,0:0:0:0:
344,124,61199,1,0,0:0:0:0:
204,136,61373,1,0,0:0:0:0:
196,116,61460,1,0,0:0:0:0:
200,96,61546,1,0,0:0:0:0:
132,220,61720,1,0,0:0:0:0:
132,240,61806,1,0,0:0:0:0:
128,260,61893,1,0,0:0:0:0:
268,260,62066,1,0,0:0:0:0:
264,280,62153,1,0,0:0:0:0:
268,300,62240,1,0,0:0:0:0:
404,268,62413,5,0,0:0:0:0:
404,268,62500,1,0,0:0:0:0:
404,268,62586,1,0,0:0:0:0:
448,136,62760,1,0,0:0:0:0:
448,136,62847,1,0,0:0:0:0:
448,136,62933,1,0,0:0:0:0:
308,148,63107,1,0,0:0:0:0:
308,148,63193,1,0,0:0:0:0:
308,148,63280,1,0,0:0:0:0:
196,64,63453,1,0,0:0:0:0:
176,64,63540,1,0,0:0:0:0:
156,64,63627,1,0,0:0:0:0:
88,336,63974,5,0,0:0:0:0:
104,324,64061,1,0,0:0:0:0:
120,312,64148,1,0,0:0:0:0:
188,264,64320,1,0,0:0:0:0:
232,336,64494,1,0,0:0:0:0:
308,300,64667,1,0,0:0:0:0:
396,32,65014,1,0,0:0:0:0:
116,40,65361,5,0,0:0:0:0:
40,76,65534,1,0,0:0:0:0:
84,148,65707,1,0,0:0:0:0:
160,112,65881,1,0,0:0:0:0:
236,148,66054,2,0,P|280:168|296:212,1,70,0|0,0:0|0:0,0:0:0:0:
240,252,66401,2,0,P|268:280|304:292,1,70
396,156,66921,2,0,P|376:116|344:88,1,70
252,68,67269,1,0,0:0:0:0:
252,68,67356,1,0,0:0:0:0:
252,68,67442,2,0,P|208:116|208:140,1,70
224,200,67789,1,0,0:0:0:0:
224,200,67962,1,0,0:0:0:0:
268,272,68136,2,0,P|308:320|388:344,1,140
488,144,68829,2,0,P|448:112|416:104,1,70
356,68,69176,6,0,P|308:76|284:92,1,70
272,96,69436,1,0,0:0:0:0:
260,112,69523,1,0,0:0:0:0:
296,188,69696,1,0,0:0:0:0:
252,260,69870,1,0,0:0:0:0:
232,252,69956,1,0,0:0:0:0:
212,244,70043,1,0,0:0:0:0:
192,236,70130,1,0,0:0:0:0:
172,228,70216,2,0,L|144:292,1,70
72,248,70563,2,0,P|116:172|124:116,1,140
284,180,71257,1,0,0:0:0:0:
432,104,71604,1,0,0:0:0:0:
356,140,71777,2,0,P|316:116|284:108,1,70
248,180,72124,2,0,P|216:200|172:200,1,70
164,204,72384,1,0,0:0:0:0:
144,200,72471,1,0,0:0:0:0:
120,120,72644,2,0,L|196:120,1,70
248,180,72991,1,0,0:0:0:0:
248,180,73078,1,0,0:0:0:0:
248,180,73164,2,0,P|264:212|256:256,1,70
232,324,73511,1,0,0:0:0:0:
188,252,73685,2,0,P|80:232|60:188,2,140,0|0|0,0:0|0:0|0:0,0:0:0:0:
232,324,74552,2,0,P|284:324|316:348,1,70
340,248,74899,2,0,P|376:232|420:232,1,70
406,229,75159,1,0,0:0:0:0:
406,229,75246,1,0,0:0:0:0:
388,148,75419,1,0,0:0:0:0:
308,172,75592,1,0,0:0:0:0:
300,152,75679,1,0,0:0:0:0:
292,132,75766,1,0,0:0:0:0:
284,112,75852,1,0,0:0:0:0:
276,92,75939,1,0,0:0:0:0:
192,88,76112,2,0,P|172:136|112:204,1,140,0|0,0:0|0:0,0:0:0:0:
184,324,76632,1,0,0:0:0:0:
112,280,76806,2,0,P|84:260|68:204,1,70,0|0,0:0|0:0,0:0:0:0:
68,144,77153,1,0,0:0:0:0:
104,68,77326,1,0,0:0:0:0:
256,192,77673,12,0,79754,0:0:0:0:
256,192,79927,5,0,0:0:0:0:
256,192,80448,1,0,0:0:0:0:
256,192,80621,12,0,82528,0:0:0:0:
200,200,82702,5,0,0:0:0:0:
256,136,82875,1,0,0:0:0:0:
308,200,83049,1,0,0:0:0:0:
256,192,83222,12,0,85303,0:0:0:0:
256,192,85477,5,0,0:0:0:0:
256,192,85997,1,0,0:0:0:0:
256,192,86170,12,0,88078,0:0:0:0:
256,192,88251,6,0,P|216:176|200:140,1,70
220,72,88598,1,0,0:0:0:0:
296,108,88771,1,0,0:0:0:0:
412,156,89031,1,0,0:0:0:0:
412,156,89118,2,0,P|404:200|380:224,1,70
320,268,89465,1,0,0:0:0:0:
320,268,89552,2,0,L|380:320,2,70,0|0|0,0:0|0:0|0:0,0:0:0:0:
236,268,90072,1,0,0:0:0:0:
88,188,90419,5,0,0:0:0:0:
88,188,90505,2,0,P|132:152|168:152,1,70
216,108,90852,1,0,0:0:0:0:
216,108,91026,2,0,L|164:48,2,70,0|0|0,0:0|0:0|0:0,0:0:0:0:
376,160,91719,2,0,L|476:160,2,70,0|0|0,0:0|0:0|0:0,0:0:0:0:
228,240,92413,2,0,L|188:316,2,70,0|0|0,0:0|0:0|0:0,0:0:0:0:
272,168,92933,6,0,L|320:80,2,87.5,0|0|0,0:0|0:0|0:0,0:0:0:0:
188,172,93974,1,0,0:0:0:0:
112,136,94148,1,0,0:0:0:0:
180,88,94320,1,0,0:0:0:0:
180,88,94407,1,0,0:0:0:0:
180,88,94494,1,0,0:0:0:0:
180,88,94580,1,0,0:0:0:0:
196,76,94667,1,0,0:0:0:0:
216,68,94754,1,0,0:0:0:0:
236,64,94840,1,0,0:0:0:0:
260,64,94927,1,0,0:0:0:0:
284,68,95014,5,0,0:0:0:0:
304,80,95101,1,0,0:0:0:0:
324,100,95187,1,0,0:0:0:0:
336,124,95274,1,0,0:0:0:0:
340,156,95361,1,0,0:0:0:0:
332,188,95447,1,0,0:0:0:0:
312,212,95534,5,0,0:0:0:0:
280,228,95621,1,0,0:0:0:0:
244,232,95707,1,0,0:0:0:0:
212,224,95794,1,0,0:0:0:0:
184,204,95881,1,0,0:0:0:0:
160,184,95968,1,0,0:0:0:0:
132,172,96054,5,0,0:0:0:0:
104,180,96141,1,0,0:0:0:0:
88,204,96228,1,0,0:0:0:0:
80,232,96314,1,0,0:0:0:0:
92,260,96401,1,0,0:0:0:0:
108,276,96488,1,0,0:0:0:0:
128,288,96575,5,0,0:0:0:0:
152,292,96661,1,0,0:0:0:0:
172,292,96748,1,0,0:0:0:0:
172,292,96835,1,0,0:0:0:0:
172,292,96921,1,0,0:0:0:0:
256,292,97095,2,0,L|336:292,1,70
432,200,97442,5,0,0:0:0:0:
348,200,97615,2,0,L|276:200,1,70
184,96,97962,1,0,0:0:0:0:
268,96,98136,2,0,L|340:96,2,70,0|0|0,0:0|0:0|0:0,0:0:0:0:
136,144,98656,2,0,L|80:192,1,70
164,304,99003,2,0,L|212:360,1,70
340,308,99349,2,0,L|396:260,1,70
180,80,99870,5,0,0:0:0:0:
264,84,100043,2,0,B|340:56|428:184|328:240|328:240,1,210
264,240,100737,1,0,0:0:0:0:
152,156,100910,1,0,0:0:0:0:
152,156,101084,2,0,L|132:228,1,70
260,164,101430,1,0,0:0:0:0:
260,164,101604,2,0,L|280:92,1,70
440,324,102124,2,0,P|392:312|360:272,1,70
388,216,102471,1,0,0:0:0:0:
376,300,102644,2,0,P|340:316|284:324,2,70,0|0|0,0:0|0:0|0:0,0:0:0:0:
148,192,103511,5,0,0:0:0:0:
232,192,103685,1,0,0:0:0:0:
192,120,103858,1,0,0:0:0:0:
148,192,104031,2,0,P|144:224|100:256,2,70,0|0|0,0:0|0:0|0:0,0:0:0:0:
272,124,104552,1,0,0:0:0:0:
444,92,105419,1,0,0:0:0:0:
436,80,105505,1,0,0:0:0:0:
424,72,105592,1,0,0:0:0:0:
412,68,105679,1,0,0:0:0:0:
396,68,105766,1,0,0:0:0:0:
380,76,105852,1,0,0:0:0:0:
368,88,105939,1,0,0:0:0:0:
360,104,106026,1,0,0:0:0:0:
356,120,106112,1,0,0:0:0:0:
352,136,106199,1,0,0:0:0:0:
348,156,106286,1,0,0:0:0:0:
328,156,106373,1,0,0:0:0:0:
308,156,106459,1,0,0:0:0:0:
284,156,106546,1,0,0:0:0:0:
260,156,106633,1,0,0:0:0:0:
236,156,106719,1,0,0:0:0:0:
216,156,106806,1,0,0:0:0:0:
216,176,106893,1,0,0:0:0:0:
216,196,106979,1,0,0:0:0:0:
216,216,107066,1,0,0:0:0:0:
216,236,107153,1,0,0:0:0:0:
216,256,107240,1,0,0:0:0:0:
196,256,107326,1,0,0:0:0:0:
176,256,107413,1,0,0:0:0:0:
156,256,107500,1,0,0:0:0:0:
136,252,107586,1,0,0:0:0:0:
116,244,107673,1,0,0:0:0:0:
100,232,107760,1,0,0:0:0:0:
84,216,107847,1,0,0:0:0:0:
76,196,107933,1,0,0:0:0:0:
68,176,108020,1,0,0:0:0:0:
64,156,108107,1,0,0:0:0:0:
64,136,108193,1,0,0:0:0:0:
68,116,108280,1,0,0:0:0:0:
80,96,108367,1,0,0:0:0:0:
92,80,108453,1,0,0:0:0:0:
108,64,108540,1,0,0:0:0:0:
128,56,108627,1,0,0:0:0:0:
148,52,108714,1,0,0:0:0:0:
168,52,108800,1,0,0:0:0:0:
188,52,108887,1,0,0:0:0:0:
208,52,108974,1,0,0:0:0:0:
228,52,109060,1,0,0:0:0:0:
248,52,109147,1,0,0:0:0:0:
268,52,109234,1,0,0:0:0:0:
288,52,109320,1,0,0:0:0:0:
308,52,109407,2,0,L|308:96,1,35
328,76,109581,2,0,L|328:120,1,35
348,108,109754,2,0,L|348:160,1,35
368,148,109927,2,0,L|372:188,1,35
392,184,110101,2,0,L|392:224,1,35
412,220,110274,2,0,L|412:260,4,35,0|0|0|0|0,0:0|0:0|0:0|0:0|0:0,0:0:0:0:
160,196,111141,6,0,P|208:228|292:244,1,140,0|0,0:0|0:0,0:0:0:0:
364,284,111662,2,0,P|320:324|284:328,2,70,0|0|0,0:0|0:0|0:0,0:0:0:0:
420,220,112182,1,0,0:0:0:0:
420,220,112355,2,0,L|420:132,2,87.5,0|0|0,0:0|0:0|0:0,0:0:0:0:
316,148,113049,2,0,P|276:128|236:84,2,105,0|0|0,0:0|0:0|0:0,0:0:0:0:
292,272,113742,2,0,P|256:308|200:328,2,105,0|0|0,0:0|0:0|0:0,0:0:0:0:
220,228,114436,2,0,P|160:208|124:204,2,87.5,0|0|0,0:0|0:0|0:0,0:0:0:0:
344,260,115130,1,0,0:0:0:0:
252,112,115347,1,0,0:0:0:0:
52,176,115563,2,0,P|84:220|152:220,3,105,0|0|0|0,0:0|0:0|0:0|0:0,0:0:0:0:
336,264,116517,1,0,0:0:0:0:
60,320,127615,5,0,0:0:0:0:
452,64,128482,5,0,0:0:0:0:
416,140,128656,1,0,0:0:0:0:
332,144,128829,1,0,0:0:0:0:
196,108,129003,2,0,P|224:128|276:132,1,70
284,272,129349,1,0,0:0:0:0:
412,212,129523,2,0,P|384:232|332:236,1,70
264,128,129870,2,0,P|292:108|344:104,2,70,0|0|0,0:0|0:0|0:0,0:0:0:0:
192,172,130390,1,0,0:0:0:0:
192,172,130477,1,0,0:0:0:0:
192,172,130563,2,0,L|192:252,2,70,0|0|0,0:0|0:0|0:0,0:0:0:0:
72,68,132644,6,0,B|108:76|152:136|156:208,1,140
200,308,133164,1,0,0:0:0:0:
332,260,133338,2,0,P|368:240|392:208,2,70,0|0|0,0:0|0:0|0:0,0:0:0:0:
200,308,133858,1,0,0:0:0:0:
344,80,134725,5,0,0:0:0:0:
428,76,134899,1,0,0:0:0:0:
452,156,135072,1,0,0:0:0:0:
368,268,135245,1,0,0:0:0:0:
296,224,135419,2,0,P|336:184|372:160,2,70,0|0|0,0:0|0:0|0:0,0:0:0:0:
252,296,135939,1,0,0:0:0:0:
232,296,136026,1,0,0:0:0:0:
212,296,136112,2,0,P|180:272|172:240,1,70
168,160,136459,1,0,0:0:0:0:
