osu file format v5

[General]
AudioFilename: DJ Mocha - Fallen Angel.mp3
AudioLeadIn: 0
PreviewTime: -1
Countdown: 0
SampleSet: Soft
StackLeniency: 0.7
Mode: 0
LetterboxInBreaks: 1

[Metadata]
Title:Fallen Angel
Artist:DJ - Mocha
Creator:James
Version:Normal Style
Source:
Tags:

[Difficulty]
HPDrainRate:3
CircleSize:4
OverallDifficulty:5
SliderMultiplier:1.6
SliderTickRate:2

[Events]
//Background and Video events
0,0,"fallennormal.png"
1,0,"fa.avi"
//Break Periods
//Storyboard Layer 0 (Background)
//Storyboard Layer 1 (Failing)
//Storyboard Layer 2 (Passing)
//Storyboard Layer 3 (Foreground)
//Storyboard Sound Samples
//Background Colour Transformations
3,100,163,162,255

[TimingPoints]
2813,423.168211267605,4,2,1,100,1
15716,423.168211267605,4,1,1,100,1
29892,423.168211267605,4,1,1,100,1
43433,423.168211267605,4,1,1,100,1
53800,423.168211267605,4,1,1,100,1
56973,423.168211267605,4,1,1,100,1
94211,423.168211267605,4,1,1,100,1
101828,423.168211267605,4,2,1,100,1
114726,423.168211267605,4,2,0,100,1
115361,423.168211267605,4,1,0,100,1

[Colours]
Combo1 : 128,0,255
Combo2 : 255,255,255
Combo3 : 5,5,240
Combo4 : 240,5,5

[HitObjects]
64,64,2813,1,2
192,64,3236,1,2
320,64,3659,1,0
320,64,3870,1,4
448,64,4294,1,0
448,192,4717,1,0
448,320,5140,1,0
448,320,5352,1,4
320,320,5775,1,4
64,320,6198,5,2
192,320,6621,1,2
320,320,7044,1,0
320,320,7256,1,4
448,320,7679,1,0
448,192,8102,1,0
448,64,8525,1,0
448,64,8737,1,4
320,64,9160,1,4
56,64,9583,5,2
176,104,10006,1,2
296,144,10430,1,0
296,144,10641,1,4
416,192,11064,1,0
296,248,11487,1,0
176,296,11911,1,0
176,296,12122,1,4
64,352,12545,1,4
56,192,12969,6,0,C|192:56,1,160,2|2
256,168,13815,1,0
296,120,14026,1,4
376,216,14450,2,0,C|488:360,2,160,0|0
256,192,15716,5,0
256,192,15927,1,0
128,192,16350,2,0,C|232:336,1,160,0|2
288,208,17197,1,0
288,208,17408,1,0
288,208,17620,1,2
408,168,18043,2,0,C|304:24,1,160,0|2
200,96,18889,5,0
192,144,19101,1,0
184,192,19312,1,2
176,240,19524,1,0
168,288,19736,1,0
48,240,20159,1,2
152,168,20582,6,0,C|353:180|408:280,1,320
304,360,21851,1,2
224,256,22275,1,0
264,224,22486,1,0
304,192,22698,1,2
344,160,22909,1,0
384,128,23121,2,0,L|376:64|256:64,1,160,0|2
184,64,23967,5,0
184,64,24179,2,0,L|160:200|184:224,1,160
224,256,24814,2,0,L|328:224|384:272,1,160
464,336,25660,1,0
464,336,25872,2,0,L|296:336,1,160
304,336,26506,1,0
216,240,26929,5,2
320,160,27353,1,0
320,160,27564,1,0
320,160,27776,1,2
216,80,28199,1,0
216,80,28411,1,0
96,136,28834,1,0
88,264,29257,1,2
88,264,29468,1,2
192,336,29892,5,4
280,248,30315,5,2
248,192,30526,2,0,L|176:192,4,40
216,136,31161,1,2
272,24,31584,1,0
384,80,32007,1,2
416,136,32219,2,0,L|480:136,4,40
448,192,32854,1,2
432,256,33065,1,0
408,320,33277,1,0
272,296,33700,5,2
232,248,33912,1,0
256,192,34123,1,0
288,136,34335,1,0
248,88,34546,1,2
144,8,34970,5,0
72,112,35393,1,2
96,168,35604,2,0,L|144:168,4,40
120,224,36239,1,2
144,280,36451,2,0,L|80:280,2,40
272,280,37085,5,2
320,240,37297,2,0,L|376:240,4,40
368,200,37932,1,2
288,96,38355,1,0
184,168,38778,1,2
224,216,38990,2,0,L|176:216,4,40
264,264,39624,1,2
304,312,39836,1,0
344,360,40048,1,0
432,264,40471,5,2
384,216,40682,2,0,L|312:216,4,40
336,168,41317,1,2
248,80,41740,1,0
216,136,41952,1,0
184,192,42163,1,2
216,240,42375,2,0,L|272:240,4,40
248,296,43010,1,2
440,96,43433,6,0,L|328:96,2,80
440,160,44067,2,0,L|168:160,1,240
136,160,44914,2,0,C|168:240|344:240,1,240
376,240,45760,2,0,C|354:313|168:320,1,240,0|4
64,320,46818,6,0,L|176:320,2,80
64,256,47452,2,0,L|336:256,1,240
368,256,48299,2,0,C|336:176|232:176,1,160
136,176,49145,2,0,C|158:103|272:96,1,160,0|0
238,96,49780,1,4
456,64,50203,5,0
456,64,50415,1,0
336,112,50838,1,0
216,64,51261,1,0
96,120,51684,1,0
48,240,52107,1,0
136,328,52531,1,0
256,192,52954,12,0,53800
256,192,55704,12,0,56973
440,320,57396,1,2
376,320,57607,1,0
312,320,57819,1,0
248,320,58030,1,0
184,320,58242,1,2
248,208,58665,5,4
320,96,59088,5,2
256,96,59300,1,0
192,96,59512,1,0
128,96,59723,1,0
64,96,59935,1,2
128,208,60358,5,4
64,320,60781,5,2
128,320,60993,1,0
192,320,61205,1,0
256,320,61416,1,0
320,320,61628,1,2
384,320,61839,1,4
264,168,62474,6,0,C|338:149|360:64,1,160
296,80,63108,2,0,C|136:104,1,160
104,296,64166,2,0,C|112:216|216:208,1,160
184,272,64801,2,0,C|344:272,1,160
440,104,65859,1,0
256,104,66282,1,0
72,104,66705,1,0
256,192,66917,12,0,68821
72,280,69244,1,4
256,280,69667,1,4
440,280,70090,1,4
440,280,70302,2,0,C|288:280|208:200,1,240,0|2
256,96,71360,2,0,C|354:130|344:352,1,320
216,312,72630,2,0,C|128:272|200:248|104:200|192:184|88:136,1,480,2|0
184,48,74322,1,2
304,80,74746,2,0,B|395:190|296:320,1,240,0|0
120,312,76015,5,2
200,216,76438,1,0
200,216,76650,1,0
120,112,77073,1,4
408,72,77708,1,2
336,176,78131,1,0
336,176,78342,1,0
392,288,78766,1,4
32,192,79400,5,0
256,192,79824,5,0
480,192,80247,5,0
256,192,80458,12,0,82363
56,56,84902,1,0
120,56,85113,1,0
184,56,85325,1,2
200,120,85536,2,0,B|24:120,3,160
256,192,87441,5,4
456,336,88287,5,0
392,336,88498,1,0
328,336,88710,1,2
312,272,88921,2,0,B|488:272,3,160
256,192,90826,5,4
464,48,91672,5,0
464,48,91884,1,0
464,48,92095,1,2
464,48,92307,2,0,B|313:81|259:262|40:344,1,480
256,192,94211,12,4,97596
256,32,99712,1,0
256,192,100135,1,0
256,360,100558,1,0
64,48,101828,5,2
176,48,102251,1,2
120,144,102674,1,0
120,144,102885,1,4
176,240,103309,1,0
64,240,103732,1,0
120,336,104155,1,0
120,336,104367,2,0,B|304:336,1,160
392,336,105213,5,2
488,280,105636,1,2
392,224,106059,1,0
392,224,106271,1,4
488,176,106694,1,4
392,120,107117,1,0
488,56,107540,1,0
488,56,107752,2,0,C|304:56,1,160
216,56,108598,5,2
104,56,109021,1,2
48,152,109445,1,0
48,152,109656,1,4
104,248,110079,1,0
216,248,110502,1,0
288,160,110926,1,0
288,160,111137,2,0,C|128:160,1,160
200,328,111984,6,0,C|368:328,1,160,2|2
256,192,112830,1,0
256,192,113041,1,4
312,56,113465,2,0,C|136:56,2,160,0|0
256,192,114726,5,2
256,192,114937,1,2
256,192,115360,5,4
