osu file format v5

[General]
AudioFilename: DJ Mocha - Fallen Angel.mp3
AudioLeadIn: 0
PreviewTime: -1
Countdown: 0
SampleSet: Soft
StackLeniency: 0.7
Mode: 0
LetterboxInBreaks: 1

[Metadata]
Title:Fallen Angel
Artist:DJ - Mocha
Creator:James
Version:Hard Style
Source:
Tags:

[Difficulty]
HPDrainRate:7
CircleSize:5
OverallDifficulty:7
SliderMultiplier:1.6
SliderTickRate:2

[Events]
//Background and Video events
0,0,"fallenhard.png"
1,0,"fa.avi"
//Break Periods
//Storyboard Layer 0 (Background)
//Storyboard Layer 1 (Failing)
//Storyboard Layer 2 (Passing)
//Storyboard Layer 3 (Foreground)
//Storyboard Sound Samples
//Background Colour Transformations
3,100,163,162,255

[TimingPoints]
2813,423.168211267605,4,2,1,100,1
15716,423.168211267605,4,2,0,100,1
29892,423.168211267605,4,1,1,100,1
43433,423.168211267605,4,1,0,100,1
53800,423.168211267605,4,1,1,100,1
56973,423.168211267605,4,1,0,100,1
94211,423.168211267605,4,1,1,100,1
101828,423.168211267605,4,2,1,100,1
114726,423.168211267605,4,2,0,100,1
115361,423.168211267605,4,1,0,100,1

[Colours]
Combo1 : 128,0,255
Combo2 : 255,255,255
Combo3 : 5,5,240
Combo4 : 240,5,5

[HitObjects]
112,128,2813,2,2,C|156:60|248:96,1,160
360,168,3659,1,0
360,168,3870,2,0,C|184:200,1,160,4|0
48,224,4717,1,0
160,336,5140,1,0
160,336,5352,2,4,C|235:310|232:208,1,160
208,72,6198,5,2
360,120,6621,2,4,C|277:127|272:208,1,160,2|0
272,200,7256,1,4
288,360,7679,1,0
416,264,8102,1,0
280,176,8525,1,0
280,176,8737,2,4,C|232:237|136:192,1,160
24,112,9583,5,2
168,48,10006,1,2
296,136,10430,1,0
296,136,10641,1,4
152,216,11064,2,0,C|296:304,1,160,0|0
432,224,11911,1,0
432,224,12122,2,4,C|288:136,1,160,4|4
144,72,12969,6,0,C|124:159|200:208,1,160,2|2
328,256,13815,1,0
328,256,14026,1,4
184,328,14450,2,0,C|232:256|184:176,1,160
96,72,15296,1,2
256,192,15716,5,4
256,192,15927,1,4
440,272,16350,5,0
376,320,16562,1,0
360,240,16773,2,0,C|290:280|280:360,1,160,2|0
200,352,17408,2,0,C|216:168,1,160,2|0
136,192,18043,5,0
128,272,18255,1,0
120,352,18466,2,0,C|184:340|216:224,1,160,2|0
216,168,19101,2,0,C|376:160,1,160,2|0
424,224,19736,5,0
344,232,19947,1,0
264,240,20159,2,0,C|104:256,1,160,2|0
144,184,20794,1,2
224,176,21006,1,0
304,168,21217,5,0
464,144,21639,1,0
336,48,22063,1,2
192,120,22486,2,0,L|192:280,1,160,4|4
192,280,23121,1,0
344,336,23544,5,2
432,200,23967,5,0
360,168,24178,1,0
288,136,24390,1,2
216,104,24602,1,0
72,168,25035,1,0
224,216,25449,1,0
88,296,25872,1,2
240,344,26294,1,2
312,304,26506,1,0
240,264,26718,2,0,B|440:75|440:360,1,320,2|2
456,48,28200,5,4
456,48,28411,1,4
256,48,28834,1,2
48,48,29257,1,4
48,48,29468,1,4
48,208,29892,6,0,C|56:320|128:320,1,160,0|2
176,312,30526,1,0
256,304,30738,1,0
256,304,30843,1,0
256,304,30949,1,0
336,312,31161,1,2
448,200,31585,5,0
368,56,32008,1,2
288,80,32220,1,0
288,80,32325,1,0
288,80,32431,1,0
288,80,32537,1,0
288,80,32643,1,0
208,88,32854,1,2
136,48,33065,5,0
136,48,33171,1,0
136,48,33277,1,0
56,192,33700,5,2
136,176,33911,1,0
216,160,34123,1,0
296,144,34335,1,0
360,192,34546,1,2
480,296,34970,5,0
328,344,35392,1,2
328,344,35604,1,0
176,304,36027,1,2
176,304,36239,1,2
272,176,36662,5,0
160,56,37086,1,2
96,104,37298,1,0
144,168,37509,1,0
144,168,37615,1,0
144,168,37721,1,0
80,216,37932,1,2
176,344,38355,5,0
256,344,38566,1,0
256,264,38778,1,2
336,264,38989,1,0
480,200,39414,1,0
480,120,39624,1,2
480,40,39836,1,0
400,40,40048,1,0
320,40,40260,1,0
240,40,40471,2,0,B|360:154|305:264|144:264,1,320,2|2
72,144,41741,5,0
152,144,41953,1,0
232,144,42164,1,2
312,144,42376,1,0
312,144,42482,1,0
312,144,42587,1,0
312,144,42693,1,0
312,144,42799,1,0
392,144,43010,1,2
408,304,43433,5,0
360,240,43644,1,2
296,288,43856,1,0
216,312,44067,2,2,C|112:314|56:192,1,240,2|2
112,136,44914,2,2,B|384:136,1,240,2|2
312,208,45760,2,2,B|120:208,1,160,2|2
152,208,46395,1,4
72,64,46819,5,0
144,32,47031,1,2
128,112,47242,1,0
200,88,47453,2,2,C|280:152|208:192|248:256,1,240,2|2
231,234,48299,1,0
320,368,48722,1,0
440,264,49145,1,0
376,112,49569,1,0
376,112,49780,1,4
64,48,50204,5,0
64,48,50415,2,2,B|16:139|112:216,1,160
216,288,51261,1,0
224,128,51684,2,2,B|334:126|360:248,1,160,2|2
408,360,52531,1,0
248,328,52954,1,2
88,360,53377,2,0,B|120:184,1,160,0|2
136,128,54012,5,2
208,168,54223,1,0
280,136,54435,1,0
280,136,54541,1,0
280,136,54647,1,0
352,168,54858,1,0
424,200,55070,1,0
480,144,55281,1,4
368,144,55706,5,6
256,144,56129,5,6
144,144,56550,5,6
32,144,56973,5,4
72,328,57395,5,2
168,336,57607,1,0
224,256,57818,1,0
192,168,58030,1,0
96,160,58242,1,2
104,256,58454,2,0,B|242:302|328:160,1,240,0|2
424,32,59511,1,0
96,80,59934,1,2
96,80,60146,2,0,B|137:161|36:212|104:352,1,240,0|2
280,352,61205,5,0
280,352,61416,2,0,B|280:263|368:184,1,160
416,144,62051,1,2
496,192,62263,1,0
496,192,62368,1,0
496,192,62474,1,2
408,232,62686,1,0
480,296,62897,1,2
392,336,63108,2,0,B|280:328|200:320,1,160,0|0
233,324,63743,1,2
40,304,64166,5,2
80,192,64377,1,0
200,192,64589,1,0
304,248,64801,1,0
344,136,65012,1,2
240,72,65224,1,0
56,120,65647,5,0
56,120,65859,5,2
256,120,66283,1,0
456,120,66706,1,2
456,120,66917,2,0,B|456:320,1,160,0|0
368,240,67552,2,0,B|368:344,1,80
272,288,67975,2,0,B|184:344,1,80
152,248,68398,2,0,B|184:160,1,80
136,88,68821,2,0,B|304:88,1,160,4|6
192,248,69668,5,6
352,344,70091,5,6
456,184,70513,5,4
360,152,70725,1,0
280,208,70937,1,2
320,296,71148,1,0
320,296,71254,1,0
320,296,71360,1,0
224,320,71571,1,0
136,288,71783,1,2
152,192,71995,1,0
80,128,72207,5,0
80,128,72313,1,0
80,128,72419,1,0
40,216,72630,1,2
104,288,72842,1,0
192,256,73053,1,0
280,296,73265,1,0
368,256,73477,1,2
456,216,73688,2,0,B|368:160|216:144,1,240,0|2
136,184,74534,5,0
136,184,74639,1,0
136,184,74745,1,0
200,256,74957,1,0
112,296,75168,1,2
184,360,75380,1,0
456,64,75804,5,0
456,64,75910,1,0
456,64,76016,2,0,B|264:64,1,160,2|0
344,144,76650,2,0,B|320:240|216:288,1,160,2|0
251,268,77285,1,4
88,40,77708,6,0,B|56:232,1,160,2|0
152,216,78342,2,0,C|189:168|296:208,1,160,2|4
456,280,79189,1,0
456,280,79401,5,2
272,320,79824,1,0
344,144,80247,1,2
344,144,80459,2,0,B|208:24,1,160,0|0
136,80,81094,2,0,B|136:184,1,80,2|0
232,168,81517,2,0,B|256:272,1,80,0|0
168,304,81940,2,0,B|64:304,1,80,2|0
136,216,82363,2,0,B|320:216,1,160,4|4
368,152,82997,5,0
288,96,83208,1,0
288,96,83314,1,0
288,96,83420,1,0
288,96,83526,1,0
288,96,83632,1,0
288,96,83737,1,0
288,96,83843,1,0
288,96,83949,1,0
288,96,84055,1,4
48,192,84478,5,2
192,312,84901,5,0
272,264,85113,1,0
272,168,85324,1,2
192,216,85536,2,0,B|184:24,1,160,0|0
272,16,86171,1,2
280,112,86383,2,0,C|295:200|384:216,1,160,0|0
448,168,87017,1,2
368,112,87229,1,0
368,112,87334,1,0
368,112,87440,1,4
192,184,87864,5,2
352,288,88286,5,0
272,344,88498,1,0
240,248,88710,1,2
168,312,88921,2,0,C|84:275|72:176,1,160
72,112,89556,1,2
152,56,89768,2,0,B|160:224,1,160,0|0
160,216,90402,1,2
344,264,90826,5,4
440,96,91249,1,2
256,32,91672,5,0
296,120,91883,1,0
232,192,92095,1,2
272,280,92307,1,4
88,344,92731,1,0
32,160,93154,1,0
176,32,93577,1,0
464,336,94212,5,2
368,304,94423,2,4,C|376:208,1,80,0|0
328,136,94847,1,2
248,80,95057,2,4,C|152:112,1,80,0|0
104,176,95481,1,2
168,248,95692,2,4,C|264:256,1,80,0|0
344,256,96116,1,2
416,200,96326,2,4,C|424:104,1,80,0|0
344,64,96750,1,2
264,112,96961,1,0
304,200,97173,5,2
304,200,97279,1,0
304,200,97385,1,0
208,200,97596,1,4
208,200,97702,1,0
208,200,97808,1,0
120,240,98019,1,0
152,328,98231,1,2
152,328,98337,1,0
152,328,98443,1,0
248,312,98654,1,0
344,312,98866,1,0
344,312,98971,1,0
344,312,99077,1,0
344,312,99183,1,0
344,312,99289,1,4
256,192,99712,12,0,100558
416,168,100982,1,0
320,184,101193,1,0
248,248,101405,1,0
232,344,101616,1,0
232,344,101722,1,0
232,344,101828,5,2
72,56,102251,1,2
424,72,102674,1,0
424,72,102885,1,4
464,352,103309,1,0
80,296,103732,1,0
416,184,104156,1,0
416,184,104368,1,4
112,40,104791,1,4
216,352,105213,6,0,B|384:352,1,160,2|2
472,184,106061,1,0
472,184,106272,2,0,B|320:72,1,160,0|0
152,128,107117,2,0,B|144:304,1,160
144,288,107753,1,4
328,344,108176,1,4
472,216,108598,6,0,C|456:112|384:136,1,160,2|2
224,184,109445,1,0
224,184,109656,2,0,C|289:260|336:208,1,160,2|0
280,32,110502,2,0,C|168:32|160:96,1,160
159,75,111137,1,0
168,264,111560,1,0
296,328,111984,6,0,B|432:232,1,160,2|2
312,80,112831,1,0
312,80,113042,2,0,B|120:80,1,160,0|0
32,232,113888,2,0,C|46:316|128:336,1,160
208,336,114523,1,4
304,336,114726,5,2
400,336,114937,1,2
256,192,115361,5,4
