osu file format v14

[General]
AudioFilename: Always be myself.mp3
AudioLeadIn: 1300
PreviewTime: 46349
Countdown: 0
SampleSet: Soft
StackLeniency: 0.7
Mode: 0
LetterboxInBreaks: 0
WidescreenStoryboard: 0

[Editor]
Bookmarks: 98387,99772,106695
DistanceSpacing: 1
BeatDivisor: 4
GridSize: 4
TimelineZoom: 1

[Metadata]
Title:Always be myself
TitleUnicode:Always be myself
Artist:DINY
ArtistUnicode:DINY
Creator:pife1
Version:Easy
Source:라테일
Tags:mmorpg HyunTaek Yun LaTale ActozSoft 액토즈소프트
BeatmapID:284734
BeatmapSetID:103638

[Difficulty]
HPDrainRate:3
CircleSize:3
OverallDifficulty:3
ApproachRate:3
SliderMultiplier:0.90000000596046
SliderTickRate:1

[Events]
//Background and Video events
0,0,"Untitled-1.jpg",0,0
//Break Periods
2,60280,64178
//Storyboard Layer 0 (Background)
//Storyboard Layer 1 (Fail)
//Storyboard Layer 2 (Pass)
//Storyboard Layer 3 (Foreground)
//Storyboard Sound Samples

[TimingPoints]
1003,461.538461538462,4,2,0,80,1,0
1003,-100,4,2,4,50,0,0
11387,-100,4,1,3,60,0,0
12541,-100,4,2,3,60,0,0
13926,-100,4,2,3,60,0,0
15310,-100,4,2,4,65,0,0
19464,-100,4,1,3,65,0,0
22695,-100,4,2,1,60,0,0
28695,-100,4,2,3,60,0,0
31003,-100,4,2,4,60,0,0
33310,-100,4,2,6,60,0,0
36080,-100,4,2,6,60,0,0
38272,-100,4,1,3,55,0,0
38503,-100,4,2,4,60,0,0
40118,-100,4,2,6,60,0,0
40464,-100,4,2,1,60,0,0
41157,-100,4,2,4,60,0,0
41618,-100,4,2,6,70,0,0
42080,-100,4,2,5,60,0,0
43464,-100,4,2,6,60,0,0
47156,-100,4,2,3,60,0,1
49926,-100,4,2,6,60,0,1
53618,-100,4,2,3,60,0,0
54541,-100,4,2,3,60,0,1
55003,-100,4,1,3,60,0,1
55464,-100,4,2,3,60,0,1
60079,-100,4,2,3,60,0,0
65618,-100,4,2,6,60,0,0
67926,-100,4,1,3,60,0,0
69310,-100,4,1,1,60,0,0
69772,-100,4,2,5,60,0,0
73003,-100,4,1,3,60,0,0
74387,-100,4,1,3,60,0,0
77157,-100,4,2,4,70,0,0
78541,-100,4,2,4,70,0,0
82464,-100,4,1,3,60,0,0
82926,-100,4,1,3,60,0,0
87772,-100,4,2,4,60,0,0
88695,-100,4,2,6,60,0,0
90080,-100,4,1,3,60,0,0
91464,-100,4,2,3,60,0,0
91926,-100,4,2,4,70,0,0
93310,-100,4,1,3,60,0,1
113618,-100,4,1,3,60,0,0
114079,-100,4,2,3,5,0,0

[Colours]
Combo1 : 170,196,102
Combo2 : 159,227,205
Combo3 : 129,183,125
Combo4 : 202,136,138

[HitObjects]
188,48,1003,38,0,P|132:104|212:168,1,180.000001192092,2|2,0:0|0:0,0:0:0:0:
256,112,2387,1,0,0:0:0:0:
320,48,2849,2,0,P|376:104|296:168,1,180.000001192092,2|2,0:0|0:0,0:0:0:0:
276,248,4233,5,0,1:0:0:0:
184,248,4695,1,0,1:0:0:0:
180,156,5157,2,0,L|180:58,2,90.000000596046,2|0|0,0:0|0:0|0:0,0:0:0:0:
92,144,6541,2,0,L|92:240,1,90.000000596046,0|0,1:0|0:0,0:0:0:0:
152,304,7464,1,0,1:0:0:0:
328,317,8387,6,0,P|372:325|432:309,2,90.000000596046,0|2|0,1:0|0:0|1:0,0:0:0:0:
266,251,9772,1,2,0:0:0:0:
327,189,10233,2,0,P|371:181|431:197,1,90.000000596046,0|2,1:0|0:0,0:0:0:0:
460,268,11157,6,0,P|380:293|284:264,1,180.000001192092,2|0,0:0|1:0,0:0:0:0:
289,177,12541,2,0,L|289:67,2,90.000000596046,2|0|0,0:2|1:0|1:0,0:0:0:0:
288,268,13926,1,0,1:0:0:0:
127,45,15772,6,0,L|81:127,1,90.000000596046,2|0,0:0|1:0,0:0:0:0:
45,205,16695,2,0,P|75:237|116:256,1,90.000000596046,2|0,0:0|1:0,0:0:0:0:
200,288,17618,2,0,P|180:324|140:340,2,67.5000004470345,2|2|2,0:0|0:0|0:0,0:0:0:0:
296,144,19464,6,0,P|386:128|490:157,1,180.000001192092,0|0,1:0|0:0,0:0:0:0:
476,236,20849,2,0,L|476:340,1,90.000000596046,0|4,0:0|2:0,0:0:0:0:
476,55,22695,5,0,1:0:0:0:
417,123,23156,2,0,P|364:110|318:127,1,90.000000596046,0|4,1:0|0:0,0:0:0:0:
255,69,24079,2,8,P|207:77|156:65,1,90.000000596046,4|0,0:0|1:0,0:0:0:0:
164,159,25003,2,0,L|164:268,2,90.000000596046,0|4|4,1:0|0:0|0:0,0:0:0:0:
339,117,26849,5,0,1:0:0:0:
379,197,27310,1,0,1:0:0:0:
424,119,27772,2,0,L|424:29,1,90.000000596046,0|0,1:0|1:0,0:0:0:0:
339,59,28695,2,0,B|339:208|339:208|397:260|348:345,1,270.000001788138,2|2,0:0|0:0,0:0:0:0:
276,280,30541,5,0,1:0:0:0:
220,208,31003,2,0,B|132:256|28:200,1,180.000001192092,2|0,0:0|1:0,0:0:0:0:
20,124,32387,1,0,0:0:0:0:
44,36,32849,2,0,B|132:-12|236:44,1,180.000001192092,2|0,0:0|1:0,0:0:0:0:
256,116,34233,6,0,L|256:244,2,90.000000596046,2|0|2,0:0|1:0|0:0,0:0:0:0:
324,56,35618,2,0,B|413:19|518:56,1,180.000001192092,0|0,1:0|1:0,0:0:0:0:
476,136,37003,2,0,P|432:147|385:203,1,90.000000596046,0|0,1:0|1:0,0:0:0:0:
332,236,37926,6,0,P|248:265|153:220,1,180.000001192092,2|0,0:0|1:0,0:0:0:0:
128,152,39310,1,0,1:0:0:0:
112,64,39772,2,0,P|40:128|67:216,1,180.000001192092,0|2,1:0|0:0,0:0:0:0:
129,251,41157,2,0,B|208:236|250:296|250:296|327:297,1,180.000001192092,0|0,1:0|1:0,0:0:0:0:
342,221,42541,5,2,0:0:0:0:
406,283,43003,2,0,B|452:220|404:157|404:157|410:87,1,180.000001192092,0|0,1:0|1:0,0:0:0:0:
322,86,44387,2,0,P|306:130|235:161,1,90.000000596046,2|0,0:0|1:0,0:0:0:0:
289,244,45310,2,0,P|323:271|338:313,1,90.000000596046,0|4,1:0|1:0,0:0:0:0:
289,48,47157,5,4,1:0:0:0:
377,60,47618,2,0,P|423:66|479:54,2,90.000000596046,0|2|0,1:0|2:0|1:0,0:0:0:0:
317,127,49003,1,6,2:0:0:0:
381,189,49464,2,0,B|319:236|257:190|257:190|214:265,1,180.000001192092,0|0,1:0|1:0,0:0:0:0:
202,313,50849,5,2,0:0:0:0:
291,319,51310,2,0,P|381:340|484:309,1,180.000001192092,0|0,1:0|1:0,0:0:0:0:
426,239,52695,2,0,P|469:228|530:252,2,90.000000596046,2|0|2,0:0|1:0|0:0,0:0:0:0:
348,76,54541,6,0,P|258:97|155:66,1,180.000001192092,4|4,0:0|0:0,0:0:0:0:
104,134,55926,1,0,1:0:0:0:
68,216,56387,2,0,L|25:314,1,90.000000596046,2|0,0:0|1:0,0:0:0:0:
119,318,57310,2,0,P|155:323|212:354,1,90.000000596046,2|0,0:0|1:0,0:0:0:0:
256,274,58233,5,2,0:0:0:0:
256,183,58695,2,0,L|257:66,2,90.000000596046,0|2|0,1:0|0:0|1:0,0:0:0:0:
256,273,60080,1,0,1:0:0:0:
221,46,65618,6,0,P|175:55|144:87,1,90.000000596046,2|2,0:0|0:0,0:0:0:0:
66,127,66541,2,0,P|96:160|142:171,1,90.000000596046,2|2,0:0|0:0,0:0:0:0:
217,127,67464,1,2,0:0:0:0:
184,291,68387,6,0,P|216:322|270:331,1,90.000000596046,4|0,2:0|0:0,0:0:0:0:
259,241,69310,1,0,0:0:0:0:
216,160,69772,2,0,P|298:161|347:258,1,180.000001192092,4|0,0:0|1:0,0:0:0:0:
437,234,71157,2,0,L|488:327,2,90.000000596046,0|4|4,1:0|0:0|0:0,0:0:0:0:
336,85,73003,6,0,P|248:61|146:90,1,180.000001192092,0|0,0:0|0:0,0:0:0:0:
132,164,74387,1,0,0:0:0:0:
163,248,74849,2,0,P|251:272|350:241,2,180.000001192092
87,198,77157,6,0,P|45:225|26:268,1,90.000000596046,2|0,0:0|0:0,0:0:0:0:
112,284,78080,2,0,P|183:328|306:314,1,180.000001192092,0|2,1:0|0:0,0:0:0:0:
354,280,79464,2,0,L|446:354,1,90.000000596046,2|0,0:0|1:0,0:0:0:0:
469,258,80387,6,0,L|515:161,1,90.000000596046,2|0,0:0|1:0,0:0:0:0:
440,117,81310,2,0,P|393:145|341:139,1,90.000000596046,2|0,0:0|1:0,0:0:0:0:
367,55,82233,2,0,B|320:17|256:103|194:34,1,180.000001192092,2|0,0:0|1:2,0:0:0:0:
123,88,83618,5,0,0:0:0:0:
73,163,84080,2,0,L|19:261,1,90.000000596046,2|0,2:0|1:0,0:0:0:0:
109,285,85003,2,0,P|198:281|285:363,1,180.000001192092,0|0,1:0|1:0,0:0:0:0:
358,332,86387,5,2,2:0:0:0:
408,257,86849,2,0,L|458:153,1,90.000000596046,2|0,2:0|0:0,0:0:0:0:
485,94,87772,1,2,0:0:0:0:
400,60,88233,2,0,P|316:89|216:43,1,180.000001192092,0|0,1:0|1:0,0:0:0:0:
212,147,89618,6,0,P|128:118|45:147,2,180.000001192092,2|2|0,0:0|2:0|1:0,0:0:0:0:
302,148,91926,2,0,P|386:119|469:148,1,180.000001192092,4|0,0:0|1:0,0:0:0:0:
417,221,93310,6,0,B|358:183|313:271|233:199,1,180.000001192092,4|0,0:0|0:0,0:0:0:0:
190,137,94695,1,0,0:0:0:0:
145,58,95156,2,0,P|110:87|99:135,1,90.000000596046
29,183,96079,2,0,P|85:251|92:343,1,180.000001192092
179,322,97464,6,0,L|284:349,1,90.000000596046
348,308,98387,1,0,0:0:0:0:
398,233,98849,2,0,P|379:184|393:135,1,90.000000596046,0|0,0:0|0:0,0:0:0:0:
342,69,99772,2,0,B|256:28|162:69,1,180.000001192092
86,108,101156,5,0,0:0:0:0:
123,189,101618,2,0,B|121:278|191:350,1,180.000001192092
257,289,103003,1,0,0:0:0:0:
322,350,103464,2,0,B|392:278|390:189,1,180.000001192092
371,99,104849,6,0,P|327:117|302:169,1,90.000000596046,0|0,0:0|0:0,0:0:0:0:
256,227,105772,2,0,L|255:337,2,90.000000596046,0|0|0,0:0|0:0|0:0,0:0:0:0:
205,152,107156,2,0,P|184:112|147:87,1,90.000000596046
115,171,108080,6,0,P|78:196|58:236,1,90.000000596046,0|0,0:0|0:0,1:0:0:0:
87,320,109003,2,0,P|123:294|143:254,1,90.000000596046,0|0,0:0|0:0,1:0:0:0:
232,243,109926,2,0,P|320:262|418:233,1,180.000001192092
451,162,111310,5,0,0:0:0:0:
403,85,111772,2,0,P|315:61|215:93,1,180.000001192092
256,261,113618,1,0,0:0:0:0:
256,192,114079,12,0,117309,0:0:0:0:
