osu file format v6

[General]
AudioFilename: DHT - Listen To Your Heart (Techno).mp3
AudioLeadIn: 0
PreviewTime: -1
Countdown: 1
SampleSet: Soft
StackLeniency: 0.7
Mode: 0
LetterboxInBreaks: 1

[Editor]
Bookmarks: 71579,111303,136958,167578
DistanceSpacing: 1.60000002384186
BeatDivisor: 4
GridSize: 8

[Metadata]
Title:Listen To Your Heart (Techno)
Artist:DHT
Creator:Rolled
Version:Hard
Source:
Tags:

[Difficulty]
HPDrainRate:6
CircleSize:5
OverallDifficulty:6
SliderMultiplier:1.4
SliderTickRate:2

[Events]
//Background and Video events
0,0,"steth.jpg"
//Break Periods
2,111517,124139
//Storyboard Layer 0 (Background)
//Storyboard Layer 1 (Fail)
//Storyboard Layer 2 (Pass)
//Storyboard Layer 3 (Foreground)
//Storyboard Sound Samples
//Background Colour Transformations
3,48,0,0,0

[TimingPoints]
2086,827.586206896552,4,2,0,100,1,0
71593,413.793103448276,4,1,0,100,1,0
111327,827.586206896552,4,2,0,100,1,0
167583,413.793103448276,4,1,0,100,1,0

[HitObjects]
128,88,15741,1,0
88,144,16154,1,0
88,216,16568,1,0
128,272,16982,1,0
184,312,17396,1,0
248,320,17810,1,0
312,296,18223,1,0
368,256,18637,2,0,C|400:216|336:152|424:80,1,210
312,56,22362,5,0
360,104,22776,1,0
312,152,23190,1,0
360,200,23604,1,0
304,248,24017,1,0
256,192,24431,1,0
208,144,24845,1,0
160,192,25258,2,0,C|216:248|160:304|208:352,1,210
256,96,27741,5,0
256,80,28982,5,0
256,144,29396,1,0
256,208,29810,2,0,C|256:232,1,35
232,304,31258,6,0,C|256:304,1,35
328,264,31879,1,2
384,216,32292,1,2
392,144,32706,1,2
344,96,33120,1,6
136,96,34361,5,2
136,128,34568,1,2
136,160,34775,1,2
136,192,34982,1,2
168,200,35189,1,2
200,200,35396,1,2
256,32,36430,1,4
256,168,37258,5,0
256,240,37672,1,0
256,312,38086,2,0,C|403:262|388:186|320:200,1,280
192,192,40982,5,0
224,192,41189,1,0
256,192,41396,2,0,C|256:160,1,35
256,120,41810,1,2
200,192,44292,6,0,C|264:224|328:184,2,140
256,152,46361,1,6
464,152,47603,6,0,C|464:160,4,35
96,144,50706,6,0,C|112:144,2,35
200,144,51741,1,2
272,144,52154,1,2
344,144,52568,1,2
344,216,52982,1,2
256,88,54223,5,0
256,88,54430,1,0
256,192,55051,1,0
256,264,55465,1,0
328,264,55879,1,0
328,192,56292,1,0
400,192,56706,1,0
400,264,57120,1,0
400,336,57534,1,0
328,336,57948,5,2
296,336,58154,1,2
256,336,58361,1,2
184,336,58775,1,0
112,336,59189,1,0
112,264,59603,1,0
112,192,60017,1,0
112,120,60430,1,0
184,120,60844,1,0
256,120,61258,5,2
280,144,61465,1,2
304,120,61672,1,2
376,120,62086,1,0
376,192,62499,1,0
376,264,62913,1,0
304,272,63327,1,0
232,272,63741,1,0
160,272,64154,1,0
160,200,64568,1,0
232,200,64982,6,2,C|232:144,7,35
264,168,66637,2,2,C|264:152,16,17.5
256,112,71603,5,0
392,112,72016,1,0
392,248,72430,1,0
248,248,72844,2,0,C|216:248,2,70
104,256,73671,1,0
104,112,74085,2,0,C|144:112,4,70
240,112,75327,5,0
376,112,75740,1,0
376,248,76154,2,0,C|336:248,2,70
232,256,76982,1,0
88,264,77396,2,0,C|48:232|80:208|48:176|88:136|24:80,1,280
168,72,78637,5,0
304,72,79051,1,0
408,160,79465,1,0
408,232,79671,1,0
408,304,79878,1,0
264,304,80292,1,0
120,304,80706,5,0
72,256,80913,1,0
128,216,81120,1,0
72,176,81327,1,0
128,136,81534,1,0
224,40,81947,5,0
360,40,82361,1,0
440,160,82775,1,0
344,264,83189,1,0
256,160,83603,1,0
144,240,84016,5,0
144,240,84120,1,0
72,240,84327,1,0
72,240,84430,1,0
72,168,84637,1,0
112,112,84844,5,0
232,48,85258,2,0,C|368:120|248:200|336:304,1,420
424,192,86913,6,0,C|384:240|328:184|288:248|232:184|192:232|128:176,1,420
200,72,88568,6,0,C|213:90|217:118|192:136,6,70
184,208,90223,6,0,C|336:208,3,140
256,208,91878,12,0,92292
256,288,92696,5,0
256,216,92903,1,0
256,144,93110,1,0
168,32,93534,5,0
336,32,93947,1,0
256,152,94361,1,0
256,224,94568,1,0
256,296,94775,1,0
256,208,95085,12,0,96420
256,48,96844,5,0
256,112,97258,2,0,C|256:120,16,17.5
256,248,98499,5,0
392,248,98913,1,0
320,128,99327,1,0
248,128,99534,1,0
280,64,99740,1,0
136,64,100154,1,0
136,200,100568,5,0
136,232,100671,1,0
184,280,100879,1,0
216,280,100982,1,0
200,208,101188,1,0
256,248,101396,1,0
168,352,101809,5,0
40,296,102223,1,0
112,176,102637,1,0
184,176,102843,1,0
152,112,103050,1,0
288,64,103464,1,0
408,128,103878,5,0
408,160,103981,1,0
368,216,104188,1,0
336,216,104292,1,0
344,144,104499,1,0
264,176,104706,2,0,L|168:64|72:192|168:280|272:168,2,560
256,208,108213,12,0,111317
256,96,125189,5,0
288,96,125395,1,0
288,168,125809,1,0
256,168,126016,1,0
152,136,126845,1,0
152,168,127052,1,0
152,200,127258,1,0
200,296,127878,2,0,L|288:296,3,70
368,152,130154,5,2
336,160,130361,1,2
304,168,130568,1,2
312,200,130775,1,2
344,192,130982,1,2
376,184,131189,1,2
392,216,131395,1,2
112,72,133258,5,0
184,72,133671,1,0
256,72,134085,2,2,B|336:88|368:120|376:168|368:224|344:272|304:296|272:320|240:320|200:312|152:312,1,420
136,256,136982,5,4
192,216,137395,1,4
256,208,137809,12,0,139051
120,80,140292,6,0,B|208:48|272:48|352:64|392:96,2,280
128,152,144016,1,0
120,224,144430,2,0,B|208:256|272:256|337:255|400:200,2,280
112,152,148154,2,0,B|184:152,2,70
96,80,151051,5,0
168,80,151464,1,0
240,80,151878,1,0
312,80,152292,1,0
384,80,152706,1,0
384,152,153120,1,0
312,152,153533,1,0
240,152,153947,5,0
168,152,154361,1,0
96,152,154775,1,0
96,224,155189,1,0
168,224,155602,1,0
240,224,156016,1,0
312,224,156430,1,0
384,224,156844,1,0
384,296,157258,1,0
312,296,157671,5,0
280,296,157878,1,0
248,296,158085,1,0
216,296,158292,1,0
184,296,158499,1,0
152,296,158706,1,0
120,296,158913,1,0
88,296,159120,1,0
88,264,159327,5,0
88,232,159533,1,0
88,200,159740,1,0
88,168,159947,1,0
120,168,160154,1,0
152,168,160361,1,0
184,168,160568,1,0
216,168,160775,1,0
248,168,160982,5,0
248,136,161189,1,0
248,104,161395,1,0
248,72,161602,1,0
280,72,161809,1,0
312,72,162016,1,0
344,72,162223,1,0
376,72,162430,1,0
376,104,162637,6,0,B|376:112,16,17.5
96,72,167602,5,0
176,184,168015,1,0
264,72,168429,1,0
176,184,168843,1,0
248,184,169050,1,0
176,184,169257,1,0
104,184,169464,1,0
176,184,169670,1,0
176,320,170084,5,0
312,320,170498,1,0
240,320,170705,1,0
240,248,170912,1,0
312,248,171119,1,0
312,320,171326,1,0
448,280,171739,5,0
392,152,172153,1,0
344,104,172360,1,0
280,72,172567,1,0
392,152,172981,1,0
456,24,173395,5,0
384,24,173602,1,0
440,56,173808,1,0
368,56,174015,1,0
400,112,174222,1,0
256,104,174636,1,0
328,224,175050,1,0
264,352,175464,5,0
264,280,175670,1,0
200,312,175877,1,0
336,312,176291,1,0
344,168,176705,6,0,B|344:96,3,70
272,128,177533,1,0
408,136,177946,1,0
408,272,178360,1,0
264,272,178774,1,0
120,272,179188,1,0
264,272,179602,1,0
264,128,180015,6,0,B|264:104,1,35
296,96,180326,2,0,B|312:96,3,35
48,72,180843,6,0,B|144:176,1,140
248,264,181670,1,0
352,168,182085,2,0,B|368:152,4,70
456,264,183326,5,0
328,320,183739,2,0,L|296:272|224:320,2,140
240,208,184981,1,0
136,112,185395,2,0,L|264:32,2,140
224,224,186636,5,0
280,184,186843,1,0
320,240,187050,1,0
264,280,187257,1,0
328,304,187464,1,0
352,168,187877,5,0
256,64,188291,1,0
144,144,188705,2,0,L|96:184,1,70
144,232,189119,1,0
280,264,189533,1,0
368,184,189946,6,0,L|328:144,1,70
264,184,190360,2,0,L|314:138,1,70
320,208,190774,1,0
192,144,191188,5,0
256,24,191602,1,0
192,144,192015,1,0
328,152,192429,1,0
192,144,192843,1,0
256,272,193257,1,0
224,208,193464,1,0
192,144,193670,1,0
120,136,193877,1,0
128,64,194084,5,0
232,152,194498,1,0
112,232,194912,1,0
224,312,195326,1,0
296,312,195533,1,0
368,312,195739,1,0
296,192,196153,1,0
256,56,196567,5,0
256,56,196670,1,0
328,56,196877,1,0
328,56,196981,1,0
400,56,197188,1,0
384,320,197395,5,0
280,232,197809,1,0
400,152,198223,1,0
288,72,198636,1,0
216,72,198843,1,0
144,72,199050,1,0
216,192,199464,1,0
256,328,199878,5,0
256,328,199981,1,0
184,328,200188,1,0
184,328,200292,1,0
112,328,200499,1,0
128,240,200705,6,0,L|248:160|352:256,2,280
240,320,202774,1,0
184,192,203188,6,0,L|208:176,11,17.5
256,208,204015,12,0,207326
