osu file format v9

[General]
AudioFilename: Naruto Shippuden Ending 8.mp3
AudioLeadIn: 0
PreviewTime: 5000
Countdown: 0
SampleSet: Normal
StackLeniency: 0.7
Mode: 0
LetterboxInBreaks: 1

[Editor]
Bookmarks: 52
DistanceSpacing: 1.4
BeatDivisor: 4
GridSize: 8

[Metadata]
Title:Bacchikoi!!!(TV Size)
Artist:DEV PARADE
Creator:mebins
Version:Tryout
Source:Naruto Shippuden
Tags:ED 08 Mik-ey Uzumaki Naruto Hinata Hyuuga Sakura Haruno Ino Yamanaka theowest

[Difficulty]
HPDrainRate:7
CircleSize:4
OverallDifficulty:7
ApproachRate:8
SliderMultiplier:1.6
SliderTickRate:1

[Events]
//Background and Video events
Video,0,"Narutos Hq.avi"
0,0,"NarutoShippuden.jpg"
//Break Periods
//Storyboard Layer 0 (Background)
//Storyboard Layer 1 (Fail)
//Storyboard Layer 2 (Pass)
//Storyboard Layer 3 (Foreground)
//Storyboard Sound Samples
//Background Colour Transformations
3,100,163,162,255

[TimingPoints]
2328,422.535211267606,4,1,0,50,1,0
19782,-100,4,1,0,100,0,0
50444,-100,4,1,0,100,0,0
67768,-100,4,1,0,100,0,1
86782,-100,4,1,0,100,0,0

[Colours]
Combo1 : 14,231,231
Combo2 : 225,66,230
Combo3 : 233,12,45
Combo4 : 45,244,70
Combo5 : 255,0,128

[HitObjects]
56,152,2328,2,0,B|72:48|200:48,1,160
288,56,3173,2,0,B|344:64|384:104|384:112,1,80
320,208,3806,1,0
192,208,4229,1,0
96,248,5074,2,0,B|136:336|224:352|304:352|400:328|432:240,1,400
32,280,7398,1,0
144,216,7820,1,0
256,280,8243,1,0
368,216,8666,1,0
480,280,9088,1,0
320,48,9933,1,0
192,48,10356,1,0
192,144,10778,1,0
320,144,11201,1,0
144,216,11623,2,0,B|152:288|208:320|272:320|344:312|376:272|376:192,1,320
120,200,13313,2,0,B|48:216|56:288|64:336|128:352,1,200
320,280,15004,1,0
440,216,15426,1,0
328,144,15849,1,0
424,88,16271,1,0
328,32,16694,1,0
184,256,17116,2,0,B|104:144|192:32|392:64|448:176|320:272,1,480
264,312,18806,1,0
136,304,19229,2,0,B|136:208,2,80
264,312,19863,2,0,B|264:200,2,80
160,152,20919,2,0,B|128:184|144:240,2,80
184,272,21764,2,0,B|232:288|280:272,2,80
248,192,22398,1,0
320,112,22609,1,0
376,24,22820,1,0
432,112,23032,1,0
472,208,23243,1,0
448,312,23454,2,0,B|384:336|312:336|288:304,1,160
192,336,24088,2,0,B|112:336,1,80
128,208,24511,1,0
224,72,24933,2,0,B|304:72,1,80
384,208,25356,1,0
208,328,25989,1,0
336,328,26412,1,0
344,200,26835,1,0
408,120,27257,2,0,B|400:16|264:40,1,160
104,120,28102,2,0,B|112:16|248:40,1,160
256,200,28947,1,0
48,192,29370,1,0
256,352,29792,1,0
448,192,30215,1,0
256,64,30637,1,0
56,192,31060,1,0
256,192,31482,1,0
256,328,31905,1,0
352,336,32116,1,0
416,272,32328,1,8
200,200,32750,1,0
104,296,33173,1,0
48,232,33595,2,0,B|24:176|32:120|80:80,1,160
280,64,34440,2,0,B|352:56|400:96|408:144,1,160
424,240,35074,1,0
336,296,35285,1,0
232,288,35497,1,0
128,288,35708,1,0
32,248,35919,2,0,B|8:160|80:80|176:104,1,240
280,104,36764,1,0
336,104,36870,1,0
384,112,36975,1,0
376,216,37187,1,0
480,216,37398,1,0
424,304,37609,1,0
216,336,38032,2,0,B|120:336|56:248,1,160
48,168,38666,1,0
56,112,38771,1,0
112,96,38877,1,0
224,88,39088,1,0
336,96,39299,1,0
448,104,39511,1,0
504,200,39722,1,0
440,288,39933,1,0
328,296,40144,1,0
216,296,40356,1,0
104,280,40567,2,0,B|184:192,1,120
96,48,41201,1,0
264,200,41623,1,0
440,48,42046,1,0
480,264,42468,2,0,B|416:264|384:304|320:256,1,160
104,256,43313,2,0,B|160:224|192:280|240:272|264:248,1,160
304,32,44158,2,0,B|304:208,1,160
120,312,45426,1,0
440,144,46271,1,0
264,32,46694,1,0
72,144,47116,1,0
336,304,47539,1,0
80,232,47961,2,0,B|24:256|16:360|88:360,1,160
184,352,48806,1,0
296,352,49018,1,0
432,232,49440,2,0,B|488:256|496:360|424:360,1,160
64,80,50919,2,0,B|160:16|192:120|288:160|376:56,1,320
472,48,52187,1,0
256,192,52609,1,0
472,264,53032,1,0
256,328,53454,1,0
40,264,53877,1,0
40,40,54299,1,0
