osu file format v13

[General]
AudioFilename: 04_vol_boss+++.mp3
AudioLeadIn: 0
PreviewTime: 66412
Countdown: 0
SampleSet: Normal
StackLeniency: 0.7
Mode: 0
LetterboxInBreaks: 1
WidescreenStoryboard: 0

[Editor]
DistanceSpacing: 0.5
BeatDivisor: 4
GridSize: 8
TimelineZoom: 1.9

[Metadata]
Title:volcanic
TitleUnicode:volcanic
Artist:DETRO
ArtistUnicode:DETRO
Creator:spro
Version:Beginner
Source:toy musical 2
Tags:luzeria BMS
BeatmapID:561335
BeatmapSetID:243337

[Difficulty]
HPDrainRate:3
CircleSize:3.8
OverallDifficulty:8.8
ApproachRate:9.5
SliderMultiplier:2.7
SliderTickRate:1

[Events]
//Background and Video events
0,0,"vol_bg.jpg",0,0
//Break Periods
//Storyboard Layer 0 (Background)
//Storyboard Layer 1 (Fail)
//Storyboard Layer 2 (Pass)
//Storyboard Layer 3 (Foreground)
//Storyboard Sound Samples
//Background Colour Transformations
3,100,163,162,255

[TimingPoints]
1229,314.13612565445,4,1,0,58,1,0
4998,-100,4,1,0,78,0,0
6333,-100,4,1,0,68,0,0
26359,-133.333333333333,4,2,0,68,0,0
35155,-100,4,1,0,68,0,0
66569,-100,4,1,0,78,0,1
86674,-100,4,1,0,84,0,0
101752,157.068062827225,4,1,0,84,1,0
106778,104.712041884817,3,1,0,84,1,1
109291,39.2670157068063,4,1,0,88,1,1
111489,314.13612565445,4,1,0,68,1,1
111804,314.13612565445,4,1,0,68,1,0
121856,-100,4,1,0,68,0,1
131987,-100,4,1,0,28,0,0

[HitObjects]
416,112,1229,5,0,0:0:0:0:
304,192,1386,1,0,0:0:0:0:
304,192,1464,1,0,0:0:0:0:
368,176,1543,1,0,0:0:0:0:
256,128,1700,5,0,0:0:0:0:
144,208,1857,1,0,0:0:0:0:
144,208,1935,1,0,0:0:0:0:
208,192,2014,1,0,0:0:0:0:
128,80,2171,5,0,0:0:0:0:
0,272,2328,1,0,0:0:0:0:
432,176,2485,5,0,0:0:0:0:
320,256,2642,1,0,0:0:0:0:
320,256,2720,1,0,0:0:0:0:
384,240,2799,1,0,0:0:0:0:
272,192,2956,5,0,0:0:0:0:
160,272,3113,1,0,0:0:0:0:
160,272,3191,1,0,0:0:0:0:
224,256,3270,1,0,0:0:0:0:
144,144,3427,5,0,0:0:0:0:
16,336,3584,1,0,0:0:0:0:
448,96,3742,5,0,0:0:0:0:
336,176,3899,1,0,0:0:0:0:
336,176,3977,1,0,0:0:0:0:
400,160,4056,1,0,0:0:0:0:
288,112,4213,5,0,0:0:0:0:
176,192,4370,1,0,0:0:0:0:
176,192,4448,1,0,0:0:0:0:
240,176,4527,1,0,0:0:0:0:
160,64,4684,5,0,0:0:0:0:
32,256,4841,1,0,0:0:0:0:
400,48,4998,6,0,L|384:128,1,67.5,4|0,0:0|0:0,0:0:0:0:
336,304,5155,1,0,0:0:0:0:
272,272,5234,1,0,0:0:0:0:
208,304,5312,2,0,P|176:320|128:320,1,67.5,4|0,0:0|0:0,0:0:0:0:
16,176,5469,2,0,P|48:160|96:160,1,67.5
272,0,5626,5,4,0:0:0:0:
256,64,5705,1,0,0:0:0:0:
240,128,5783,1,0,0:0:0:0:
448,336,5941,5,4,0:0:0:0:
432,272,6019,1,0,0:0:0:0:
416,208,6098,1,0,0:0:0:0:
400,144,6176,1,0,0:0:0:0:
384,80,6255,5,4,0:0:0:0:
304,184,6412,1,0,0:0:0:0:
304,184,6490,1,0,0:0:0:0:
304,184,6569,1,0,0:0:0:0:
272,80,6726,1,0,0:0:0:0:
192,184,6883,1,0,0:0:0:0:
192,184,6961,1,0,0:0:0:0:
192,184,7040,1,0,0:0:0:0:
152,80,7197,1,0,0:0:0:0:
72,184,7354,1,0,0:0:0:0:
384,80,7511,5,0,0:0:0:0:
304,184,7668,1,0,0:0:0:0:
304,184,7746,1,0,0:0:0:0:
304,184,7825,1,0,0:0:0:0:
272,80,7982,1,0,0:0:0:0:
192,184,8139,1,0,0:0:0:0:
192,184,8217,1,0,0:0:0:0:
192,184,8296,1,0,0:0:0:0:
104,64,8453,1,0,0:0:0:0:
120,200,8610,1,0,0:0:0:0:
384,80,8768,5,0,0:0:0:0:
304,184,8925,1,0,0:0:0:0:
304,184,9003,1,0,0:0:0:0:
304,184,9082,1,0,0:0:0:0:
272,80,9239,1,0,0:0:0:0:
192,184,9396,1,0,0:0:0:0:
192,184,9474,1,0,0:0:0:0:
192,184,9553,1,0,0:0:0:0:
184,0,9710,1,0,0:0:0:0:
40,264,9867,1,0,0:0:0:0:
384,80,10024,5,0,0:0:0:0:
304,184,10181,1,0,0:0:0:0:
304,184,10259,1,0,0:0:0:0:
304,184,10338,1,0,0:0:0:0:
272,80,10496,1,0,0:0:0:0:
192,184,10653,1,0,0:0:0:0:
192,184,10731,1,0,0:0:0:0:
144,112,10810,1,0,0:0:0:0:
376,216,10967,1,0,0:0:0:0:
144,112,11124,1,0,0:0:0:0:
40,344,11281,5,0,0:0:0:0:
176,344,11438,1,0,0:0:0:0:
176,344,11516,1,0,0:0:0:0:
144,280,11595,1,0,0:0:0:0:
264,344,11752,1,0,0:0:0:0:
400,344,11909,1,0,0:0:0:0:
400,344,11987,1,0,0:0:0:0:
368,280,12066,1,0,0:0:0:0:
320,40,12223,1,0,0:0:0:0:
272,184,12380,1,0,0:0:0:0:
40,344,12537,5,0,0:0:0:0:
176,344,12694,1,0,0:0:0:0:
176,344,12772,1,0,0:0:0:0:
144,280,12851,1,0,0:0:0:0:
264,344,13008,1,0,0:0:0:0:
400,344,13165,1,0,0:0:0:0:
400,344,13243,1,0,0:0:0:0:
368,280,13322,1,0,0:0:0:0:
248,56,13480,1,0,0:0:0:0:
344,168,13636,1,0,0:0:0:0:
40,344,13794,5,0,0:0:0:0:
176,344,13951,1,0,0:0:0:0:
176,344,14029,1,0,0:0:0:0:
144,280,14108,1,0,0:0:0:0:
264,344,14265,1,0,0:0:0:0:
400,344,14422,1,0,0:0:0:0:
400,344,14500,1,0,0:0:0:0:
368,280,14579,1,0,0:0:0:0:
160,96,14737,1,0,0:0:0:0:
432,128,14893,1,0,0:0:0:0:
96,144,15050,6,0,P|64:160|32:168,1,67.5,4|0,0:0|0:0,0:0:0:0:
160,184,15208,1,0,0:0:0:0:
416,240,15365,2,0,P|448:224|480:216,1,67.5,4|0,0:0|0:0,0:0:0:0:
352,200,15523,1,0,0:0:0:0:
168,264,15679,6,0,L|96:256,1,67.5,4|0,0:0|0:0,0:0:0:0:
344,120,15836,2,0,L|416:128,1,67.5
168,264,15993,6,0,L|144:328,1,67.5,4|0,0:0|0:0,0:0:0:0:
344,120,16150,2,0,L|368:56,1,67.5
64,328,16307,5,4,0:0:0:0:
120,176,16464,1,0,0:0:0:0:
112,208,16543,1,0,0:0:0:0:
104,240,16621,1,0,0:0:0:0:
24,128,16778,1,0,0:0:0:0:
280,208,16935,1,0,0:0:0:0:
248,200,17014,1,0,0:0:0:0:
216,192,17092,1,0,0:0:0:0:
240,64,17249,1,0,0:0:0:0:
272,320,17407,1,0,0:0:0:0:
64,328,17564,5,0,0:0:0:0:
120,176,17721,1,0,0:0:0:0:
112,208,17800,1,0,0:0:0:0:
104,240,17878,1,0,0:0:0:0:
24,128,18035,1,0,0:0:0:0:
280,208,18192,1,0,0:0:0:0:
248,200,18271,1,0,0:0:0:0:
216,192,18349,1,0,0:0:0:0:
328,64,18506,1,0,0:0:0:0:
184,320,18663,1,0,0:0:0:0:
64,328,18820,5,0,0:0:0:0:
120,176,18977,1,0,0:0:0:0:
112,208,19056,1,0,0:0:0:0:
104,240,19134,1,0,0:0:0:0:
24,128,19291,1,0,0:0:0:0:
280,208,19448,1,0,0:0:0:0:
248,200,19527,1,0,0:0:0:0:
216,192,19605,1,0,0:0:0:0:
456,160,19762,1,0,0:0:0:0:
288,392,19920,1,0,0:0:0:0:
64,328,20077,5,0,0:0:0:0:
120,176,20234,1,0,0:0:0:0:
112,208,20313,1,0,0:0:0:0:
104,240,20391,1,0,0:0:0:0:
24,128,20548,1,0,0:0:0:0:
256,48,20705,1,0,0:0:0:0:
248,80,20783,1,0,0:0:0:0:
240,112,20862,1,0,0:0:0:0:
384,336,21019,1,0,0:0:0:0:
416,208,21176,1,0,0:0:0:0:
304,280,21333,5,0,0:0:0:0:
104,296,21490,1,0,0:0:0:0:
104,296,21569,1,0,0:0:0:0:
168,312,21647,1,0,0:0:0:0:
208,192,21804,1,0,0:0:0:0:
8,208,21961,1,0,0:0:0:0:
8,208,22040,1,0,0:0:0:0:
72,224,22118,1,0,0:0:0:0:
304,96,22276,1,0,0:0:0:0:
176,64,22433,1,0,0:0:0:0:
304,280,22590,5,0,0:0:0:0:
104,296,22747,1,0,0:0:0:0:
104,296,22826,1,0,0:0:0:0:
168,312,22904,1,0,0:0:0:0:
208,192,23061,1,0,0:0:0:0:
8,208,23218,1,0,0:0:0:0:
8,208,23297,1,0,0:0:0:0:
72,224,23375,1,0,0:0:0:0:
352,48,23533,1,0,0:0:0:0:
128,112,23690,1,0,0:0:0:0:
488,144,23846,6,0,L|480:216,1,67.5,4|0,0:0|0:0,0:0:0:0:
304,344,24003,1,0,0:0:0:0:
304,344,24082,1,0,0:0:0:0:
304,344,24160,2,0,P|304:312|312:272,1,67.5,4|0,0:0|0:0,0:0:0:0:
280,104,24318,2,0,P|280:136|272:176,1,67.5
136,232,24475,1,4,0:0:0:0:
136,232,24553,1,0,0:0:0:0:
136,232,24632,1,0,0:0:0:0:
48,56,24789,5,4,0:0:0:0:
112,76,24867,1,0,0:0:0:0:
180,76,24946,1,0,0:0:0:0:
244,52,25024,1,0,0:0:0:0:
300,12,25103,6,0,P|328:24|368:24,1,67.5,4|0,0:0|0:0,0:0:0:0:
192,144,25260,2,0,P|164:156|124:156,1,67.5,4|0,0:0|0:0,0:0:0:0:
376,256,25417,2,0,P|404:244|444:244,1,67.5,4|0,0:0|0:0,0:0:0:0:
120,336,25574,5,0,0:0:0:0:
120,336,25653,1,0,0:0:0:0:
120,336,25731,2,0,P|120:296|104:264,1,67.5,4|0,0:0|0:0,0:0:0:0:
0,128,25888,2,0,P|0:168|16:200,1,67.5,4|0,0:0|0:0,0:0:0:0:
232,216,26045,6,0,L|312:208,1,67.5,4|0,0:0|0:0,0:0:0:0:
512,56,26202,2,0,L|432:64,1,67.5,4|0,0:0|0:0,0:0:0:0:
96,136,26359,6,0,P|152:136|208:144,1,101.250003862381,4|0,1:0|0:0,0:0:0:0:
256,224,26674,2,0,L|240:336,1,101.250003862381,2|0,0:0|0:0,0:0:0:0:
376,96,26988,5,2,0:0:0:0:
328,184,27145,1,0,0:0:0:0:
416,232,27302,1,0,0:0:0:0:
464,144,27459,1,2,0:0:0:0:
248,136,27616,6,0,L|144:144,1,101.250003862381,0|2,0:0|0:0,0:0:0:0:
48,152,27930,1,0,0:0:0:0:
144,24,28087,1,0,0:0:0:0:
200,320,28244,5,2,0:0:0:0:
384,248,28401,2,0,L|280:256,2,101.250003862381,0|2|0,0:0|0:0|0:0,0:0:0:0:
168,168,28872,5,2,0:0:0:0:
264,184,29030,1,0,0:0:0:0:
168,168,29187,1,2,0:0:0:0:
80,224,29344,1,0,0:0:0:0:
48,56,29501,5,0,0:0:0:0:
144,80,29658,1,2,0:0:0:0:
240,56,29815,1,2,0:0:0:0:
336,80,29972,1,0,0:0:0:0:
432,56,30129,6,0,P|448:112|448:160,1,101.250003862381,2|0,0:0|0:0,0:0:0:0:
400,320,30443,2,0,P|384:264|384:216,1,101.250003862381,2|0,0:0|0:0,0:0:0:0:
288,184,30757,6,0,L|176:192,1,101.250003862381,2|0,0:0|0:0,0:0:0:0:
24,120,31071,2,0,L|136:112,1,101.250003862381,2|2,0:0|0:0,0:0:0:0:
200,240,31386,5,2,0:0:0:0:
196,280,31464,1,0,0:0:0:0:
192,320,31543,1,0,0:0:0:0:
328,96,31700,2,0,L|320:208,1,101.250003862381,2|0,0:0|0:0,0:0:0:0:
112,112,32014,5,2,0:0:0:0:
208,136,32171,1,2,0:0:0:0:
80,160,32328,1,0,0:0:0:0:
240,96,32485,1,2,0:0:0:0:
0,32,32642,5,0,0:0:0:0:
32,40,32721,1,0,0:0:0:0:
64,48,32799,1,2,0:0:0:0:
264,224,32956,2,0,L|160:200,1,101.250003862381,0|2,0:0|0:0,0:0:0:0:
352,152,33270,5,2,0:0:0:0:
384,288,33427,1,0,0:0:0:0:
352,152,33585,1,2,0:0:0:0:
384,288,33742,1,0,0:0:0:0:
432,104,33899,5,2,0:0:0:0:
424,72,33977,1,0,0:0:0:0:
416,32,34056,1,0,0:0:0:0:
248,144,34213,2,0,P|256:200|272:248,1,101.250003862381,2|0,0:0|0:0,0:0:0:0:
200,344,34527,5,0,0:0:0:0:
184,296,34605,1,0,0:0:0:0:
144,264,34684,1,2,0:0:0:0:
96,256,34763,1,0,0:0:0:0:
48,272,34841,1,2,0:0:0:0:
280,320,34998,1,0,0:0:0:0:
96,144,35155,6,0,P|128:152|168:152,1,67.5,4|0,0:0|0:0,0:0:0:0:
288,88,35312,2,0,P|256:80|216:80,1,67.5,4|0,0:0|0:0,0:0:0:0:
0,184,35469,6,0,L|72:176,1,67.5,4|0,0:0|0:0,0:0:0:0:
384,56,35626,2,0,L|312:64,1,67.5
24,80,35783,5,4,0:0:0:0:
24,80,35862,1,0,0:0:0:0:
24,80,35941,2,0,L|96:88,1,67.5
512,136,36098,6,0,L|440:144,1,67.5,4|0,0:0|0:0,0:0:0:0:
312,312,36255,2,0,P|306:345|305:378,1,67.5,0|0,0:0|0:0,0:0:0:0:
0,184,36412,5,4,0:0:0:0:
152,296,36569,1,0,0:0:0:0:
328,224,36726,2,0,P|336:160|320:88,1,135
0,0,37040,6,0,P|-8:64|8:136,1,135,0|0,0:0|0:0,0:0:0:0:
184,192,37354,1,0,0:0:0:0:
256,16,37511,1,0,0:0:0:0:
512,240,37668,5,0,0:0:0:0:
336,168,37825,1,0,0:0:0:0:
184,280,37982,2,0,P|128:328|64:320,1,135
192,16,38297,6,0,P|240:72|232:136,1,135,0|0,0:0|0:0,0:0:0:0:
360,272,38611,1,0,0:0:0:0:
432,96,38768,1,0,0:0:0:0:
128,232,38925,5,0,0:0:0:0:
344,192,39082,1,0,0:0:0:0:
160,144,39239,1,0,0:0:0:0:
240,376,39396,1,0,0:0:0:0:
72,320,39553,5,0,0:0:0:0:
8,144,39710,1,0,0:0:0:0:
248,56,39867,1,0,0:0:0:0:
232,248,40024,1,0,0:0:0:0:
512,208,40181,5,0,0:0:0:0:
320,216,40338,1,0,0:0:0:0:
512,208,40496,1,0,0:0:0:0:
320,216,40653,1,0,0:0:0:0:
40,80,40810,5,0,0:0:0:0:
16,264,40967,1,0,0:0:0:0:
40,80,41124,1,0,0:0:0:0:
224,136,41281,1,0,0:0:0:0:
432,312,41438,5,0,0:0:0:0:
248,288,41595,1,0,0:0:0:0:
88,184,41752,2,0,P|80:120|96:48,1,135
360,128,42066,6,0,P|368:192|352:264,1,135
176,184,42380,1,0,0:0:0:0:
256,16,42537,1,0,0:0:0:0:
512,240,42694,5,0,0:0:0:0:
336,168,42851,1,0,0:0:0:0:
56,264,43008,2,0,L|200:248,1,135
368,80,43323,6,0,L|224:96,1,135
160,272,43637,1,0,0:0:0:0:
344,248,43794,1,0,0:0:0:0:
80,144,43951,5,0,0:0:0:0:
264,168,44108,1,0,0:0:0:0:
8,176,44265,1,0,0:0:0:0:
192,136,44422,1,0,0:0:0:0:
240,320,44579,5,0,0:0:0:0:
424,264,44736,1,0,0:0:0:0:
240,24,44893,1,0,0:0:0:0:
200,208,45050,1,0,0:0:0:0:
0,120,45208,6,0,P|32:120|72:128,1,67.5
126,278,45365,2,0,L|112:344,1,67.5
272,232,45522,2,0,L|286:166,1,67.5
456,40,45679,1,0,0:0:0:0:
440,104,45757,1,0,0:0:0:0:
376,104,45836,6,0,L|296:88,1,67.5
136,104,45993,2,0,L|216:88,1,67.5
448,184,46150,2,0,P|464:216|464:256,1,67.5
64,184,46307,2,0,P|48:216|48:256,1,67.5
256,384,46464,5,4,0:0:0:0:
448,328,46621,2,0,P|464:296|472:256,1,67.5,0|0,0:0|0:0,0:0:0:0:
352,112,46778,2,0,P|336:144|328:184,1,67.5
152,256,46935,2,0,L|80:264,1,67.5
24,64,47092,5,0,0:0:0:0:
56,80,47171,1,0,0:0:0:0:
96,80,47249,2,0,L|168:72,1,67.5
368,136,47407,2,0,L|296:128,1,67.5
144,192,47564,2,0,L|216:184,1,67.5
368,352,47721,5,0,0:0:0:0:
368,352,47799,1,0,0:0:0:0:
368,352,47878,2,0,P|376:320|376:280,1,67.5
208,240,48035,2,0,P|200:272|200:312,1,67.5
368,352,48192,2,0,L|448:336,1,67.5
232,112,48349,6,0,L|152:128,1,67.5,0|0,0:0|0:0,0:0:0:0:
40,296,48506,1,0,0:0:0:0:
40,296,48585,1,0,0:0:0:0:
40,296,48663,2,0,P|72:312|104:320,1,67.5
344,232,48820,2,0,P|312:216|280:208,1,67.5
0,240,48977,5,0,0:0:0:0:
144,32,49134,1,0,0:0:0:0:
144,32,49213,1,0,0:0:0:0:
144,32,49291,2,0,P|152:64|152:104,1,67.5
120,264,49448,2,0,P|112:232|112:192,1,67.5
360,72,49605,6,0,L|432:80,1,67.5
208,144,49763,2,0,L|136:136,1,67.5,0|0,0:0|0:0,0:0:0:0:
408,128,49920,2,0,P|416:168|408:208,1,67.5
192,256,50077,2,0,P|184:216|192:176,1,67.5
504,288,50234,6,0,L|488:360,1,67.5
329,281,50391,2,0,L|344:216,1,67.5,0|0,0:0|0:0,0:0:0:0:
160,344,50548,2,0,L|176:272,1,67.5,0|0,0:0|0:0,0:0:0:0:
14,206,50705,2,0,L|0:272,1,67.5
184,48,50862,6,0,L|168:120,1,67.5
264,288,51019,1,0,0:0:0:0:
320,280,51098,1,0,0:0:0:0:
376,272,51176,2,0,P|408:288|448:288,1,67.5
480,80,51333,2,0,P|448:64|408:64,1,67.5
208,176,51490,5,0,0:0:0:0:
24,96,51647,1,0,0:0:0:0:
24,96,51726,1,0,0:0:0:0:
24,96,51804,2,0,P|32:128|48:160,1,67.5
80,328,51961,2,0,P|72:296|56:264,1,67.5
240,208,52119,6,0,L|312:216,1,67.5,0|0,0:0|0:0,0:0:0:0:
456,80,52276,2,0,L|384:72,1,67.5,0|0,0:0|0:0,0:0:0:0:
240,208,52433,2,0,L|312:216,1,67.5,0|0,0:0|0:0,0:0:0:0:
456,80,52590,2,0,L|384:72,1,67.5,0|0,0:0|0:0,0:0:0:0:
160,240,52747,6,0,P|144:272|144:312,1,67.5
208,96,52904,2,0,P|224:64|224:24,1,67.5
104,160,53061,2,0,P|72:168|32:160,1,67.5
264,176,53218,2,0,P|296:168|336:176,1,67.5
488,328,53375,6,0,L|408:336,1,67.5
208,296,53532,2,0,L|288:288,1,67.5,0|0,0:0|0:0,0:0:0:0:
488,328,53689,2,0,L|408:336,1,67.5
208,296,53846,2,0,L|288:288,1,67.5,0|0,0:0|0:0,0:0:0:0:
432,176,54003,5,0,0:0:0:0:
296,48,54160,1,0,0:0:0:0:
296,48,54239,1,0,0:0:0:0:
296,48,54318,2,0,P|256:48|224:64,1,67.5
40,224,54475,2,0,P|80:224|112:208,1,67.5,0|0,0:0|0:0,0:0:0:0:
288,312,54632,6,0,L|272:384,1,67.5
352,160,54789,2,0,L|368:88,1,67.5
288,312,54946,2,0,L|272:384,1,67.5
352,160,55103,2,0,L|368:88,1,67.5
456,304,55260,6,0,P|464:336|464:376,1,67.5
272,216,55417,2,0,P|264:184|264:144,1,67.5,0|0,0:0|0:0,0:0:0:0:
472,8,55574,2,0,L|456:80,1,67.5
184,184,55731,5,0,0:0:0:0:
184,184,55810,1,0,0:0:0:0:
184,184,55888,2,0,P|152:176|112:176,1,67.5
0,288,56045,2,0,P|32:296|72:296,1,67.5
232,176,56202,6,0,L|296:200,1,67.5
448,96,56359,2,0,L|512:120,1,67.5
80,88,56516,5,4,0:0:0:0:
64,200,56674,1,0,0:0:0:0:
216,296,56831,1,0,0:0:0:0:
208,64,56988,1,0,0:0:0:0:
504,144,57145,5,0,0:0:0:0:
256,160,57302,1,0,0:0:0:0:
456,240,57459,1,0,0:0:0:0:
336,264,57616,1,0,0:0:0:0:
72,328,57773,5,0,0:0:0:0:
344,296,57930,1,0,0:0:0:0:
128,144,58087,1,0,0:0:0:0:
240,128,58244,1,0,0:0:0:0:
432,96,58401,5,0,0:0:0:0:
208,64,58558,1,0,0:0:0:0:
368,208,58715,1,0,0:0:0:0:
248,192,58872,1,0,0:0:0:0:
32,256,59030,5,0,0:0:0:0:
296,320,59187,1,0,0:0:0:0:
32,256,59344,1,0,0:0:0:0:
208,352,59501,1,0,0:0:0:0:
256,224,59658,5,0,0:0:0:0:
400,184,59815,1,0,0:0:0:0:
272,0,59972,1,0,0:0:0:0:
176,256,60129,1,0,0:0:0:0:
40,96,60286,5,0,0:0:0:0:
304,136,60443,1,0,0:0:0:0:
40,96,60600,1,0,0:0:0:0:
304,136,60757,1,0,0:0:0:0:
96,312,60914,5,0,0:0:0:0:
368,344,61071,1,0,0:0:0:0:
448,320,61150,1,0,0:0:0:0:
472,240,61228,1,0,0:0:0:0:
256,64,61386,1,0,0:0:0:0:
40,224,61543,5,0,0:0:0:0:
168,208,61700,1,0,0:0:0:0:
472,184,61857,1,0,0:0:0:0:
344,208,62014,1,0,0:0:0:0:
128,48,62171,5,0,0:0:0:0:
184,312,62328,1,0,0:0:0:0:
312,352,62485,1,0,0:0:0:0:
376,88,62642,1,0,0:0:0:0:
304,192,62799,5,0,0:0:0:0:
64,72,62956,1,0,0:0:0:0:
120,216,63113,1,0,0:0:0:0:
248,160,63270,1,0,0:0:0:0:
0,128,63427,5,0,0:0:0:0:
152,352,63585,1,0,0:0:0:0:
280,296,63742,1,0,0:0:0:0:
152,352,63899,1,0,0:0:0:0:
496,208,64056,5,0,0:0:0:0:
224,232,64213,1,0,0:0:0:0:
496,208,64370,1,0,0:0:0:0:
288,152,64527,1,0,0:0:0:0:
144,240,64684,5,0,0:0:0:0:
40,192,64841,1,0,0:0:0:0:
240,8,64998,1,0,0:0:0:0:
240,264,65155,1,0,0:0:0:0:
488,160,65312,5,4,0:0:0:0:
352,240,65941,5,0,0:0:0:0:
432,256,66098,1,0,0:0:0:0:
352,240,66255,1,0,0:0:0:0:
432,256,66412,1,0,0:0:0:0:
0,288,66569,5,6,0:0:0:0:
168,72,66726,1,0,0:0:0:0:
104,64,66804,1,0,0:0:0:0:
48,96,66883,1,2,0:0:0:0:
256,224,67040,1,0,0:0:0:0:
464,96,67197,5,2,0:0:0:0:
344,72,67354,1,2,0:0:0:0:
120,312,67511,1,0,0:0:0:0:
392,312,67668,1,2,0:0:0:0:
0,0,67825,5,2,0:0:0:0:
120,112,67982,1,0,0:0:0:0:
112,144,68061,1,0,0:0:0:0:
104,176,68139,1,2,0:0:0:0:
296,384,68297,5,0,0:0:0:0:
288,352,68375,1,0,0:0:0:0:
280,320,68454,1,2,0:0:0:0:
456,192,68611,1,2,0:0:0:0:
56,192,68768,1,2,0:0:0:0:
232,64,68925,1,0,0:0:0:0:
504,384,69082,5,2,0:0:0:0:
104,328,69239,1,0,0:0:0:0:
136,336,69318,1,0,0:0:0:0:
168,344,69396,1,2,0:0:0:0:
336,152,69553,1,0,0:0:0:0:
208,0,69710,5,2,0:0:0:0:
160,200,69867,1,2,0:0:0:0:
320,320,70024,1,0,0:0:0:0:
368,120,70181,1,2,0:0:0:0:
16,32,70338,5,2,0:0:0:0:
128,280,70495,1,2,0:0:0:0:
424,384,70653,5,2,0:0:0:0:
408,216,70731,1,0,0:0:0:0:
408,376,70810,5,2,0:0:0:0:
424,224,70888,1,0,0:0:0:0:
448,384,70967,6,0,P|464:352|464:312,1,67.5,2|0,0:0|0:0,0:0:0:0:
392,216,71124,2,0,P|376:248|376:288,1,67.5,2|0,0:0|0:0,0:0:0:0:
472,128,71281,6,0,L|480:56,1,67.5,2|0,0:0|0:0,0:0:0:0:
239,172,71438,2,0,L|232:240,1,67.5,2|0,0:0|0:0,0:0:0:0:
0,360,71595,5,2,0:0:0:0:
200,376,71752,1,0,0:0:0:0:
224,368,71831,1,0,0:0:0:0:
248,360,71909,1,2,0:0:0:0:
200,168,72066,1,0,0:0:0:0:
8,240,72223,5,2,0:0:0:0:
208,280,72380,1,2,0:0:0:0:
384,176,72537,1,0,0:0:0:0:
184,136,72694,1,2,0:0:0:0:
512,384,72852,5,2,0:0:0:0:
392,144,73009,1,0,0:0:0:0:
384,184,73087,1,0,0:0:0:0:
376,216,73166,1,2,0:0:0:0:
176,0,73323,5,0,0:0:0:0:
184,32,73401,1,0,0:0:0:0:
192,64,73480,1,2,0:0:0:0:
152,328,73637,1,2,0:0:0:0:
32,168,73794,1,2,0:0:0:0:
304,200,73951,1,0,0:0:0:0:
0,128,74108,5,2,0:0:0:0:
248,240,74265,1,0,0:0:0:0:
240,272,74344,1,0,0:0:0:0:
232,304,74422,1,2,0:0:0:0:
80,240,74579,1,0,0:0:0:0:
432,56,74736,5,2,0:0:0:0:
416,272,74893,1,2,0:0:0:0:
168,384,75050,1,0,0:0:0:0:
88,128,75208,1,2,0:0:0:0:
512,256,75365,5,6,0:0:0:0:
256,328,75522,1,2,0:0:0:0:
8,192,75679,5,6,0:0:0:0:
168,208,75757,1,0,0:0:0:0:
16,216,75836,5,2,0:0:0:0:
160,184,75914,1,0,0:0:0:0:
32,240,75993,5,6,0:0:0:0:
80,184,76071,1,2,0:0:0:0:
128,128,76150,1,2,0:0:0:0:
176,72,76228,1,2,0:0:0:0:
224,16,76307,6,0,P|232:56|224:96,1,67.5,6|0,0:0|0:0,0:0:0:0:
216,376,76464,1,2,0:0:0:0:
128,296,76543,1,0,0:0:0:0:
352,240,76621,5,6,0:0:0:0:
432,24,76778,1,0,0:0:0:0:
424,56,76857,1,0,0:0:0:0:
416,88,76935,1,2,0:0:0:0:
272,56,77092,1,0,0:0:0:0:
0,184,77249,5,2,0:0:0:0:
144,160,77407,1,2,0:0:0:0:
480,296,77564,5,0,0:0:0:0:
256,280,77721,1,2,0:0:0:0:
0,384,77878,5,2,0:0:0:0:
232,200,78035,1,0,0:0:0:0:
176,256,78113,1,0,0:0:0:0:
104,232,78192,1,2,0:0:0:0:
456,88,78349,5,0,0:0:0:0:
392,48,78427,1,0,0:0:0:0:
336,96,78506,1,2,0:0:0:0:
400,232,78663,1,2,0:0:0:0:
176,152,78820,1,2,0:0:0:0:
184,352,78977,1,0,0:0:0:0:
8,144,79134,5,2,0:0:0:0:
256,288,79291,1,0,0:0:0:0:
216,312,79370,1,0,0:0:0:0:
176,312,79448,1,2,0:0:0:0:
256,120,79605,1,0,0:0:0:0:
512,296,79763,5,2,0:0:0:0:
368,320,79920,1,2,0:0:0:0:
0,216,80077,5,0,0:0:0:0:
176,232,80234,1,2,0:0:0:0:
472,48,80391,5,2,0:0:0:0:
208,72,80548,1,2,0:0:0:0:
0,32,80705,5,2,0:0:0:0:
112,104,80783,1,0,0:0:0:0:
8,56,80862,5,2,0:0:0:0:
128,88,80941,1,0,0:0:0:0:
40,120,81019,5,2,0:0:0:0:
200,128,81098,1,0,0:0:0:0:
56,152,81176,5,2,0:0:0:0:
208,96,81255,1,0,0:0:0:0:
400,144,81333,6,0,L|392:216,1,67.5,2|0,0:0|0:0,0:0:0:0:
296,368,81490,2,0,L|303:300,1,67.5,2|0,0:0|0:0,0:0:0:0:
128,192,81647,5,2,0:0:0:0:
64,336,81804,1,0,0:0:0:0:
56,296,81882,1,0,0:0:0:0:
48,256,81961,1,2,0:0:0:0:
216,384,82119,1,0,0:0:0:0:
512,208,82276,5,2,0:0:0:0:
352,336,82433,1,2,0:0:0:0:
0,88,82590,5,0,0:0:0:0:
224,232,82747,1,2,0:0:0:0:
512,0,82904,5,2,0:0:0:0:
232,64,83061,1,0,0:0:0:0:
264,72,83139,1,0,0:0:0:0:
296,80,83218,1,2,0:0:0:0:
0,160,83375,5,0,0:0:0:0:
32,152,83454,1,0,0:0:0:0:
72,144,83532,1,2,0:0:0:0:
336,192,83689,1,2,0:0:0:0:
88,312,83846,5,2,0:0:0:0:
400,40,84003,1,0,0:0:0:0:
512,296,84160,5,2,0:0:0:0:
360,352,84318,1,0,0:0:0:0:
360,352,84396,1,0,0:0:0:0:
360,352,84475,1,2,0:0:0:0:
216,304,84632,1,0,0:0:0:0:
472,72,84789,5,2,0:0:0:0:
440,240,84946,1,2,0:0:0:0:
136,320,85103,5,0,0:0:0:0:
88,56,85260,1,2,0:0:0:0:
368,224,85417,6,0,P|328:240|288:232,1,67.5,6|0,0:0|0:0,0:0:0:0:
0,216,85574,2,0,P|40:200|80:208,1,67.5,2|0,0:0|0:0,0:0:0:0:
256,160,85731,5,6,0:0:0:0:
136,264,85810,1,2,0:0:0:0:
224,128,85888,5,2,0:0:0:0:
168,288,85967,1,2,0:0:0:0:
184,112,86045,5,6,0:0:0:0:
216,296,86124,1,2,0:0:0:0:
144,120,86202,5,2,0:0:0:0:
256,288,86281,1,2,0:0:0:0:
112,144,86359,5,6,0:0:0:0:
376,64,86516,1,2,0:0:0:0:
376,64,86595,1,2,0:0:0:0:
376,64,86674,5,4,0:0:0:0:
440,280,86831,1,0,0:0:0:0:
440,280,86909,1,0,0:0:0:0:
440,280,86988,1,2,0:0:0:0:
240,96,87145,1,2,0:0:0:0:
376,64,87302,5,4,0:0:0:0:
440,280,87459,1,0,0:0:0:0:
440,280,87537,1,0,0:0:0:0:
440,280,87616,1,2,0:0:0:0:
192,184,87773,1,2,0:0:0:0:
376,64,87930,5,4,0:0:0:0:
440,280,88087,1,0,0:0:0:0:
440,280,88165,1,0,0:0:0:0:
440,280,88244,1,2,0:0:0:0:
176,280,88401,1,2,0:0:0:0:
376,64,88558,5,4,0:0:0:0:
440,280,88715,1,0,0:0:0:0:
440,280,88793,1,0,0:0:0:0:
440,280,88872,1,2,0:0:0:0:
192,384,89029,1,2,0:0:0:0:
376,64,89187,5,4,0:0:0:0:
440,280,89344,1,0,0:0:0:0:
440,280,89422,1,0,0:0:0:0:
440,280,89501,1,2,0:0:0:0:
88,128,89658,1,2,0:0:0:0:
376,64,89815,5,4,0:0:0:0:
440,280,89972,1,0,0:0:0:0:
440,280,90050,1,0,0:0:0:0:
440,280,90129,1,2,0:0:0:0:
64,232,90286,1,2,0:0:0:0:
512,104,90443,5,6,0:0:0:0:
120,192,90600,1,0,0:0:0:0:
160,200,90678,1,0,0:0:0:0:
200,208,90757,1,2,0:0:0:0:
256,360,90914,1,2,0:0:0:0:
512,104,91071,5,6,0:0:0:0:
120,192,91228,1,0,0:0:0:0:
160,200,91306,1,0,0:0:0:0:
200,208,91385,1,2,0:0:0:0:
256,360,91542,1,2,0:0:0:0:
376,0,91700,5,4,0:0:0:0:
128,104,91857,1,0,0:0:0:0:
128,104,91935,1,0,0:0:0:0:
128,104,92014,1,2,0:0:0:0:
344,272,92171,1,2,0:0:0:0:
376,0,92328,5,4,0:0:0:0:
128,104,92485,1,0,0:0:0:0:
128,104,92563,1,0,0:0:0:0:
128,104,92642,1,2,0:0:0:0:
344,360,92799,1,2,0:0:0:0:
376,0,92956,5,4,0:0:0:0:
128,104,93113,1,0,0:0:0:0:
128,104,93191,1,0,0:0:0:0:
128,104,93270,1,2,0:0:0:0:
416,232,93427,1,2,0:0:0:0:
376,0,93584,5,4,0:0:0:0:
128,104,93741,1,0,0:0:0:0:
128,104,93819,1,0,0:0:0:0:
128,104,93898,1,2,0:0:0:0:
416,312,94055,1,2,0:0:0:0:
376,0,94213,5,4,0:0:0:0:
128,104,94370,1,0,0:0:0:0:
128,104,94448,1,0,0:0:0:0:
128,104,94527,1,2,0:0:0:0:
488,352,94684,1,2,0:0:0:0:
376,0,94841,5,4,0:0:0:0:
128,104,94998,1,0,0:0:0:0:
128,104,95076,1,0,0:0:0:0:
128,104,95155,1,2,0:0:0:0:
512,272,95312,1,2,0:0:0:0:
0,128,95469,5,6,0:0:0:0:
368,232,95626,1,0,0:0:0:0:
368,232,95705,1,0,0:0:0:0:
368,232,95783,1,2,0:0:0:0:
272,384,95941,1,2,0:0:0:0:
0,128,96098,5,6,0:0:0:0:
368,232,96255,1,0,0:0:0:0:
368,232,96334,1,0,0:0:0:0:
368,232,96412,1,2,0:0:0:0:
272,384,96570,1,2,0:0:0:0:
48,232,96726,5,6,0:0:0:0:
136,264,96883,2,0,P|136:304|128:336,1,67.5
464,152,97040,5,6,0:0:0:0:
376,120,97197,2,0,P|376:80|384:48,1,67.5
48,232,97354,5,6,0:0:0:0:
136,264,97511,2,0,P|136:304|128:336,1,67.5
464,152,97668,5,6,0:0:0:0:
376,120,97825,2,0,P|376:80|384:48,1,67.5
48,232,97982,5,6,0:0:0:0:
136,264,98139,2,0,P|136:304|128:336,1,67.5
464,152,98296,5,6,0:0:0:0:
376,120,98453,2,0,P|376:80|384:48,1,67.5
48,232,98610,5,6,0:0:0:0:
136,264,98767,2,0,P|136:304|128:336,1,67.5
464,152,98924,5,6,0:0:0:0:
376,120,99081,2,0,P|376:80|384:48,1,67.5
0,144,99239,5,6,0:0:0:0:
88,104,99396,2,0,P|104:72|104:32,1,67.5
512,240,99553,5,6,0:0:0:0:
424,280,99710,2,0,P|408:312|408:352,1,67.5
0,144,99867,5,6,0:0:0:0:
88,104,100024,2,0,P|104:72|104:32,1,67.5
512,240,100181,5,6,0:0:0:0:
424,280,100338,2,0,P|408:312|408:352,1,67.5
0,144,100496,5,6,0:0:0:0:
88,104,100653,2,0,P|104:72|104:32,1,67.5
512,240,100810,5,6,0:0:0:0:
424,280,100967,2,0,P|408:312|408:352,1,67.5
0,144,101124,5,6,0:0:0:0:
88,104,101281,2,0,P|104:72|104:32,1,67.5
512,240,101438,5,6,0:0:0:0:
424,280,101595,2,0,P|408:312|408:352,1,67.5
144,272,101752,5,6,0:0:0:0:
352,64,101909,5,6,0:0:0:0:
256,256,102066,5,6,0:0:0:0:
72,232,102223,5,6,0:0:0:0:
176,72,102380,5,6,0:0:0:0:
392,200,102537,5,6,0:0:0:0:
176,304,102694,5,6,0:0:0:0:
408,328,102851,5,6,0:0:0:0:
416,104,103008,5,6,0:0:0:0:
32,248,103165,5,6,0:0:0:0:
72,128,103322,5,6,0:0:0:0:
448,264,103479,5,6,0:0:0:0:
320,272,103636,5,6,0:0:0:0:
48,344,103793,5,6,0:0:0:0:
368,48,103950,5,6,0:0:0:0:
328,280,104108,5,6,0:0:0:0:
88,272,104265,5,6,0:0:0:0:
280,352,104422,5,6,0:0:0:0:
176,8,104579,5,6,0:0:0:0:
160,320,104736,5,6,0:0:0:0:
432,56,104893,5,6,0:0:0:0:
56,80,105050,5,6,0:0:0:0:
432,184,105207,5,6,0:0:0:0:
80,232,105364,5,6,0:0:0:0:
368,64,105521,5,6,0:0:0:0:
376,208,105678,5,6,0:0:0:0:
336,328,105835,5,6,0:0:0:0:
208,48,105992,5,6,0:0:0:0:
80,320,106149,5,6,0:0:0:0:
288,176,106306,5,6,0:0:0:0:
104,208,106464,5,6,0:0:0:0:
424,64,106621,5,6,0:0:0:0:
224,144,106778,5,6,0:0:0:0:
313,188,106882,1,6,0:0:0:0:
230,243,106987,1,6,0:0:0:0:
239,124,107092,5,6,0:0:0:0:
322,211,107196,1,6,0:0:0:0:
205,239,107301,1,6,0:0:0:0:
292,117,107406,5,6,0:0:0:0:
302,261,107510,1,6,0:0:0:0:
173,197,107615,1,6,0:0:0:0:
377,162,107720,5,6,0:0:0:0:
221,311,107824,1,6,0:0:0:0:
169,101,107929,1,6,0:0:0:0:
368,304,108034,5,6,0:0:0:0:
112,256,108139,1,6,0:0:0:0:
304,352,108243,1,6,0:0:0:0:
64,176,108348,5,6,0:0:0:0:
320,128,108453,1,6,0:0:0:0:
80,96,108558,1,6,0:0:0:0:
480,80,108662,5,6,0:0:0:0:
240,144,108767,1,6,0:0:0:0:
432,144,108872,1,6,0:0:0:0:
192,224,108976,5,6,0:0:0:0:
448,256,109081,1,6,0:0:0:0:
336,32,109186,1,6,0:0:0:0:
96,320,109291,5,6,0:0:0:0:
104,312,109369,5,2,0:0:0:0:
88,312,109448,5,2,0:0:0:0:
96,320,109526,5,2,0:0:0:0:
88,320,109605,5,2,0:0:0:0:
96,304,109683,5,2,0:0:0:0:
80,320,109762,5,2,0:0:0:0:
96,336,109840,5,2,0:0:0:0:
112,320,109919,5,2,0:0:0:0:
96,304,109997,5,2,0:0:0:0:
80,336,110076,5,2,0:0:0:0:
96,320,110154,5,2,0:0:0:0:
104,328,110233,5,2,0:0:0:0:
88,304,110311,5,2,0:0:0:0:
96,320,110390,5,2,0:0:0:0:
80,320,110469,5,2,0:0:0:0:
104,312,110547,5,2,0:0:0:0:
96,320,110626,5,2,0:0:0:0:
88,328,110704,5,2,0:0:0:0:
88,312,110783,5,2,0:0:0:0:
104,332,110861,5,2,0:0:0:0:
104,312,110940,5,2,0:0:0:0:
88,312,111018,5,2,0:0:0:0:
88,324,111097,5,2,0:0:0:0:
108,320,111175,5,2,0:0:0:0:
92,308,111254,5,2,0:0:0:0:
80,320,111332,5,2,0:0:0:0:
104,328,111411,5,2,0:0:0:0:
232,280,111489,5,4,0:0:0:0:
488,328,111804,6,0,P|448:336|416:336,1,67.5,4|0,0:0|0:0,0:0:0:0:
352,200,111961,2,0,P|392:192|424:192,1,67.5,0|0,0:0|0:0,0:0:0:0:
304,296,112118,2,0,P|264:304|232:304,1,67.5,0|0,0:0|0:0,0:0:0:0:
168,168,112275,2,0,P|208:160|240:160,1,67.5,0|0,0:0|0:0,0:0:0:0:
320,104,112432,6,0,P|336:72|336:32,1,67.5
160,8,112589,2,0,P|144:40|144:80,1,67.5,0|0,0:0|0:0,0:0:0:0:
208,128,112746,2,0,P|224:96|224:56,1,67.5
48,32,112903,2,0,P|32:64|32:104,1,67.5,0|0,0:0|0:0,0:0:0:0:
56,192,113060,6,0,P|96:192|128:184,1,67.5
352,240,113217,2,0,P|320:240|280:248,1,67.5
192,256,113374,2,0,L|176:328,1,67.5
256,112,113531,2,0,L|240:184,1,67.5
384,96,113688,6,0,P|400:64|408:24,1,67.5
448,240,113845,2,0,P|432:272|424:312,1,67.5
384,96,114002,2,0,L|456:88,1,67.5
448,240,114160,2,0,L|376:248,1,67.5
80,192,114317,6,0,P|112:184|152:192,1,67.5
112,320,114474,2,0,P|80:328|40:320,1,67.5,0|0,0:0|0:0,0:0:0:0:
240,120,114631,2,0,P|272:112|312:120,1,67.5
272,248,114788,2,0,P|240:256|200:248,1,67.5,0|0,0:0|0:0,0:0:0:0:
384,296,114945,6,0,L|456:320,1,67.5
328,184,115102,2,0,L|400:208,1,67.5
256,48,115259,2,0,L|184:72,1,67.5,0|0,0:0|0:0,0:0:0:0:
200,160,115416,2,0,L|128:184,1,67.5
80,344,115573,6,0,P|72:312|72:272,1,67.5
264,304,115730,2,0,P|272:336|272:376,1,67.5
176,328,115887,2,0,P|168:296|168:256,1,67.5
264,120,116044,2,0,P|272:152|272:192,1,67.5
464,192,116201,6,0,L|392:184,1,67.5
112,160,116358,1,0,0:0:0:0:
112,160,116437,1,0,0:0:0:0:
112,160,116516,2,0,L|32:152,1,67.5
192,248,116673,2,0,L|112:240,1,67.5
504,328,116830,5,0,0:0:0:0:
384,344,116987,1,0,0:0:0:0:
240,208,117144,1,0,0:0:0:0:
368,232,117301,1,0,0:0:0:0:
384,64,117458,5,0,0:0:0:0:
184,80,117615,1,0,0:0:0:0:
32,216,117772,1,0,0:0:0:0:
232,184,117929,1,0,0:0:0:0:
280,288,118086,5,0,0:0:0:0:
512,8,118243,1,0,0:0:0:0:
216,200,118400,1,0,0:0:0:0:
280,288,118557,1,0,0:0:0:0:
512,8,118714,5,0,0:0:0:0:
216,200,118872,5,0,0:0:0:0:
72,176,119029,1,0,0:0:0:0:
216,200,119186,1,0,0:0:0:0:
440,152,119343,5,0,0:0:0:0:
304,176,119500,1,0,0:0:0:0:
440,152,119657,1,0,0:0:0:0:
384,376,119814,1,0,0:0:0:0:
32,296,119971,5,0,0:0:0:0:
168,336,120128,1,0,0:0:0:0:
312,88,120285,1,0,0:0:0:0:
296,256,120442,1,0,0:0:0:0:
136,88,120599,5,0,0:0:0:0:
168,200,120756,1,0,0:0:0:0:
136,88,120913,1,0,0:0:0:0:
0,0,121071,1,0,0:0:0:0:
416,32,121228,5,0,0:0:0:0:
368,232,121385,1,0,0:0:0:0:
416,32,121542,1,0,0:0:0:0:
216,48,121699,1,0,0:0:0:0:
0,384,121856,5,4,0:0:0:0:
312,144,122013,1,0,0:0:0:0:
240,176,122170,1,0,0:0:0:0:
168,184,122327,1,0,0:0:0:0:
512,384,122484,5,4,0:0:0:0:
112,248,122641,1,0,0:0:0:0:
184,272,122798,1,0,0:0:0:0:
256,272,122955,1,0,0:0:0:0:
512,0,123112,5,4,0:0:0:0:
328,240,123269,5,0,0:0:0:0:
360,168,123427,1,0,0:0:0:0:
360,96,123584,1,0,0:0:0:0:
0,0,123741,5,4,0:0:0:0:
288,64,123898,5,0,0:0:0:0:
240,120,124055,1,0,0:0:0:0:
184,168,124212,1,0,0:0:0:0:
0,384,124369,5,4,0:0:0:0:
136,248,124526,5,0,0:0:0:0:
48,208,124683,1,0,0:0:0:0:
128,152,124840,1,0,0:0:0:0:
512,384,124997,5,4,0:0:0:0:
352,304,125154,1,0,0:0:0:0:
256,296,125311,1,0,0:0:0:0:
296,384,125468,1,0,0:0:0:0:
512,0,125625,5,4,0:0:0:0:
296,120,125783,1,0,0:0:0:0:
384,128,125940,1,0,0:0:0:0:
472,136,126097,1,0,0:0:0:0:
0,0,126254,5,4,0:0:0:0:
144,64,126411,1,0,0:0:0:0:
64,64,126568,1,0,0:0:0:0:
56,144,126725,1,0,0:0:0:0:
128,320,126882,5,4,0:0:0:0:
272,272,127039,1,0,0:0:0:0:
272,272,127118,1,0,0:0:0:0:
384,320,127196,5,4,0:0:0:0:
336,176,127353,1,0,0:0:0:0:
336,176,127432,1,0,0:0:0:0:
384,64,127510,5,4,0:0:0:0:
240,112,127667,1,0,0:0:0:0:
240,112,127746,1,0,0:0:0:0:
128,64,127824,5,4,0:0:0:0:
176,208,127981,1,0,0:0:0:0:
176,208,128060,1,0,0:0:0:0:
128,320,128139,5,4,0:0:0:0:
440,208,128296,1,0,0:0:0:0:
440,208,128374,1,0,0:0:0:0:
384,320,128453,5,4,0:0:0:0:
272,8,128610,1,0,0:0:0:0:
272,8,128688,1,0,0:0:0:0:
384,64,128767,5,4,0:0:0:0:
72,176,128924,1,0,0:0:0:0:
72,176,129002,1,0,0:0:0:0:
128,64,129081,5,4,0:0:0:0:
240,376,129238,1,0,0:0:0:0:
240,376,129316,1,0,0:0:0:0:
128,320,129395,5,4,0:0:0:0:
312,224,129552,1,0,0:0:0:0:
312,224,129631,1,0,0:0:0:0:
192,200,129709,5,4,0:0:0:0:
408,72,129866,1,0,0:0:0:0:
408,72,129945,1,0,0:0:0:0:
256,80,130023,5,4,0:0:0:0:
256,304,130180,1,4,0:0:0:0:
256,80,130338,1,4,0:0:0:0:
256,304,130495,1,4,0:0:0:0:
40,32,130652,5,4,0:0:0:0:
48,256,130809,5,0,0:0:0:0:
144,224,130887,1,0,0:0:0:0:
216,160,130966,1,0,0:0:0:0:
256,80,131044,5,4,0:0:0:0:
296,160,131123,5,0,0:0:0:0:
368,224,131201,1,0,0:0:0:0:
464,256,131280,1,4,0:0:0:0:
472,352,131437,5,0,0:0:0:0:
40,32,131594,5,4,0:0:0:0:
472,352,131751,1,4,0:0:0:0:
512,0,131908,5,4,0:0:0:0:
504,24,131987,1,0,0:0:0:0:
496,48,132065,1,0,0:0:0:0:
488,72,132144,1,0,0:0:0:0:
464,88,132222,5,0,0:0:0:0:
448,107,132301,1,0,0:0:0:0:
432,127,132379,1,0,0:0:0:0:
416,147,132458,1,0,0:0:0:0:
392,152,132536,5,0,0:0:0:0:
370,164,132615,1,0,0:0:0:0:
348,177,132693,1,0,0:0:0:0:
326,191,132772,1,0,0:0:0:0:
296,192,132851,5,0,0:0:0:0:
271,196,132930,1,0,0:0:0:0:
246,201,133008,1,0,0:0:0:0:
221,206,133087,1,0,0:0:0:0:
192,200,133165,5,0,0:0:0:0:
167,195,133244,1,0,0:0:0:0:
142,190,133322,1,0,0:0:0:0:
116,187,133401,1,0,0:0:0:0:
92,168,133480,5,0,0:0:0:0:
71,155,133559,1,0,0:0:0:0:
48,143,133637,1,0,0:0:0:0:
26,131,133716,1,0,0:0:0:0:
8,112,133793,5,0,0:0:0:0:
8,112,133872,1,0,0:0:0:0:
8,112,133950,1,0,0:0:0:0:
8,112,134029,1,0,0:0:0:0:
8,112,134107,5,0,0:0:0:0:
8,112,134186,1,0,0:0:0:0:
8,112,134264,1,0,0:0:0:0:
8,112,134343,1,0,0:0:0:0:
