osu file format v14

[General]
AudioFilename: Sailing.mp3
AudioLeadIn: 0
PreviewTime: 81033
Countdown: 0
SampleSet: Normal
StackLeniency: 0.7
Mode: 0
LetterboxInBreaks: 1
WidescreenStoryboard: 0

[Editor]
DistanceSpacing: 1
BeatDivisor: 4
GridSize: 4
TimelineZoom: 1

[Metadata]
Title:Sailing
TitleUnicode:Sailing
Artist:DEPAPEPE
ArtistUnicode:DEPAPEPE
Creator:NaCulus
Version:Normal
Source:
Tags:guitar duo Tokuoka Yoshinari Miura Takuya Japan acoustic DO! デパペペ 三浦拓也 徳岡慶也
BeatmapID:324203
BeatmapSetID:127906

[Difficulty]
HPDrainRate:4
CircleSize:3
OverallDifficulty:4
ApproachRate:4
SliderMultiplier:1
SliderTickRate:2

[Events]
//Background and Video events
0,0,"BG-2.jpg",0,0
//Break Periods
2,117456,123741
2,183796,186180
//Storyboard Layer 0 (Background)
//Storyboard Layer 1 (Fail)
//Storyboard Layer 2 (Pass)
//Storyboard Layer 3 (Foreground)
//Storyboard Sound Samples

[TimingPoints]
183,487.80487804878,4,2,2,60,1,0
15792,-100,4,1,1,70,0,0
31402,-100,4,2,2,60,0,0
34695,-100,4,2,2,70,0,0
35304,-100,4,2,2,40,0,0
80182,-100,4,1,1,70,0,0
82134,-100,4,1,1,70,0,1
109451,-100,4,1,1,70,0,0
125061,-100,4,1,1,40,0,0
125091,-100,4,2,2,70,0,0
154329,-100,4,1,1,70,0,0
156280,-100,4,1,1,70,0,1
183109,-133.333333333333,4,1,1,70,0,0
183597,-100,4,2,2,70,0,0
187500,-100,4,2,2,70,0,0
190426,-133.333333333333,4,2,2,70,0,0
191890,-100,4,2,2,70,0,0
195304,-100,4,1,1,70,0,0

[Colours]
Combo1 : 38,217,213
Combo2 : 255,128,128
Combo3 : 192,192,192

[HitObjects]
160,88,7987,6,12,L|264:88,1,100,12|0,0:0|0:0,0:0:0:0:
312,88,8719,2,8,B|392:88|392:88|448:144,1,150
424,236,9939,2,0,B|384:268|384:268|336:268,1,100,8|0,0:0|0:0,0:0:0:0:
284,268,10670,2,8,B|220:268|220:268|188:244|188:244|140:244,1,150
72,172,11890,5,8,0:0:0:0:
128,88,12378,1,0,0:0:0:0:
172,64,12622,2,0,P|244:44|328:68,1,150
408,104,13841,1,8,0:0:0:0:
336,172,14329,1,0,0:0:0:0:
288,188,14573,2,0,P|215:204|144:184,1,150
68,120,15792,5,4,0:0:0:0:
156,68,16280,1,0,0:0:0:0:
204,64,16524,2,0,P|280:68|344:108,1,150,0|8,0:0|0:0,0:0:0:0:
372,200,17743,2,0,P|234:249|98:193,1,300,0|8,0:0|0:0,0:0:0:0:
188,144,19695,6,0,P|128:96|52:96,2,150,0|0|8,0:0|0:0|0:0,0:0:0:0:
288,144,21646,2,0,P|349:102|423:95,2,150,0|0|12,0:0|0:0|0:0,0:0:0:0:
288,244,23597,6,0,P|248:284|200:296,1,100
156,292,24329,2,0,P|80:260|64:196,1,150
164,192,25548,2,0,P|288:120|420:192,1,300
504,236,27500,6,8,P|465:267|418:283,3,100,0|0|0|8,0:0|0:0|0:0|0:0,0:0:0:0:
320,260,29451,2,8,P|288:221|272:174,3,100,0|0|0|8,0:0|0:0|0:0|0:0,0:0:0:0:
276,76,31402,5,4,0:0:0:0:
184,32,31890,1,0,0:0:0:0:
92,68,32378,1,0,0:0:0:0:
44,156,32865,2,0,L|24:208,1,50
12,252,33353,2,0,P|-4:300|4:348,1,100
96,308,34329,2,0,L|156:356,2,75
92,260,35304,6,0,P|176:204|276:204,1,200,4|0,0:0|0:0,0:0:0:0:
364,244,36768,1,0,0:0:0:0:
452,288,37256,2,0,L|500:196,1,100
492,100,38231,5,0,0:0:0:0:
400,60,38719,1,2,0:0:0:0:
300,56,39207,2,0,P|208:96|156:180,1,200
144,276,40670,1,0,0:0:0:0:
176,372,41158,6,0,L|280:372,1,100
328,372,41890,2,0,P|404:364|448:308,1,150,0|2,0:0|0:0,0:0:0:0:
356,272,43109,2,0,P|342:199|288:145,1,150
196,116,44329,2,0,L|100:152,1,100
56,172,45061,5,0,0:0:0:0:
88,268,45548,1,0,0:0:0:0:
168,324,46036,1,0,0:0:0:0:
268,336,46524,1,10,0:0:0:0:
368,324,47012,6,0,P|432:256|448:200,1,150
448,152,47987,2,0,P|412:84|348:44,1,150
300,40,48963,1,0,0:0:0:0:
256,124,49451,2,0,L|288:172,1,50
332,252,50182,6,0,L|382:252,2,50
280,252,50914,2,0,P|180:236|112:164,1,200,4|0,0:0|0:0,0:0:0:0:
208,128,52378,2,0,L|260:156,2,50
152,48,53353,1,0,0:0:0:0:
56,64,53841,1,0,0:0:0:0:
44,164,54329,1,2,0:0:0:0:
132,208,54817,5,0,0:0:0:0:
172,300,55304,1,0,0:0:0:0:
260,344,55792,2,0,L|312:344,1,50
412,336,56524,2,0,P|452:272|428:204,1,150
392,172,57500,2,0,P|328:140|256:168,1,150,0|2,0:0|0:0,0:0:0:0:
188,236,58719,5,0,0:0:0:0:
132,152,59207,1,0,0:0:0:0:
160,112,59451,2,0,P|212:60|292:40,1,150
384,40,60670,1,0,0:0:0:0:
440,124,61158,1,0,0:0:0:0:
408,220,61646,1,0,0:0:0:0:
464,304,62134,1,10,0:0:0:0:
364,316,62622,6,0,P|284:349|172:332,1,200
124,288,63963,1,0,0:0:0:0:
92,220,64329,2,0,L|116:172,1,50
208,212,65061,2,0,L|260:188,1,50
292,284,65792,2,0,L|348:304,1,50
352,200,66524,5,0,0:0:0:0:
452,212,67012,1,0,0:0:0:0:
488,120,67499,1,0,0:0:0:0:
416,52,67987,1,0,0:0:0:0:
328,104,68475,1,0,0:0:0:0:
264,180,68963,2,0,P|216:212|176:220,2,100
328,104,70426,5,0,0:0:0:0:
244,48,70914,1,0,0:0:0:0:
152,84,71402,1,0,0:0:0:0:
124,180,71890,1,0,0:0:0:0:
160,272,72378,2,0,P|208:308|256:304,1,100
236,208,73353,2,0,P|285:211|321:243,1,100
368,332,74329,5,0,0:0:0:0:
464,300,74817,1,0,0:0:0:0:
484,204,75304,1,0,0:0:0:0:
436,116,75792,1,0,0:0:0:0:
336,100,76280,1,0,0:0:0:0:
256,160,76768,2,0,L|200:160,1,50
116,208,77500,1,0,0:0:0:0:
68,120,77987,2,0,L|100:76,1,50
188,36,78719,5,0,0:0:0:0:
264,100,79207,1,0,0:0:0:0:
340,36,79695,1,0,0:0:0:0:
416,100,80182,2,0,L|472:100,2,50
372,188,81158,1,0,0:0:0:0:
300,260,81646,1,0,0:0:0:0:
200,276,82134,6,0,L|104:156,1,150,4|0,0:0|0:0,0:0:0:0:
80,64,83353,2,0,L|136:64,1,50,0|8,0:0|0:0,0:0:0:0:
232,64,84085,6,0,P|312:40|376:72,1,150
368,168,85304,2,0,L|208:168,1,150
184,240,86402,1,0,0:0:0:0:
144,304,86768,2,0,P|56:248|40:208,1,150,0|8,0:0|0:0,0:0:0:0:
60,112,87987,5,0,0:0:0:0:
132,40,88475,1,0,0:0:0:0:
232,52,88963,1,0,0:0:0:0:
280,140,89451,1,0,0:0:0:0:
256,192,89939,12,4,91890,0:0:0:0:
457,148,92865,6,0,P|422:211|351:227,1,150
304,236,93841,2,0,L|220:248,1,75
156,256,94573,2,0,P|95:252|43:185,1,150
40,84,95792,1,0,0:0:0:0:
128,36,96280,5,0,0:0:0:0:
164,128,96768,1,0,0:0:0:0:
260,160,97256,1,0,0:0:0:0:
300,252,97743,2,0,P|364:300|428:276,2,150
260,160,99695,5,0,0:0:0:0:
360,164,100182,1,0,0:0:0:0:
360,64,100670,1,0,0:0:0:0:
260,60,101158,1,0,0:0:0:0:
260,160,101646,6,0,L|108:160,1,150,4|0,0:0|0:0,0:0:0:0:
232,248,103109,2,0,P|288:248|324:224,1,100
356,188,103841,2,0,P|361:132|333:93,1,100
184,104,105061,5,0,0:0:0:0:
244,24,105548,1,4,0:0:0:0:
320,88,106036,1,0,0:0:0:0:
332,180,106524,2,0,L|296:232,1,50
252,228,107012,2,0,L|200:228,1,50
232,332,107743,5,0,0:0:0:0:
132,332,108231,1,0,0:0:0:0:
72,44,109939,5,0,0:0:0:0:
132,40,110182,2,0,L|284:40,1,150
384,40,111402,2,0,P|460:104|472:152,1,150
460,248,112622,2,0,L|424:288,1,50,0|8,0:0|0:0,0:0:0:0:
336,328,113353,6,0,L|186:328,1,150
104,272,114573,2,0,L|104:222,1,50,0|8,0:0|0:0,0:0:0:0:
136,128,115304,2,0,P|180:68|246:34,1,150
344,60,116524,2,0,L|380:93,1,50,0|8,0:0|0:0,0:0:0:0:
448,168,117256,1,4,0:0:0:0:
216,296,125061,6,0,B|128:296|128:296|88:248|100:180,1,200,4|0,0:0|0:0,0:0:0:0:
104,92,126524,1,0,0:0:0:0:
188,36,127012,2,0,L|292:36,1,100
376,80,127987,5,0,0:0:0:0:
296,140,128475,1,2,0:0:0:0:
376,200,128963,2,0,B|376:280|376:280|312:280|272:336,1,200
172,340,130426,2,0,L|116:340,1,50
72,332,130914,6,0,P|36:296|28:248,1,100
28,200,131646,2,0,P|48:128|108:84,1,150,0|2,0:0|0:0,0:0:0:0:
208,80,132865,6,0,L|284:80,2,75
160,168,134085,2,0,L|220:168,1,50
260,176,134573,2,0,L|304:216,1,50
396,220,135304,1,0,0:0:0:0:
476,280,135792,1,0,0:0:0:0:
392,336,136280,1,2,0:0:0:0:
316,272,136768,6,0,L|164:256,1,150
124,236,137743,2,0,P|76:148|88:104,1,150
112,60,138719,1,0,0:0:0:0:
208,88,139207,2,8,P|252:136|268:172,2,100
112,60,140670,5,4,0:0:0:0:
40,128,141158,1,0,0:0:0:0:
60,228,141646,1,0,0:0:0:0:
120,308,142134,1,0,0:0:0:0:
212,348,142622,2,8,L|316:332,1,100,8|8,0:0|0:0,0:0:0:0:
260,248,143597,2,8,L|364:232,1,100,8|8,0:0|0:0,0:0:0:0:
448,192,144573,5,0,0:0:0:0:
316,192,145061,1,0,0:0:0:0:
380,268,145548,1,0,0:0:0:0:
448,192,146036,1,0,0:0:0:0:
480,96,146524,2,8,B|384:64|384:64|288:96,1,200
196,124,147987,1,0,0:0:0:0:
108,172,148475,6,0,B|92:228|124:268|124:268|172:268,2,150
196,124,150426,1,0,0:0:0:0:
296,140,150914,2,0,L|344:164,1,50
372,260,151646,2,0,P|444:188|436:140,1,150
380,68,152865,5,0,0:0:0:0:
288,28,153353,1,0,0:0:0:0:
200,76,153841,1,0,0:0:0:0:
164,168,154329,2,0,L|116:184,2,50
232,244,155304,5,0,0:0:0:0:
328,216,155792,1,0,0:0:0:0:
364,308,156280,6,0,B|268:348|268:348|220:348,1,150,4|0,0:0|0:0,0:0:0:0:
128,316,157500,2,0,L|80:292,1,50,0|8,0:0|0:0,0:0:0:0:
72,196,158231,2,0,B|56:144|76:104|76:104|64:48,2,150,0|0|8,0:0|0:0|0:0,0:0:0:0:
156,248,160182,6,0,L|228:208,1,75
288,176,160914,2,0,B|328:134|375:144|375:144|431:106,1,150,0|8,0:0|0:0,0:0:0:0:
352,40,162134,5,0,0:0:0:0:
252,56,162622,1,0,0:0:0:0:
172,116,163109,1,0,0:0:0:0:
124,204,163597,1,0,0:0:0:0:
256,192,164085,12,4,166036,0:0:0:0:
220,276,167012,6,0,P|296:252|340:196,1,150
340,148,167987,2,0,P|276:64|232:48,2,150
256,200,169939,1,0,0:0:0:0:
160,168,170426,5,4,0:0:0:0:
88,236,170914,1,0,0:0:0:0:
32,152,171402,1,0,0:0:0:0:
80,64,171890,2,0,L|184:40,1,100,4|0,0:0|0:0,0:0:0:0:
224,40,172622,2,0,B|288:48|288:48|312:88|360:120,1,150
344,208,173841,5,0,0:0:0:0:
408,280,174329,1,0,0:0:0:0:
320,328,174817,1,0,0:0:0:0:
256,256,175304,1,0,0:0:0:0:
176,320,175792,6,0,L|96:304,1,75,4|0,0:0|0:0,0:0:0:0:
64,240,176524,2,0,P|40:168|80:112,1,150
168,64,177743,2,0,B|216:56|252:96|252:96|320:96,1,150
408,96,178963,5,0,0:0:0:0:
420,144,179207,1,0,0:0:0:0:
432,192,179451,2,0,L|472:344,1,150
372,348,180670,6,0,L|320:348,1,50
272,348,181158,2,0,L|236:312,1,50
204,220,181890,1,0,0:0:0:0:
204,116,182378,1,0,0:0:0:0:
272,44,182865,1,0,0:0:0:0:
364,44,183353,2,0,L|404:44,1,37.5000014305115,0|4,0:0|0:0,0:0:0:0:
372,224,187500,5,0,0:0:0:0:
272,212,187987,1,0,0:0:0:0:
172,228,188475,1,0,0:0:0:0:
92,292,188963,1,2,0:0:0:0:
52,200,189451,1,0,0:0:0:0:
132,140,189939,1,0,0:0:0:0:
220,88,190426,2,0,L|300:88,2,75.0000028610231,0|2|0,0:0|0:0|0:0,0:0:0:0:
220,188,191890,5,0,0:0:0:0:
320,188,192378,1,0,0:0:0:0:
416,160,192865,1,2,0:0:0:0:
256,192,193353,12,4,195304,0:0:0:0:
88,228,196036,6,0,L|212:132,1,150
284,72,197256,2,0,L|380:112,1,100
464,156,198231,1,0,0:0:0:0:
392,224,198719,1,0,0:0:0:0:
320,292,199207,6,0,B|256:332|256:332|192:332|168:244,1,200
88,196,200670,2,0,L|38:203,2,50
80,96,201646,5,0,0:0:0:0:
172,60,202134,2,0,P|276:36|372:60,1,200
436,128,203597,2,0,L|476:160,2,50
372,168,204451,1,0,0:0:0:0:
312,212,204817,2,0,B|264:260|232:252|232:252|168:228,1,150
80,236,206036,5,0,0:0:0:0:
120,144,206524,2,0,B|140:92|196:76,1,100,0|0,0:0|0:0,0:0:0:0:
280,56,207500,2,0,L|332:56,1,50
436,84,208231,2,0,L|464:128,1,50
476,176,208719,2,0,P|480:256|460:328,1,150
364,296,209939,6,0,B|396:192|340:104,1,200,0|4,0:0|0:0,0:0:0:0:
292,48,211280,1,0,0:0:0:0:
220,32,211646,2,0,L|72:52,1,150
28,144,212865,1,0,0:0:0:0:
68,236,213353,5,0,0:0:0:0:
148,296,213841,2,0,L|252:296,1,100
344,264,214817,2,0,B|396:196|352:120,1,150
276,60,216036,5,0,0:0:0:0:
276,60,216280,1,0,0:0:0:0:
276,60,216524,1,0,0:0:0:0:
256,192,216768,12,4,218719,0:0:0:0:
260,52,219451,6,0,L|324:196,1,150
280,280,220670,2,0,P|208:208|184:112,1,200
260,52,222134,1,0,0:0:0:0:
320,132,222622,5,4,0:0:0:0:
412,96,223109,1,0,0:0:0:0:
472,176,223597,1,0,0:0:0:0:
400,248,224085,1,0,0:0:0:0:
302,225,224573,6,0,L|198:217,1,100,0|0,0:0|0:0,0:0:0:0:
152,132,225548,2,0,L|252:140,1,100
340,92,226524,2,0,P|354:141|337:188,1,100
268,256,227500,2,0,P|252:302|267:349,1,100
256,192,228475,12,4,230426,0:0:0:0:
