osu file format v14

[General]
AudioFilename: Sailing.mp3
AudioLeadIn: 0
PreviewTime: 81033
Countdown: 0
SampleSet: Soft
StackLeniency: 0.7
Mode: 0
LetterboxInBreaks: 1
WidescreenStoryboard: 0

[Editor]
DistanceSpacing: 2
BeatDivisor: 3
GridSize: 4
TimelineZoom: 1

[Metadata]
Title:Sailing
TitleUnicode:Sailing
Artist:DEPAPEPE
ArtistUnicode:DEPAPEPE
Creator:NaCulus
Version:Hard
Source:
Tags:guitar duo Tokuoka Yoshinari Miura Takuya Japan acoustic DO! デパペペ 三浦拓也 徳岡慶也
BeatmapID:324201
BeatmapSetID:127906

[Difficulty]
HPDrainRate:6
CircleSize:4
OverallDifficulty:6
ApproachRate:7
SliderMultiplier:1.8
SliderTickRate:2

[Events]
//Background and Video events
0,0,"BG-2.jpg",0,0
//Break Periods
2,117456,124161
//Storyboard Layer 0 (Background)
//Storyboard Layer 1 (Fail)
//Storyboard Layer 2 (Pass)
//Storyboard Layer 3 (Foreground)
//Storyboard Sound Samples

[TimingPoints]
183,487.80487804878,4,2,2,60,1,0
7987,-133.333333333333,4,2,2,60,0,0
15792,-100,4,1,1,70,0,0
31402,-100,4,2,2,60,0,0
65792,-100,4,3,0,50,0,0
66524,-100,4,2,2,60,0,0
80182,-100,4,1,1,70,0,0
82134,-100,4,1,1,70,0,1
109207,-100,4,1,1,70,0,0
125061,-100,4,1,0,60,0,0
125091,-100,4,2,2,60,0,0
139939,-100,4,3,0,50,0,0
140670,-100,4,2,2,60,0,0
154329,-100,4,1,1,70,0,0
155304,-100,4,1,1,70,0,0
156280,-100,4,1,1,70,0,1
183109,-133.333333333333,4,1,1,70,0,0
183597,-133.333333333333,4,2,2,60,0,0
195304,-100,4,1,1,70,0,0

[Colours]
Combo1 : 38,217,213
Combo2 : 255,128,128
Combo3 : 192,192,192

[HitObjects]
88,88,7987,6,0,L|224:88,1,135.000005149842,8|0,0:0|0:0,0:0:0:0:
292,88,8719,2,0,B|364:88|364:88|412:136,1,135.000005149842,8|0,0:0|0:0,0:0:0:0:
452,184,9451,1,8,0:0:0:0:
424,316,9939,2,0,L|288:316,1,135.000005149842,8|0,0:0|0:0,0:0:0:0:
220,312,10670,2,0,P|156:288|116:232,1,135.000005149842,8|0,0:0|0:0,0:0:0:0:
108,168,11402,1,8,0:0:0:0:
216,84,11890,6,0,P|284:56|348:56,1,135.000005149842,8|0,0:0|0:0,0:0:0:0:
412,60,12622,1,8,0:0:0:0:
452,188,13109,2,0,L|476:256,1,67.5000025749208,0|8,0:0|0:0,0:0:0:0:
352,304,13841,2,0,P|316:248|244:212,1,135.000005149842,8|0,0:0|0:0,0:0:0:0:
192,196,14573,1,8,0:0:0:0:
84,276,15061,2,0,P|48:296|32:320,1,67.5000025749208,0|8,0:0|0:0,0:0:0:0:
224,340,15792,6,0,L|224:160,1,180,4|0,0:0|0:0,0:0:0:0:
132,156,16524,2,0,P|60:116|72:28,1,180
148,72,17256,2,0,L|240:72,1,90,8|0,0:0|0:0,0:0:0:0:
328,72,17743,1,0,0:0:0:0:
436,152,18109,1,0,0:0:0:0:
488,276,18475,2,0,B|424:340|424:340|336:356,1,180
264,300,19207,1,8,0:0:0:0:
196,240,19451,5,0,0:0:0:0:
156,208,19573,1,0,0:0:0:0:
124,168,19695,2,8,B|196:112|196:112|284:96,1,180,0|8,0:0|0:0,0:0:0:0:
372,88,20426,2,0,B|372:148|308:176|308:176|296:240,1,180
288,328,21158,1,8,0:0:0:0:
368,288,21402,1,0,0:0:0:0:
400,256,21524,1,0,0:0:0:0:
444,248,21646,2,0,P|444:344|380:384,1,180,0|8,0:0|0:0,0:0:0:0:
288,380,22378,2,0,P|204:352|152:280,1,180
136,192,23109,1,8,0:0:0:0:
136,192,23353,1,0,0:0:0:0:
136,192,23597,6,0,P|224:160|296:200,1,180,4|8,0:0|0:0,0:0:0:0:
312,112,24329,2,0,L|312:296,1,180
312,292,25061,1,8,0:0:0:0:
380,352,25304,2,0,L|452:296,1,90
456,160,25914,1,0,0:0:0:0:
340,88,26280,2,0,B|260:48|260:48|172:88,1,180
100,132,27012,1,8,0:0:0:0:
40,200,27256,5,0,0:0:0:0:
40,244,27378,1,0,0:0:0:0:
60,284,27500,2,8,B|78:328|120:345|120:345|212:344,1,180,0|8,0:0|0:0,0:0:0:0:
300,344,28231,2,8,B|391:345|391:345|433:328|452:284,1,180,0|0,0:0|0:0,0:0:0:0:
468,196,28963,1,8,0:0:0:0:
408,128,29207,1,0,0:0:0:0:
408,128,29329,1,0,0:0:0:0:
408,128,29451,2,0,B|322:98|322:98|236:140,1,180,0|8,0:0|0:0,0:0:0:0:
276,220,30182,2,0,P|188:212|144:136,1,180
240,132,30914,1,8,0:0:0:0:
188,208,31158,1,0,0:0:0:0:
276,220,31402,6,0,P|316:204|356:172,1,90,2|0,0:0|0:0,0:0:0:0:
268,140,31890,2,8,P|254:96|226:61,1,90,10|8,0:0|0:0,0:0:0:0:
180,140,32378,2,0,P|137:151|101:177,1,90,2|0,0:0|0:0,0:0:0:0:
176,224,32865,2,8,P|194:278|225:311,1,90,10|8,0:0|0:0,0:0:0:0:
256,192,33353,12,0,35061,0:0:0:0:
104,96,35304,6,0,P|174:34|260:35,1,180,4|0,0:0|0:0,0:0:0:0:
340,72,36036,1,0,0:0:0:0:
408,132,36280,2,0,B|472:196|472:196|472:292,1,180
396,336,37012,1,0,0:0:0:0:
304,336,37256,2,0,L|124:336,1,180,0|8,0:0|0:0,0:0:0:0:
116,208,37987,1,0,0:0:0:0:
216,168,38231,1,0,0:0:0:0:
316,208,38475,1,0,0:0:0:0:
216,84,38719,1,8,0:0:0:0:
216,252,38963,1,0,0:0:0:0:
304,336,39207,6,0,L|488:336,1,180
440,256,39939,2,0,L|344:256,2,90
392,180,40670,1,0,0:0:0:0:
392,180,40914,1,0,0:0:0:0:
256,192,41158,12,2,42622,0:0:0:0:
112,264,42865,5,0,0:0:0:0:
200,280,43109,2,0,P|296:280|368:240,1,180
372,148,43841,2,0,B|372:52|372:52|332:20|296:20,1,180
244,96,44573,1,0,0:0:0:0:
244,96,44817,1,0,0:0:0:0:
196,20,45061,2,8,B|160:20|119:51|119:51|119:147,1,180
120,328,46036,2,8,L|304:328,1,180
432,208,47012,6,0,B|488:136|488:136|488:48,1,180
400,68,47743,1,0,0:0:0:0:
320,28,47987,2,0,P|252:20|200:60,2,135
276,108,48963,2,0,P|255:194|317:250,1,180
344,164,49695,1,0,0:0:0:0:
476,180,50182,5,0,0:0:0:0:
420,252,50426,1,0,0:0:0:0:
332,268,50670,1,0,0:0:0:0:
260,216,50914,2,0,P|180:176|100:216,1,180,4|0,0:0|0:0,0:0:0:0:
180,256,51646,1,0,0:0:0:0:
180,176,51890,2,0,L|180:84,1,90
260,132,52378,1,0,0:0:0:0:
180,84,52622,1,0,0:0:0:0:
111,136,52865,2,0,P|187:176|260:131,1,180,0|8,0:0|0:0,0:0:0:0:
340,92,53597,5,0,0:0:0:0:
360,196,53841,1,0,0:0:0:0:
336,296,54085,1,0,0:0:0:0:
436,196,54329,1,8,0:0:0:0:
276,196,54573,1,0,0:0:0:0:
184,196,54817,2,0,B|104:196|-8:196,2,180
264,240,56036,2,0,P|276:192|264:152,1,90
184,196,56524,1,0,0:0:0:0:
256,192,56768,12,2,58231,0:0:0:0:
56,288,58475,5,0,0:0:0:0:
140,260,58719,2,0,P|220:208|212:128,1,180
212,40,59451,2,0,P|137:81|137:167,1,180
216,216,60182,1,0,0:0:0:0:
304,224,60426,1,0,0:0:0:0:
384,192,60670,2,8,P|456:136|464:48,3,180
284,40,62622,6,0,L|104:40,1,180
60,120,63353,1,0,0:0:0:0:
96,200,63597,1,0,0:0:0:0:
60,332,63963,1,0,0:0:0:0:
96,200,64329,2,0,L|192:200,1,90
268,200,64817,1,0,0:0:0:0:
356,188,65061,2,0,P|392:152|404:112,1,90
240,44,65792,2,0,L|312:104,2,90,0|0|0,0:0|0:0|0:0,0:0:0:0:
164,92,66524,5,0,0:0:0:0:
120,172,66768,2,0,P|140:220|176:240,1,90
260,256,67256,1,0,0:0:0:0:
308,180,67500,1,0,0:0:0:0:
380,236,67743,2,0,P|412:268|420:316,1,90
332,312,68231,1,0,0:0:0:0:
256,192,68475,12,0,69939,0:0:0:0:
200,72,70426,5,0,0:0:0:0:
288,96,70670,2,0,L|368:152,1,90
288,192,71158,1,0,0:0:0:0:
364,240,71402,1,0,0:0:0:0:
280,280,71646,2,0,L|204:228,1,90
288,192,72134,1,0,0:0:0:0:
256,192,72378,12,0,73841,0:0:0:0:
156,280,74329,5,0,0:0:0:0:
220,216,74573,1,0,0:0:0:0:
312,216,74817,1,0,0:0:0:0:
316,304,75061,2,0,L|400:344,1,90
472,292,75548,2,0,L|390:253,1,90
311,215,76036,1,0,0:0:0:0:
312,216,76280,2,0,P|232:176|176:104,1,180
124,180,77012,1,0,0:0:0:0:
268,72,77500,6,0,P|348:32|428:80,1,180
348,112,78231,1,0,0:0:0:0:
420,184,78475,1,0,0:0:0:0:
276,184,78719,1,0,0:0:0:0:
348,256,78963,1,0,0:0:0:0:
348,256,79207,1,0,0:0:0:0:
268,304,79451,2,0,P|348:344|428:296,1,180
348,256,80182,5,0,0:0:0:0:
348,112,80426,1,0,0:0:0:0:
476,180,80670,1,0,0:0:0:0:
264,96,81158,5,0,0:0:0:0:
264,96,81646,1,0,0:0:0:0:
192,148,82134,2,0,P|264:196|336:148,1,180,4|0,0:0|0:0,0:0:0:0:
376,232,82865,2,0,P|332:144|372:64,1,180
452,64,83597,1,0,0:0:0:0:
480,152,83841,1,0,0:0:0:0:
476,240,84085,2,0,B|396:288|396:288|308:288,1,180
220,288,84817,2,0,B|134:288|134:288|54:240,1,180
20,156,85548,1,0,0:0:0:0:
80,92,85792,1,0,0:0:0:0:
160,48,86036,6,0,P|220:20|289:40,2,135
224,112,87012,1,0,0:0:0:0:
312,108,87256,1,0,0:0:0:0:
364,36,87500,1,0,0:0:0:0:
440,80,87743,1,0,0:0:0:0:
468,116,87865,1,0,0:0:0:0:
484,156,87987,2,8,P|494:241|440:318,1,180
312,192,88963,2,8,P|224:168|136:180,1,180
256,192,89939,12,0,91890,0:0:0:0:
28,124,92134,5,0,0:0:0:0:
100,180,92378,1,0,0:0:0:0:
180,140,92622,1,0,0:0:0:0:
260,180,92865,2,0,L|404:180,2,135
184,228,93841,6,0,P|148:280|160:348,2,135
236,300,94817,1,0,0:0:0:0:
320,328,95061,1,0,0:0:0:0:
400,284,95304,1,0,0:0:0:0:
416,196,95548,1,0,0:0:0:0:
416,196,95670,1,0,0:0:0:0:
416,196,95792,5,0,0:0:0:0:
312,48,96280,1,0,0:0:0:0:
109,164,96768,1,0,0:0:0:0:
312,282,97256,1,0,0:0:0:0:
256,192,97743,12,0,99207,0:0:0:0:
64,64,99451,5,0,0:0:0:0:
112,64,99573,1,0,0:0:0:0:
160,64,99695,2,0,P|224:128|248:216,1,180
247,212,100670,2,0,P|319:161|407:166,1,180
407,166,101646,5,4,0:2:0:0:
368,296,102012,1,0,0:0:0:0:
240,340,102378,2,0,L|56:340,1,180
108,264,103109,1,0,0:0:0:0:
200,264,103353,1,0,0:0:0:0:
152,188,103597,2,0,L|152:92,2,90
152,188,104329,1,0,0:0:0:0:
296,96,104817,5,0,0:0:0:0:
296,96,105061,1,0,0:0:0:0:
296,96,105304,2,0,B|368:152|368:152|384:248,1,180
296,192,106036,1,0,0:0:0:0:
272,280,106280,1,0,0:0:0:0:
272,280,106402,1,0,0:0:0:0:
272,280,106524,1,0,0:0:0:0:
176,280,106768,1,0,0:0:0:0:
152,192,107012,1,0,0:0:0:0:
224,120,107256,2,8,L|224:304,2,180
404,120,108719,2,0,L|224:120,1,180
284,52,109451,6,0,L|100:52,1,180,4|0,0:0|0:0,0:0:0:0:
96,144,110183,2,0,L|96:328,1,180
188,328,110915,1,8,0:0:0:0:
280,328,111159,1,0,0:0:0:0:
368,328,111402,1,0,0:0:0:0:
456,228,111768,1,0,0:0:0:0:
396,108,112134,2,0,B|336:32|240:32,1,180
172,92,112866,1,8,0:0:0:0:
104,152,113109,5,0,0:0:0:0:
108,196,113231,1,0,0:0:0:0:
124,240,113354,2,0,B|168:328|292:312,1,180,0|8,0:0|0:0,0:0:0:0:
352,268,114085,2,0,P|344:172|293:103,1,180
232,44,114817,1,8,0:0:0:0:
144,28,115061,1,0,0:0:0:0:
256,192,115304,12,8,116768,0:0:0:0:
256,189,117012,5,0,0:0:0:0:
256,189,117256,1,4,0:0:0:0:
104,288,125061,6,0,P|174:350|260:349,1,180,4|0,0:0|0:0,0:0:0:0:
340,312,125793,1,0,0:0:0:0:
408,252,126037,2,0,B|472:188|472:188|472:92,1,180
396,48,126769,1,0,0:0:0:0:
304,48,127013,2,0,L|124:48,1,180
116,176,127743,1,0,0:0:0:0:
216,216,127987,1,0,0:0:0:0:
316,176,128231,1,0,0:0:0:0:
216,300,128475,1,8,0:0:0:0:
216,132,128719,1,0,0:0:0:0:
304,48,128964,6,0,L|488:48,1,180
440,128,129696,2,0,L|344:128,2,90
392,204,130427,1,0,0:0:0:0:
392,204,130671,1,0,0:0:0:0:
256,192,130915,12,2,132378,0:0:0:0:
112,120,132622,5,0,0:0:0:0:
200,104,132866,2,0,P|296:104|368:144,1,180
372,236,133598,2,0,B|372:332|372:332|332:364|296:364,1,180
244,288,134330,1,0,0:0:0:0:
244,288,134574,1,0,0:0:0:0:
196,364,134818,2,8,B|160:364|119:333|119:333|119:237,1,180
120,56,135793,2,8,L|304:56,1,180
432,176,136769,6,0,B|488:248|488:248|488:336,1,180
400,316,137500,1,0,0:0:0:0:
316,348,137744,2,0,P|248:356|196:316,2,135
272,268,138720,2,0,P|251:182|313:126,1,180
340,212,139452,1,0,0:0:0:0:
160,112,139939,2,0,L|248:80,2,90,8|8|4,0:0|0:0|0:0,0:0:0:0:
80,264,140670,5,4,0:0:0:0:
168,288,140914,2,0,L|264:296,1,90
336,256,141402,1,0,0:0:0:0:
400,176,141646,1,0,0:0:0:0:
328,96,141890,2,0,L|232:96,1,90
260,184,142378,1,0,0:0:0:0:
256,192,142622,12,0,144085,0:0:0:0:
368,240,144573,5,0,0:0:0:0:
280,200,144817,2,0,L|184:192,1,90
224,280,145304,1,0,0:0:0:0:
128,304,145548,1,0,0:0:0:0:
80,224,145792,2,0,L|64:128,1,90
160,120,146280,1,0,0:0:0:0:
240,64,146524,6,0,L|336:64,2,90
280,152,147256,2,0,L|376:152,1,90
392,20,147865,1,0,0:0:0:0:
368,152,148231,1,0,0:0:0:0:
392,248,148475,5,0,0:0:0:0:
392,248,148719,2,0,L|296:248,1,90
212,248,149207,2,0,L|308:248,1,90
256,160,149695,1,0,0:0:0:0:
256,160,149939,1,0,0:0:0:0:
256,160,150182,1,0,0:0:0:0:
192,80,150426,2,0,P|104:112|56:184,1,180
28,80,151158,2,0,P|116:112|164:184,1,180
176,360,152134,5,0,0:0:0:0:
176,261,152378,1,0,0:0:0:0:
261,310,152622,1,0,0:0:0:0:
148,314,152865,1,0,0:0:0:0:
228,256,153109,1,0,0:0:0:0:
238,353,153353,1,0,0:0:0:0:
148,314,153597,2,0,P|80:232|84:160,1,180
252,132,154329,1,0,0:0:0:0:
148,216,154573,1,0,0:0:0:0:
128,84,154817,1,0,0:0:0:0:
292,76,155304,5,0,0:0:0:0:
292,312,155792,1,0,0:0:0:0:
120,180,156280,2,0,P|200:228|264:180,1,180,4|0,0:0|0:0,0:0:0:0:
192,128,157012,2,0,L|192:308,1,180
268,356,157743,1,0,0:0:0:0:
360,316,157987,1,0,0:0:0:0:
436,256,158231,2,0,P|388:176|308:144,1,180
220,140,158963,2,0,P|140:168|120:256,1,180
208,232,159695,1,0,0:0:0:0:
176,316,159939,1,0,0:0:0:0:
92,292,160182,6,0,P|97:358|148:398,2,135
104,204,161158,1,0,0:0:0:0:
140,120,161402,1,0,0:0:0:0:
220,80,161646,1,0,0:0:0:0:
308,92,161890,2,0,L|356:116,1,45
380,144,162134,2,8,L|468:304,1,180
149,301,163109,2,8,L|236:144,1,180
256,192,164085,12,0,166036,0:0:0:0:
176,192,166280,5,0,0:0:0:0:
264,192,166524,1,0,0:0:0:0:
352,192,166768,1,0,0:0:0:0:
328,104,167012,2,0,L|192:104,2,135
264,192,167987,1,0,0:0:0:0:
264,328,168353,1,0,0:0:0:0:
264,192,168719,2,0,P|360:208|416:272,1,180
348,328,169451,1,0,0:0:0:0:
264,328,169695,2,0,L|232:296,2,45
128,208,170426,5,0,0:0:0:0:
272,72,170914,1,0,0:0:0:0:
320,256,171402,1,0,0:0:0:0:
128,208,171890,2,0,B|176:120|280:128,1,180
364,144,172622,2,0,B|455:203|424:300,1,180
356,356,173353,1,0,0:0:0:0:
268,348,173597,1,0,0:0:0:0:
188,308,173841,6,0,P|132:232|156:156,1,180
288,32,174817,2,0,P|344:108|320:184,1,180,0|0,0:0|0:0,0:0:0:0:
188,308,175792,2,0,P|244:336|312:316,2,135,0|0|0,0:0|0:0|0:0,0:0:0:0:
120,248,176768,2,0,P|97:209|95:165,1,90
184,188,177256,1,0,0:0:0:0:
268,156,177500,1,0,0:0:0:0:
352,168,177743,2,0,P|410:201|449:255,2,135
292,340,178963,5,0,0:0:0:0:
208,308,179207,1,0,0:0:0:0:
140,248,179451,2,0,P|84:176|108:92,1,180
168,160,180182,1,0,0:0:0:0:
220,88,180426,1,0,0:0:0:0:
220,88,180548,1,0,0:0:0:0:
220,88,180670,1,0,0:0:0:0:
268,164,180914,5,0,0:0:0:0:
220,240,181158,1,0,0:0:0:0:
224,332,181402,2,0,B|312:364|312:364|400:340,1,180
422,253,182134,1,4,0:0:0:0:
407,160,182378,2,0,B|319:128|319:128|231:152,1,180
339,250,183353,1,0,0:0:0:0:
421,254,183597,5,4,0:1:0:0:
460,176,183841,2,0,L|436:112,1,67.5000025749208
360,68,184329,2,0,L|284:56,1,67.5000025749208
208,76,184817,2,0,L|144:108,2,67.5000025749208
284,120,185548,2,0,P|332:168|316:232,1,135.000005149842
240,192,186280,1,0,0:0:0:0:
192,268,186524,1,0,0:0:0:0:
272,300,186768,1,0,0:0:0:0:
320,228,187012,1,0,0:0:0:0:
388,284,187256,2,0,L|460:284,1,67.5000025749208
492,204,187743,5,0,0:0:0:0:
440,132,187987,1,0,0:0:0:0:
372,76,188231,1,0,0:0:0:0:
288,52,188475,1,0,0:0:0:0:
200,52,188719,2,0,L|128:60,2,67.5000025749208
244,128,189451,1,0,0:0:0:0:
164,168,189695,1,0,0:0:0:0:
220,236,189939,1,0,0:0:0:0:
300,204,190182,2,0,L|368:228,1,67.5000025749208
452,220,190670,2,0,L|500:164,2,67.5000025749208
388,160,191402,5,0,0:0:0:0:
316,108,191646,2,0,P|284:88|240:88,1,67.5000025749208
168,96,192134,2,0,L|104:120,1,67.5000025749208
40,180,192622,1,0,0:0:0:0:
36,268,192865,1,0,0:0:0:0:
108,316,193109,1,0,0:0:0:0:
112,228,193353,1,0,0:0:0:0:
188,276,193597,5,0,0:0:0:0:
272,308,193841,1,0,0:0:0:0:
356,288,194085,1,0,0:0:0:0:
424,236,194329,2,0,P|436:196|432:164,1,67.5000025749208
396,92,194817,1,0,0:0:0:0:
320,48,195061,1,0,0:0:0:0:
232,36,195304,2,0,B|136:20|64:108,1,180
40,184,196036,6,0,L|64:228,3,45
88,260,196524,2,0,L|128:292,3,45
164,312,197012,1,0,0:0:0:0:
208,328,197134,1,0,0:0:0:0:
252,328,197256,2,0,P|336:312|392:240,1,180
396,152,197987,5,0,0:0:0:0:
396,152,198109,1,0,0:0:0:0:
396,152,198231,2,0,L|468:272,1,135
348,352,198963,1,0,0:0:0:0:
256,356,199207,2,0,P|168:348|112:280,1,180
80,196,199939,1,0,0:0:0:0:
68,152,200060,1,0,0:0:0:0:
72,108,200182,2,0,P|136:48|228:52,1,180
308,80,200914,1,0,0:0:0:0:
380,132,201158,2,0,B|440:220|388:312,1,180
312,344,201890,6,0,L|264:360,3,45
224,360,202378,2,0,L|176:348,3,45
136,336,202865,1,0,0:0:0:0:
104,304,202987,1,0,0:0:0:0:
88,260,203109,2,0,P|80:168|120:88,1,180
192,40,203841,5,0,0:0:0:0:
192,40,203963,1,0,0:0:0:0:
192,40,204085,2,0,L|328:40,1,135
432,124,204817,1,0,0:0:0:0:
376,192,205061,2,0,P|296:230|213:202,1,180
152,136,205792,1,0,0:0:0:0:
196,60,206036,2,0,L|376:72,1,180
456,112,206768,1,0,0:0:0:0:
456,112,206890,1,0,0:0:0:0:
456,112,207012,2,0,P|448:212|392:276,1,180
320,312,207743,5,0,0:0:0:0:
320,312,207865,1,0,0:0:0:0:
320,312,207987,1,0,0:0:0:0:
236,280,208231,1,0,0:0:0:0:
200,196,208475,1,0,0:0:0:0:
168,112,208719,2,0,P|100:56|12:72,1,180
8,160,209451,1,0,0:0:0:0:
56,236,209695,5,0,0:0:0:0:
56,236,209817,1,0,0:0:0:0:
56,236,209939,2,0,L|124:356,2,135
100,156,210914,2,0,P|136:100|200:76,2,135
100,156,211768,1,0,0:0:0:0:
100,156,211890,1,0,0:0:0:0:
188,164,212134,1,0,0:0:0:0:
240,236,212378,1,0,0:0:0:0:
284,312,212622,2,0,P|320:344|360:352,2,90
332,236,213353,1,0,0:0:0:0:
332,144,213597,5,0,0:0:0:0:
332,144,213719,1,0,0:0:0:0:
332,144,213841,2,0,P|304:80|244:52,2,135
244,132,214817,2,0,P|174:123|119:160,2,135
384,248,216036,6,0,L|456:308,2,90
304,208,216768,2,0,P|263:226|238:263,1,90
220,304,217134,1,0,0:0:0:0:
196,344,217256,1,0,0:0:0:0:
152,360,217378,1,0,0:0:0:0:
108,364,217500,1,0,0:0:0:0:
64,356,217622,1,0,0:0:0:0:
28,332,217743,2,0,L|8:240,1,90
0,200,218109,1,0,0:0:0:0:
4,156,218231,1,0,0:0:0:0:
28,116,218353,1,0,0:0:0:0:
68,96,218475,1,0,0:0:0:0:
112,96,218597,1,0,0:0:0:0:
156,108,218719,6,0,L|332:152,1,180
392,220,219451,1,0,0:0:0:0:
392,220,219573,1,0,0:0:0:0:
392,220,219695,2,0,P|316:284|284:292,2,135
308,184,220670,2,0,L|173:184,2,135
308,184,221646,1,0,0:0:0:0:
228,24,222134,5,0,0:0:0:0:
304,68,222378,1,0,0:0:0:0:
376,120,222622,2,0,B|416:176|376:248,2,135
304,184,223597,1,0,0:0:0:0:
228,232,223841,1,0,0:0:0:0:
136,232,224085,1,0,0:0:0:0:
60,184,224329,1,0,0:0:0:0:
104,112,224573,6,0,L|84:56,2,60
212,168,225061,2,0,L|232:224,2,60
312,104,225548,2,0,L|292:48,2,60
416,168,226036,2,0,L|436:224,2,60
384,96,226524,5,0,0:0:0:0:
316,36,226687,1,0,0:0:0:0:
232,36,226849,1,0,0:0:0:0:
176,96,227012,1,0,0:0:0:0:
232,160,227174,1,0,0:0:0:0:
316,160,227337,1,0,0:0:0:0:
400,176,227500,5,0,0:0:0:0:
479,201,227662,1,0,0:0:0:0:
479,285,227825,1,0,0:0:0:0:
400,311,227987,1,0,0:0:0:0:
350,243,228150,1,0,0:0:0:0:
420,244,228313,1,0,0:0:0:0:
256,192,228475,12,4,230426,0:0:0:0:
