osu file format v14

[General]
AudioFilename: Sailing.mp3
AudioLeadIn: 0
PreviewTime: 81033
Countdown: 0
SampleSet: Normal
StackLeniency: 0.7
Mode: 0
LetterboxInBreaks: 1
WidescreenStoryboard: 0

[Editor]
DistanceSpacing: 1.3
BeatDivisor: 4
GridSize: 4
TimelineZoom: 1

[Metadata]
Title:Sailing
TitleUnicode:Sailing
Artist:DEPAPEPE
ArtistUnicode:DEPAPEPE
Creator:NaCulus
Version:Easy
Source:
Tags:guitar duo Tokuoka Yoshinari Miura Takuya Japan acoustic DO! デパペペ 三浦拓也 徳岡慶也
BeatmapID:324200
BeatmapSetID:127906

[Difficulty]
HPDrainRate:2
CircleSize:2
OverallDifficulty:1
ApproachRate:2
SliderMultiplier:0.8
SliderTickRate:1

[Events]
//Background and Video events
0,0,"BG-2.jpg",0,0
//Break Periods
2,117456,123501
2,183797,189842
//Storyboard Layer 0 (Background)
//Storyboard Layer 1 (Fail)
//Storyboard Layer 2 (Pass)
//Storyboard Layer 3 (Foreground)
//Storyboard Sound Samples

[TimingPoints]
183,487.80487804878,4,2,2,60,1,0
15792,-100,4,1,1,70,0,0
31402,-100,4,2,2,60,0,0
34329,-100,4,1,1,70,0,0
35304,-100,4,2,2,50,0,0
76280,-100,4,2,2,60,0,0
80182,-100,4,1,1,70,0,0
81158,-100,4,1,1,70,0,0
82134,-100,4,1,1,70,0,1
109451,-100,4,1,1,70,0,0
125061,-100,4,1,1,70,0,0
125091,-100,4,2,0,50,0,0
154329,-100,4,1,1,70,0,0
155304,-100,4,1,1,70,0,0
156280,-100,4,1,1,70,0,1
183597,-100,4,1,1,70,0,0
195304,-100,4,1,1,70,0,0

[Colours]
Combo1 : 38,217,213
Combo2 : 255,117,186
Combo3 : 212,212,212

[HitObjects]
232,124,7987,6,8,L|316:36,2,120,12|0|8,0:0|0:0|0:0,0:0:0:0:
256,224,9939,2,8,L|340:320,2,120,8|0|8,0:0|0:0|0:0,0:0:0:0:
156,192,11890,6,8,L|36:192,2,120,8|0|8,0:0|0:0|0:0,0:0:0:0:
232,264,13841,2,8,L|352:264,2,120,8|0|8,0:0|0:0|0:0,0:0:0:0:
152,336,15792,6,0,B|80:288|40:224|40:136,1,240,4|8,0:0|0:0,0:0:0:0:
112,64,17743,2,0,L|232:64,2,120,0|0|8,0:0|0:0|0:0,0:0:0:0:
112,168,19695,6,0,B|204:192|204:264|204:264|204:360,1,240,0|8,0:0|0:0,0:0:0:0:
308,360,21646,2,0,B|308:264|308:264|308:192|400:168,1,240,0|8,0:0|0:0,0:0:0:0:
472,92,23597,5,4,0:0:0:0:
316,80,24329,2,0,B|252:80|212:144,1,120,0|8,0:0|0:0,0:0:0:0:
168,228,25548,1,0,0:0:0:0:
240,368,26280,2,0,L|360:368,1,120,0|8,0:0|0:0,0:0:0:0:
456,328,27500,6,0,P|496:288|512:216,2,120,0|0|8,0:0|0:0|0:0,0:0:0:0:
412,236,29451,2,0,P|372:276|356:348,2,120,0|0|8,0:0|0:0|0:0,0:0:0:0:
256,192,31402,12,4,34329,0:0:0:0:
104,120,35304,6,0,B|168:72|264:72|328:124,1,240,4|0,0:0|0:0,0:0:0:0:
408,192,37256,1,0,0:0:0:0:
296,300,37987,1,0,0:0:0:0:
140,292,38719,1,0,0:0:0:0:
112,192,39207,6,0,B|216:132|216:132|344:128,1,240
440,132,41158,2,0,B|428:196|372:228,2,120,0|0|8,0:0|0:0|0:0,0:0:0:0:
376,48,43109,6,0,L|256:48,1,120
104,84,44573,1,0,0:0:0:0:
80,184,45061,2,0,P|96:261|161:302,1,160
184,200,46524,1,8,0:0:0:0:
268,140,47012,6,0,P|336:104|424:128,1,160
500,184,48475,1,0,0:0:0:0:
428,260,48963,2,0,P|358:296|281:279,1,160,0|0,0:0|0:0,0:0:0:0:
196,220,50426,1,8,0:0:0:0:
280,160,50914,6,0,P|212:116|136:136,1,160,6|2,0:0|0:0,0:0:0:0:
60,204,52378,1,0,0:0:0:0:
120,288,52865,2,0,L|196:328,1,80
296,340,53841,5,0,0:0:0:0:
396,316,54329,1,8,0:0:0:0:
472,244,54817,2,0,P|484:164|432:108,1,160
380,200,56280,1,0,0:0:0:0:
276,212,56768,2,0,P|292:148|332:108,2,120,0|0|8,0:0|0:0|0:0,0:0:0:0:
220,300,58719,6,0,L|140:200,1,120
120,52,60182,1,0,0:0:0:0:
224,44,60670,2,0,P|352:76|421:156,1,240
484,236,62622,6,0,P|524:156|500:88,2,160
408,308,65061,2,0,L|344:356,2,80,0|0|8,0:0|0:0|0:0,0:0:0:0:
348,224,66524,6,0,B|292:144|204:192,1,160,4|0,0:0|0:0,0:0:0:0:
168,284,67987,2,0,P|124:304|80:296,1,80
68,200,68963,1,8,0:0:0:0:
128,116,69451,2,0,L|204:64,1,80,8|0,0:0|0:0,0:0:0:0:
288,64,70426,5,0,0:0:0:0:
396,244,71402,1,0,0:0:0:0:
200,320,72378,2,8,L|148:256,1,80
236,200,73353,2,8,L|188:136,1,80
132,48,74329,5,2,0:0:0:0:
340,48,75304,1,2,0:0:0:0:
392,248,76280,2,0,P|344:312|304:320,1,120,2|2,0:0|0:0,0:0:0:0:
204,316,77500,2,0,P|149:295|121:244,1,120,2|2,0:0|0:0,0:0:0:0:
132,140,78719,5,2,0:0:0:0:
204,64,79206,1,2,0:0:0:0:
308,44,79694,1,2,0:0:0:0:
400,92,80182,2,0,L|440:164,1,80
412,264,81158,2,0,L|340:304,1,80
244,336,82134,6,0,B|164:328|92:280|92:176,1,240,4|0,0:0|0:0,0:0:0:0:
120,80,84085,1,0,0:0:0:0:
216,44,84573,2,0,P|300:28|364:72,1,160
384,168,86036,6,0,L|312:284,1,120
164,296,87500,2,8,L|116:228,1,80
156,132,88475,1,0,0:0:0:0:
212,44,88963,1,0,0:0:0:0:
292,112,89451,1,0,0:0:0:0:
368,184,89939,6,0,B|436:240|436:240|460:320,2,160
284,244,92378,2,0,L|148:328,1,160
108,232,93841,6,0,L|212:168,1,120
344,88,95304,2,8,L|396:152,1,80
464,228,96280,5,0,0:0:0:0:
404,312,96768,1,0,0:0:0:0:
304,336,97256,1,0,0:0:0:0:
200,320,97743,2,0,B|220:252|288:232|288:232|264:120,1,240,4|0,0:0|0:0,0:0:0:0:
168,84,99695,5,0,0:0:0:0:
140,184,100182,1,0,0:0:0:0:
112,284,100670,1,0,0:0:0:0:
216,268,101158,1,0,0:0:0:0:
316,244,101646,2,0,P|368:200|372:148,2,120,4|0|0,0:0|0:0|0:0,0:0:0:0:
272,152,103597,2,0,L|176:72,1,120
72,184,105061,5,0,0:0:0:0:
104,284,105548,2,0,P|156:348|228:368,1,160,4|0,0:0|0:0,0:0:0:0:
332,368,107012,1,0,0:0:0:0:
432,344,107500,2,0,P|472:296|480:232,2,120
376,256,109451,6,0,B|304:208|264:144|264:56,1,240,4|0,0:0|0:0,0:0:0:0:
368,52,111402,2,0,L|488:52,2,120,0|0|8,0:0|0:0|0:0,0:0:0:0:
400,152,113353,6,0,B|308:176|308:252|308:252|308:360,1,240,0|8,0:0|0:0,0:0:0:0:
204,344,115304,2,0,B|204:252|204:252|204:176|112:152,1,240,0|8,0:0|0:0,0:0:0:0:
144,52,117256,1,4,0:0:0:0:
340,304,125061,6,0,B|276:352|180:352|116:304,1,240,4|0,0:0|0:0,0:0:0:0:
36,236,127012,1,0,0:0:0:0:
112,100,127743,1,0,0:0:0:0:
260,44,128475,1,0,0:0:0:0:
364,48,128963,6,0,P|424:144|372:252,1,240
284,196,130914,2,8,B|228:164|228:164|156:156,2,120,0|0|8,0:0|0:0|0:0,0:0:0:0:
284,300,132865,6,0,L|164:300,1,120
52,192,134329,1,0,0:0:0:0:
116,108,134817,2,0,P|176:56|256:40,1,160
352,72,136280,1,0,0:0:0:0:
428,144,136768,6,0,B|484:208|484:208|484:284,1,160
284,336,138719,2,0,L|164:336,2,120,0|0|8,0:0|0:0|0:0,0:0:0:0:
388,340,140670,6,0,P|420:260|388:196,1,160,4|0,0:0|0:0,0:0:0:0:
312,268,142134,1,0,0:0:0:0:
208,268,142622,1,8,0:0:0:0:
144,184,143109,1,8,0:0:0:0:
208,100,143597,2,0,L|284:64,1,80,8|0,0:0|0:0,0:0:0:0:
384,84,144573,6,0,L|456:136|456:136,1,80,0|0,0:0|0:0,0:0:0:0:
432,232,145548,2,0,L|360:180,1,80,0|0,0:0|0:0,0:0:0:0:
272,148,146524,1,0,0:0:0:0:
168,136,147012,1,0,0:0:0:0:
124,40,147500,2,0,P|68:104|76:184,1,160
100,276,148963,5,0,0:0:0:0:
188,332,149451,1,0,0:0:0:0:
288,300,149939,1,0,0:0:0:0:
376,356,150426,2,0,L|464:380,2,80
376,356,151890,1,0,0:0:0:0:
256,192,152378,12,4,154329,0:0:0:0:
384,88,155304,6,0,L|312:48,1,80
208,48,156280,6,0,P|148:72|112:120,2,120,4|0|0,0:0|0:0|0:0,0:0:0:0:
208,152,158231,1,0,0:0:0:0:
288,288,158963,2,0,L|408:288,1,120
408,184,160182,6,0,L|340:80,1,120
192,44,161646,2,0,L|120:88,1,80
56,164,162622,1,0,0:0:0:0:
84,264,163109,1,0,0:0:0:0:
188,244,163597,1,0,0:0:0:0:
288,220,164085,6,8,B|368:196|368:196|392:116,2,160
200,32,167011,1,0,0:0:0:0:
144,232,167987,6,0,L|252:300,1,120
388,360,169451,2,8,L|444:284,1,80
432,192,170426,1,0,0:0:0:0:
328,164,170914,1,0,0:0:0:0:
228,136,171402,1,0,0:0:0:0:
328,164,171889,6,0,B|288:236|216:236|216:236|168:332,1,240,4|0,0:0|0:0,0:0:0:0:
72,292,173841,1,0,0:0:0:0:
112,196,174329,1,0,0:0:0:0:
156,104,174816,1,0,0:0:0:0:
260,92,175304,1,0,0:0:0:0:
360,84,175792,6,0,P|408:132|424:188,2,120,4|0|0,0:0|0:0|0:0,0:0:0:0:
320,180,177743,2,0,L|220:252,1,120
351,341,179207,5,0,0:0:0:0:
443,293,179694,2,0,B|443:213|443:213|400:136,1,160,4|0,0:0|0:0,0:0:0:0:
336,64,181158,1,0,0:0:0:0:
232,76,181646,2,0,P|168:120|156:168,2,120
252,176,183597,1,4,0:0:0:0:
256,192,191402,12,4,195304,0:0:0:0:
112,80,196036,6,0,B|232:56|288:144,1,200
388,324,198231,1,0,0:0:0:0:
180,312,199207,1,0,0:0:0:0:
100,120,200182,2,0,P|168:64|240:56,1,160
388,96,201890,6,0,P|468:176|468:264,1,200
408,340,203597,1,0,0:0:0:0:
308,312,204085,2,0,L|172:224,1,160
108,124,205548,2,0,P|160:64|240:48,1,160
332,88,207012,6,0,L|436:152,1,120
432,256,208231,1,0,0:0:0:0:
424,360,208719,2,0,L|320:296,1,120
236,240,209939,1,0,0:0:0:0:
332,56,210914,6,0,B|388:120|388:120|388:200,2,160,4|0|0,0:0|0:0|0:0,0:0:0:0:
192,212,213841,1,0,0:0:0:0:
72,44,214817,2,0,L|48:172,1,120
76,316,216280,1,0,0:0:0:0:
180,312,216768,2,0,P|244:256|276:184,2,160,0|0|4,0:0|0:0|0:0,0:0:0:0:
196,104,219695,5,0,0:0:0:0:
404,104,220670,1,0,0:0:0:0:
404,312,221646,1,0,0:0:0:0:
300,312,222134,1,0,0:0:0:0:
196,312,222622,2,0,P|116:296|52:248,1,160
60,148,224085,1,0,0:0:0:0:
140,80,224573,6,0,B|236:80|300:120|340:192,1,240
244,236,226524,2,0,B|283:306|347:346|443:346,1,240
256,192,228475,12,4,230426,0:0:0:0:
