osu file format v12

[General]
AudioFilename: 07 - Happy Shine.mp3
AudioLeadIn: 1996
PreviewTime: 890
Countdown: 0
SampleSet: Soft
StackLeniency: 0.8
Mode: 0
LetterboxInBreaks: 1

[Editor]
DistanceSpacing: 1
BeatDivisor: 4
GridSize: 4

[Metadata]
Title:Happy Shine
TitleUnicode:Happy Shine
Artist:DEPAPEPE
ArtistUnicode:デパペペ
Creator:selova
Version:Smile
Source:
Tags:acoustic guitar
BeatmapID:229392
BeatmapSetID:83011

[Difficulty]
HPDrainRate:3
CircleSize:3
OverallDifficulty:3
ApproachRate:4
SliderMultiplier:1.4
SliderTickRate:2

[Events]
//Background and Video events
0,0,"BG.jpg",0,0
//Break Periods
//Storyboard Layer 0 (Background)
//Storyboard Layer 1 (Fail)
//Storyboard Layer 2 (Pass)
//Storyboard Layer 3 (Foreground)
//Storyboard Sound Samples
//Background Colour Transformations
3,100,184,230,0

[TimingPoints]
890,515.685431886549,4,2,1,70,1,0
17415,540.540540540541,4,2,1,70,1,1
17550,-100,4,2,1,70,0,0
34442,-100,4,2,1,70,0,1
34577,-100,4,2,1,70,0,0
52009,-100,4,2,1,70,0,1
52144,-100,4,2,1,70,0,0
67100,540.540540540541,4,2,1,70,1,0
69290,540.540540540541,4,2,1,70,1,1
69425,-100,4,2,1,70,0,0
84400,540.540540540541,4,2,1,70,1,1
85345,-100,4,2,1,70,0,0

[Colours]
Combo1 : 255,255,166
Combo2 : 0,128,64
Combo3 : 255,255,23
Combo4 : 128,255,191

[HitObjects]
256,328,374,1,2,0:0:0:0:
116,348,890,6,0,L|56:220,1,140,0|2,0:0|0:0,0:0:0:0:
68,80,1921,2,0,P|140:68|188:112,1,140,0|2,0:0|0:0,0:0:0:0:
256,124,2694,1,0,0:0:0:0:
325,109,2952,6,0,P|372:68|444:80,1,140,0|2,0:0|0:0,0:0:0:0:
396,208,3984,2,0,P|392:270|332:312,1,140,0|2,0:0|0:0,0:0:0:0:
200,272,5015,6,0,L|56:280,1,140,0|2,0:0|0:0,0:0:0:0:
24,144,6046,1,0,0:0:0:0:
96,68,6433,2,0,L|208:60,1,105,0|2,0:0|0:0,0:0:0:0:
256,104,7078,6,0,B|240:160|268:200|256:248,2,140,0|2|2,0:0|0:0|0:0,0:0:0:0:
388,56,8625,1,0,0:0:0:0:
476,168,9140,6,0,P|480:224|416:272,1,140,0|2,0:0|0:0,0:0:0:0:
316,368,10172,2,0,P|252:372|212:308,1,140,0|2,0:0|0:0,0:0:0:0:
188,248,10945,1,0,0:0:0:0:
148,192,11203,6,0,P|92:176|8:192,2,140,0|2|0,0:0|0:0|0:0,0:0:0:0:
220,72,12750,1,0,0:0:0:0:
352,120,13266,6,0,P|400:144|488:128,1,140,0|2,0:0|0:0,0:0:0:0:
408,248,14297,2,0,P|360:224|272:240,1,140,0|2,0:0|0:0,0:0:0:0:
184,340,15329,6,0,P|124:320|104:280,1,105,0|2,0:0|0:0,0:0:0:0:
68,224,15973,1,0,0:0:0:0:
36,160,16231,2,0,B|52:100|92:88|92:88|140:100|176:92,1,175
304,136,17415,6,0,P|356:132|396:92,2,105,0|0|8,0:0|0:0|0:0,0:0:0:0:
232,136,18496,2,0,P|191:190|209:259,1,140,0|8,0:0|0:0,3:0:0:0:
76,308,19577,2,0,P|38:177|120:68,1,280,2|0,0:0|0:0,0:0:0:0:
256,88,21198,1,8,0:0:0:0:
356,188,21739,6,0,P|340:254|221:243,1,210,0|8,0:0|0:0,0:0:0:0:
196,108,23090,2,0,L|328:56,1,140,0|8,0:0|0:0,0:0:0:0:
393,69,23901,2,0,P|473:177|436:308,1,280,0|0,0:0|0:0,0:0:0:0:
348,200,25523,1,0,0:0:0:0:
256,308,26063,5,0,0:0:0:0:
164,200,26604,1,2,0:0:0:0:
40,132,27144,2,0,P|68:84|112:64,1,105,0|2,0:0|0:0,0:0:0:0:
180,56,27820,1,0,0:0:0:0:
248,48,28090,6,0,L|424:48,1,175
468,180,29306,1,0,0:0:0:0:
376,284,29847,1,2,0:0:0:0:
316,160,30387,6,0,L|176:176,1,140,0|8,0:0|0:0,0:0:0:0:
136,308,31469,2,0,P|76:300|56:260,1,105,0|8,0:0|0:0,0:0:0:0:
40,160,32279,1,8,0:0:0:0:
68,96,32550,6,0,P|104:68|196:52,1,140
220,188,33631,2,0,P|304:168|344:128,1,140
392,84,34442,5,8,0:0:0:0:
452,208,34982,2,0,P|460:276|424:344,2,140,0|2|0,0:0|0:0|0:0,0:0:0:0:
312,216,36604,5,8,0:0:0:0:
184,160,37144,2,0,P|176:92|216:32,2,140,0|2|0,0:0|0:0|0:0,0:0:0:0:
324,160,38766,1,8,0:0:0:0:
208,240,39306,6,0,P|412:324|488:184,1,420,0|8,0:0|0:0,0:0:0:0:
452,48,41469,2,0,B|376:56|344:172|344:172|260:84|188:112,1,350
96,100,43192,6,0,P|98:145|142:188,1,105,8|0,0:0|0:0,0:0:0:0:
204,204,43867,1,0,0:0:0:0:
168,340,44408,2,0,P|275:340|308:324,1,140,2|0,0:0|0:0,0:0:0:0:
392,276,45354,6,0,P|434:229|433:188,1,105,8|0,0:0|0:0,0:0:0:0:
412,124,46030,1,0,0:0:0:0:
292,52,46570,2,0,L|152:60,1,140,2|0,0:0|0:0,0:0:0:0:
72,128,47516,6,0,P|104:203|191:218,1,175,2|0,0:0|0:0,0:0:0:0:
336,184,48766,2,0,P|380:208|380:264,2,105,2|0|8,0:0|0:0|0:0,0:0:0:0:
268,168,49847,2,0,P|208:128|204:64,2,140,0|2|0,0:0|0:0|0:0,0:0:0:0:
332,44,51469,1,0,0:0:0:0:
436,136,52009,6,0,P|468:188|464:232,1,105
452,300,52685,1,2,0:0:0:0:
392,268,52955,2,0,L|212:268,1,175
76,248,54171,6,0,P|44:196|48:152,1,105
60,84,54847,1,2,0:0:0:0:
120,116,55117,2,0,L|300:116,1,175
432,92,56333,6,0,P|423:159|377:212,1,140
244,252,57415,2,0,P|196:232|160:188,2,105,0|0|2,0:0|0:0|0:0,0:0:0:0:
304,288,58496,6,0,L|408:288,2,105,0|0|2,0:0|0:0|0:0,0:0:0:0:
256,340,59577,2,0,L|112:340,1,140
44,220,60658,6,0,P|16:164|32:124,1,105
76,76,61333,1,2,0:0:0:0:
140,52,61604,2,0,B|192:28|264:68|312:44,1,175
440,104,62820,6,0,P|468:160|452:200,1,105
408,248,63496,1,2,0:0:0:0:
344,272,63766,2,0,B|292:296|220:256|172:280,1,175
52,204,64982,5,0,0:0:0:0:
120,80,65523,1,0,0:0:0:0:
256,112,66063,2,0,L|368:112,2,105,0|0|2,0:0|0:0|0:0,0:0:0:0:
200,144,67100,6,0,P|184:196|348:276,1,280
352,140,68721,1,8,0:0:0:0:
256,28,69290,6,0,P|252:69|284:121,1,105
352,140,69965,1,2,0:0:0:0:
420,156,70235,2,0,P|500:205|496:292,1,175,0|8,0:0|0:0,0:0:0:0:
380,348,71452,6,0,P|376:306|408:254,1,105
356,212,72127,1,2,0:0:0:0:
356,212,72398,2,0,L|181:212,1,175
44,188,73614,6,0,P|92:128|156:112,1,140
280,164,74695,2,0,P|328:144|364:100,2,105,0|0|2,0:0|0:0|0:0,0:0:0:0:
212,184,75776,6,0,P|156:192|120:232,2,105,0|0|2,0:0|0:0|0:0,0:0:0:0:
264,232,76857,2,0,P|292:288|368:312,1,140,0|0,0:0|0:0,0:0:0:0:
428,292,77668,1,0,0:0:0:0:
484,252,77938,6,0,P|497:215|469:159,1,105
424,104,78614,1,2,0:0:0:0:
360,80,78884,2,0,B|308:56|236:96|188:72,1,175
60,132,80100,6,0,P|32:188|48:228,1,105
92,276,80776,1,2,0:0:0:0:
156,300,81046,2,0,B|208:324|280:284|328:308,1,175
448,232,82262,5,0,0:0:0:0:
380,108,82803,1,0,0:0:0:0:
244,140,83344,2,0,L|132:140,2,105,0|0|2,0:0|0:0|0:0,0:0:0:0:
304,160,84400,6,0,P|332:196|320:252,1,105,2|2,0:0|0:0,0:0:0:0:
272,300,85075,2,0,L|200:328,1,70,2|2,0:0|0:0,0:0:0:0:
