osu file format v12

[General]
AudioFilename: 07 - Happy Shine.mp3
AudioLeadIn: 1996
PreviewTime: 890
Countdown: 0
SampleSet: Soft
StackLeniency: 0.8
Mode: 0
LetterboxInBreaks: 1

[Editor]
DistanceSpacing: 1
BeatDivisor: 16
GridSize: 4

[Metadata]
Title:Happy Shine
TitleUnicode:Happy Shine
Artist:DEPAPEPE
ArtistUnicode:デパペペ
Creator:selova
Version:Grin
Source:
Tags:acoustic guitar
BeatmapID:229390
BeatmapSetID:83011

[Difficulty]
HPDrainRate:5
CircleSize:4
OverallDifficulty:5
ApproachRate:7
SliderMultiplier:1.7
SliderTickRate:1

[Events]
//Background and Video events
0,0,"BG.jpg",0,0
//Break Periods
//Storyboard Layer 0 (Background)
//Storyboard Layer 1 (Fail)
//Storyboard Layer 2 (Pass)
//Storyboard Layer 3 (Foreground)
//Storyboard Sound Samples
//Background Colour Transformations
3,100,184,230,0

[TimingPoints]
890,515.685431886549,4,2,1,70,1,0
17415,540.540540540541,4,2,1,70,1,1
17550,-100,4,2,1,70,0,0
34442,-100,4,2,1,70,0,1
34577,-100,4,2,1,70,0,0
52009,-100,4,2,1,70,0,1
52144,-100,4,2,1,70,0,0
67100,540.540540540541,4,2,1,70,1,0
69290,540.540540540541,4,2,1,70,1,1
69425,-100,4,2,1,70,0,0
84400,540.540540540541,4,2,1,70,1,1
85345,-100,4,2,1,70,0,0

[Colours]
Combo1 : 255,255,166
Combo2 : 0,128,64
Combo3 : 255,255,23
Combo4 : 128,255,191

[HitObjects]
256,328,374,1,2,0:0:0:0:
100,260,890,6,0,P|160:200|156:156,1,127.5,0|2,0:0|0:0,0:0:0:0:
76,176,1534,1,0,0:0:0:0:
96,96,1792,2,0,P|188:80|244:136,1,170,0|2,0:0|0:0,0:0:0:0:
252,168,2437,2,0,P|288:200|328:196,1,85
408,192,2952,6,0,P|448:156|448:128,1,85
444,84,3339,2,0,P|412:36|384:32,1,85,2|0,0:0|0:0,0:0:0:0:
364,112,3855,2,0,P|324:132|304:208,1,127.5
312,292,4499,1,0,0:0:0:0:
256,356,4757,1,2,0:0:0:0:
200,292,5015,5,0,0:0:0:0:
120,324,5273,1,0,0:0:0:0:
120,324,5402,2,0,P|76:300|60:264,1,85
48,184,5917,2,0,L|100:116,1,85
92,32,6433,2,0,P|156:40|184:96,1,127.5,0|2,0:0|0:0,0:0:0:0:
204,176,7078,6,0,P|225:212|268:222,1,85,0|2,0:0|0:0,0:0:0:0:
308,220,7464,2,0,P|348:207|368:168,1,85,0|2,0:0|0:0,0:0:0:0:
328,96,7980,1,0,0:0:0:0:
368,82,8109,2,0,P|441:114|458:153,1,116.875,0|2,0:0|0:0,0:0:0:0:
472,228,8721,2,0,L|512:208,2,42.5
456,268,9108,6,0,P|408:308|375:305,1,95.625,0|2,0:0|0:0,0:0:0:0:
340,288,9527,1,0,0:0:0:0:
256,304,9785,1,0,0:0:0:0:
172,288,10043,2,0,B|148:274|146:239|146:239|159:205|147:170,1,127.5
64,172,10688,2,0,P|69:129|104:96,1,85,2|0,0:0|0:0,0:0:0:0:
180,88,11203,5,0,0:0:0:0:
256,128,11461,1,0,0:0:0:0:
256,172,11590,2,0,L|256:256,1,85,2|0,0:0|0:0,0:0:0:0:
340,288,12106,2,0,B|363:274|365:239|365:239|352:205|364:170,1,127.5
448,172,12750,2,0,P|442:129|408:96,1,85,0|2,0:0|0:0,0:0:0:0:
332,88,13266,5,0,0:0:0:0:
256,124,13524,1,0,0:0:0:0:
256,124,13653,1,2,0:0:0:0:
180,88,13911,1,0,0:0:0:0:
96,99,14168,2,0,P|69:129|64:172,2,85
180,196,15071,1,2,0:0:0:0:
256,232,15329,6,2,L|256:284,3,42.5
328,316,15973,1,0,0:0:0:0:
400,272,16231,2,0,P|456:224|456:172,1,127.5,0|8,0:0|0:0,0:0:0:0:
404,108,16876,1,0,0:0:0:0:
332,60,17134,1,8,0:0:0:0:
256,108,17415,6,0,L|256:192,1,85,0|8,0:0|0:0,0:0:0:0:
256,236,17820,1,0,0:0:0:0:
180,272,18090,2,0,P|209:321|237:326,1,85,0|0,0:0|0:0,3:0:0:0:
278,326,18496,2,0,P|301:320|330:271,1,74.375,0|8,0:0|0:0,3:0:0:0:
348,232,18901,2,0,P|360:184|396:164,1,85
456,112,19442,1,0,0:0:0:0:
456,112,19577,6,0,P|432:64|364:48,2,127.5,0|0|8,0:0|0:0|0:0,0:0:0:0:
288,88,20928,1,0,0:0:0:0:
240,84,21198,1,0,0:0:0:0:
192,72,21469,1,8,0:0:0:0:
147,48,21739,6,0,P|79:64|56:112,1,127.5
52,196,22414,1,8,0:0:0:0:
52,196,22685,2,0,P|96:216|136:208,1,85
144,296,23225,1,0,0:0:0:0:
144,296,23360,2,0,P|192:294|224:269,1,85,0|8,0:0|0:0,0:0:0:0:
256,196,23901,6,0,L|256:64,2,127.5,0|0|8,0:0|0:0|0:0,0:0:0:0:
380,316,25252,1,0,0:0:0:0:
412,280,25523,1,0,0:0:0:0:
440,240,25793,1,8,0:0:0:0:
464,196,26063,6,0,P|464:172|392:108,1,127.5,0|2,0:0|0:0,0:0:0:0:
316,148,26739,1,0,0:0:0:0:
232,164,27009,1,0,0:0:0:0:
232,164,27144,2,0,P|160:144|144:100,1,127.5,0|2,0:0|0:0,0:0:0:0:
228,88,27820,1,2,0:0:0:0:
304,48,28090,6,0,P|384:48|432:160,1,212.5
348,172,29036,2,0,P|349:200|389:236,1,85
472,252,29577,2,0,P|464:281|420:309,2,85,2|0|0,0:0|0:0|0:0,0:0:0:0:
476,168,30387,5,0,0:0:0:0:
432,96,30658,1,8,0:0:0:0:
432,96,30793,1,2,0:0:0:0:
352,64,31063,1,0,0:0:0:0:
268,44,31333,2,0,P|216:52|196:80,2,85
264,128,32144,2,0,L|288:168,1,42.5,8|8,0:0|0:0,0:0:0:0:
292,208,32414,6,0,P|240:264|152:264,1,170
88,104,33496,2,0,P|70:178|119:251,1,159.375
172,368,34442,5,8,0:0:0:0:
172,368,34577,1,8,0:0:0:0:
256,272,34982,2,0,L|344:264,1,85,0|0,0:0|0:0,0:0:0:0:
424,256,35523,1,8,0:0:0:0:
472,92,36063,1,8,0:0:0:0:
308,44,36604,5,8,0:0:0:0:
308,44,36739,1,8,0:0:0:0:
184,76,37144,2,0,L|100:92,1,85,0|0,0:0|0:0,0:0:0:0:
56,164,37685,1,8,0:0:0:0:
132,316,38225,1,8,0:0:0:0:
216,320,38496,2,0,L|304:296,1,85,0|8,0:0|0:0,0:0:0:0:
336,284,38901,6,0,P|387:252|400:184,1,127.5,0|2,0:0|0:0,0:0:0:0:
480,152,39577,2,0,P|456:100|384:96,1,127.5,0|2,0:0|0:0,0:0:0:0:
264,112,40387,2,0,P|196:108|164:56,2,127.5,0|0|2,0:0|0:0|0:0,0:0:0:0:
392,96,41604,1,2,0:0:0:0:
416,220,42009,2,0,P|400:272|328:292,1,127.5,0|2,0:0|0:0,0:0:0:0:
216,344,42820,2,0,P|164:344|132:324,1,85,0|8,0:0|0:0,0:0:0:0:
120,300,43192,6,0,L|96:216,1,85
84,176,43598,1,0,0:0:0:0:
112,96,43867,1,0,0:0:0:0:
184,48,44137,2,0,P|256:12|332:48,1,170,8|0,0:0|0:0,0:0:0:0:
332,48,44948,1,0,0:0:0:0:
400,100,45218,5,8,0:0:0:0:
400,100,45353,2,0,P|432:148|420:176,1,85
408,208,45759,2,0,P|380:236|336:240,1,85
256,212,46300,2,0,P|200:208|176:228,1,85,8|0,0:0|0:0,0:0:0:0:
124,292,46841,1,0,0:0:0:0:
64,232,47110,2,0,P|48:196|64:152,1,85,0|8,0:0|0:0,0:0:0:0:
84,116,47516,6,0,L|136:44,1,85
160,16,47921,1,2,0:0:0:0:
244,32,48192,2,0,P|280:64|284:108,1,85
272,148,48631,2,0,L|256:192,2,42.5,0|0|2,0:0|0:0|0:0,0:0:0:0:
352,180,49171,1,2,0:0:0:0:
436,164,49442,1,2,0:0:0:0:
488,232,49712,6,0,P|466:289|444:302,1,85
404,296,50117,1,2,0:0:0:0:
332,340,50387,2,0,L|284:340,3,42.5,0|0|2|0,0:0|0:0|0:0|0:0,0:0:0:0:
256,312,50928,2,0,L|164:312,1,85,0|2,0:0|0:0,0:0:0:0:
116,380,51469,1,0,0:0:0:0:
40,228,52009,6,0,P|40:152|84:124,1,127.5,0|2,0:0|0:0,0:0:0:0:
120,200,52685,1,0,0:0:0:0:
160,276,52955,2,0,P|197:249|197:173,1,127.5,0|2,0:0|0:0,0:0:0:0:
148,104,53631,2,0,P|180:68|220:56,1,85
298,56,54171,6,0,P|332:68|364:104,1,85
384,144,54577,2,0,P|400:176|448:196,1,85,2|0,0:0|0:0,0:0:0:0:
476,276,55117,2,0,P|464:324|392:352,1,127.5
360,276,55793,2,0,P|336:240|296:228,1,85,0|2,0:0|0:0,0:0:0:0:
214,228,56333,6,0,P|176:240|152:276,1,85
152,276,56739,1,2,0:0:0:0:
100,344,57009,1,2,0:0:0:0:
40,284,57279,2,0,L|4:200,2,85
120,184,58225,1,2,0:0:0:0:
180,124,58496,5,0,0:0:0:0:
256,164,58766,1,2,0:0:0:0:
256,164,58901,1,2,0:0:0:0:
332,124,59171,1,0,0:0:0:0:
392,184,59442,2,0,L|440:256,1,85
460,292,59847,1,2,0:0:0:0:
384,332,60117,1,0,0:0:0:0:
384,332,60252,2,0,L|300:332,1,85,2|0,0:0|0:0,0:0:0:0:
256,332,60658,6,0,B|184:332|156:268,1,127.5,0|2,0:0|0:0,0:0:0:0:
76,296,61333,1,0,0:0:0:0:
12,240,61604,2,0,B|52:184|124:192,1,127.5,0|2,0:0|0:0,0:0:0:0:
208,200,62279,1,0,0:0:0:0:
256,128,62550,1,0,0:0:0:0:
304,200,62820,6,0,L|396:200,1,85,0|2,0:0|0:0,0:0:0:0:
432,200,63225,1,2,0:0:0:0:
472,124,63496,1,0,0:0:0:0:
432,48,63766,2,0,L|304:48,1,127.5
220,48,64442,2,0,P|172:48|144:72,1,85,0|2,0:0|0:0,0:0:0:0:
60,64,64982,6,0,P|32:96|40:136,1,85
60,172,65387,2,0,P|84:200|132:200,1,85,2|0,0:0|0:0,0:0:0:0:
104,284,65928,2,0,P|144:288|180:260,1,85
208,340,66469,2,0,P|259:307|263:246,1,116.875,0|2,0:0|0:0,0:0:0:0:
264,168,67100,6,2,L|264:124,3,42.5,0|0|0|2,0:0|0:0|0:0|0:0,0:0:0:0:
192,80,67775,1,0,0:0:0:0:
136,144,68045,2,0,P|144:188|176:212,1,85,0|0,0:0|0:0,3:0:0:0:
216,220,68450,1,2,0:0:0:0:
296,184,68721,2,0,L|388:184,1,85
472,156,69290,6,0,P|472:232|428:260,1,127.5,0|2,0:0|0:0,0:0:0:0:
392,184,69965,1,0,0:0:0:0:
352,108,70235,2,0,P|315:135|315:211,1,127.5,0|2,0:0|0:0,0:0:0:0:
364,280,70911,2,0,P|332:316|292:328,1,85
214,328,71452,6,0,P|180:316|148:280,1,85
132,240,71857,2,0,P|116:208|68:188,1,85,2|0,0:0|0:0,0:0:0:0:
36,108,72398,2,0,P|48:60|120:32,1,127.5
152,108,73073,2,0,P|176:144|216:156,1,85,0|2,0:0|0:0,0:0:0:0:
298,156,73614,6,0,P|336:144|360:108,1,85,0|2,0:0|0:0,0:0:0:0:
360,108,74019,1,2,0:0:0:0:
412,40,74290,1,2,0:0:0:0:
472,100,74560,2,0,L|508:184,2,85
392,200,75506,1,2,0:0:0:0:
332,260,75776,5,0,0:0:0:0:
256,220,76046,1,2,0:0:0:0:
256,220,76181,1,2,0:0:0:0:
180,260,76452,1,0,0:0:0:0:
120,200,76722,2,0,L|72:128,1,85,0|2,0:0|0:0,0:0:0:0:
52,92,77127,2,2,L|28:52,6,42.5
136,72,78208,5,0,0:0:0:0:
180,72,78344,2,0,L|264:72,1,85,0|2,0:0|0:0,0:0:0:0:
348,76,78884,2,0,P|396:92|428:164,1,127.5,0|2,0:0|0:0,0:0:0:0:
344,160,79560,1,0,0:0:0:0:
344,160,79830,1,2,0:0:0:0:
292,228,80100,6,0,L|272:312,1,85
272,311,80506,1,2,0:0:0:0:
200,356,80776,1,0,0:0:0:0:
144,292,81046,2,0,L|180:160,1,127.5
116,112,81722,2,0,P|141:72|180:52,1,85,0|2,0:0|0:0,0:0:0:0:
256,76,82262,6,0,P|306:65|340:40,1,85,0|2,0:0|0:0,0:0:0:0:
376,40,82668,2,0,B|428:44|436:92,1,85,2|0,0:0|0:0,0:0:0:0:
360,124,83208,2,0,B|367:170|419:174,2,85
284,164,84019,1,2,0:0:0:0:
284,164,84154,1,2,0:0:0:0:
212,192,84400,6,2,L|160:192,3,42.5
96,232,85075,2,2,P|148:272|172:272,1,85
