osu file format v9

[General]
AudioFilename: 101 Eternal Tomorrow (Tales of Hearts Version).mp3
AudioLeadIn: 1500
PreviewTime: 41875
Countdown: 0
SampleSet: Soft
StackLeniency: 0.7
Mode: 0
LetterboxInBreaks: 0

[Editor]
DistanceSpacing: 0.8
BeatDivisor: 4
GridSize: 8

[Metadata]
Title:Eien no Ashita
Artist:DEEN
Creator:blissfulyoshi
Version:Normal
Source:Tales of Hearts
Tags:ToH Yunacat Eternal Tomorrow

[Difficulty]
HPDrainRate:4
CircleSize:3
OverallDifficulty:3
ApproachRate:5
SliderMultiplier:2.1
SliderTickRate:2

[Events]
//Background and Video events
0,0,"tohrelease_a_1024.jpg"
//Break Periods
//Storyboard Layer 0 (Background)
//Storyboard Layer 1 (Fail)
//Storyboard Layer 2 (Pass)
//Storyboard Layer 3 (Foreground)
//Storyboard Sound Samples
//Background Colour Transformations
3,100,163,162,255

[TimingPoints]
564,491.803278688525,4,2,1,50,1,0
15072,-100,4,2,1,55,0,0
15564,-100,4,1,1,40,0,0
16178,-100,4,1,1,30,0,0
16424,-100,4,2,1,65,0,0
31055,-100,4,1,1,30,0,0
32162,-100,4,2,1,30,0,0
36219,-100,4,2,1,40,0,0
36711,-100,4,2,1,50,0,0
37203,-100,4,2,1,60,0,0
41875,-100,4,2,0,70,0,1
49252,-100,4,2,0,50,0,0
57613,-100,4,2,0,70,0,1
64990,-100,4,2,0,50,0,0
110727,-100,4,2,0,40,0,0
114662,-100,4,2,0,30,0,0

[Colours]
Combo1 : 248,255,113
Combo2 : 96,255,104
Combo3 : 32,32,255
Combo4 : 255,21,91
SliderBorder : 30,78,78

[HitObjects]
108,197,564,1,4
212,69,1055,1,2
300,69,1301,1,0
400,200,1793,1,0
256,288,2285,1,2
192,344,2531,2,0,B|64:328|16:192,1,210,2|0
96,168,3268,1,0
152,104,3514,2,0,B|280:120|328:256,1,210,8|0
272,64,4498,6,0,B|331:102|369:161,1,105,2|0
392,208,4990,1,2
360,288,5236,2,0,B|304:336|232:320,1,105,2|8
280,240,5727,2,0,B|200:256|144:208,1,105,0|0
104,192,6219,1,2
168,144,6465,2,0,B|120:88|48:104|16:144|16:208|37:231,1,210,2|0
72,272,7203,1,0
144,320,7449,1,8
376,120,8186,2,0,B|456:120,2,52.5,2|2|6
256,272,8924,5,2
176,272,9170,2,0,B|48:272|48:272|-16:200,1,210,2|0
256,48,10400,6,0,B|384:48|384:48|448:120,1,210,2|0
360,144,11137,2,0,B|448:240|448:240|448:352,1,210,2|0
192,328,12367,6,0,B|72:248|200:216|48:144,1,210,2|0
56,240,13104,2,0,B|8:208|-24:168|0:88|64:72|112:88,1,210,2|0
256,256,14334,5,2
400,336,14826,1,0
432,256,15072,1,2
400,176,15318,1,2
392,96,15564,5,0
312,72,15809,1,0
240,24,16055,1,0
168,72,16301,6,0,B|56:72,1,105,4|0
32,152,16793,1,10
120,152,17039,2,0,B|192:248,1,105,2|0
312,344,17777,6,0,B|456:352|472:192,1,210,8|2
336,120,18760,1,10
192,40,19252,1,2
40,120,19744,2,0,B|40:264|128:168|120:352,1,210,10|2
120,136,20727,6,0,B|112:160|135:155|179:190|183:240,1,105,8|0
200,296,21219,2,0,B|256:272|264:224|256:192,1,105,2|0
224,136,21711,1,10
304,120,21957,2,0,B|360:192|352:280|272:348,1,210,2|0
384,344,22695,1,10
416,264,22941,2,0,B|432:176|456:120|512:72,1,210,2|0
344,40,23924,5,2
264,72,24170,2,0,B|136:128,1,105,2|0
224,176,24662,1,10
152,216,24908,2,0,B|48:112,1,105,2|0
80,312,25645,5,10
168,312,25891,2,0,B|304:296|344:176,1,210,2|0
416,224,26629,2,0,B|448:152|432:80,1,105,10|0
352,120,27121,2,0,B|344:40|256:24,1,105,2|0
267,115,27613,1,10
267,115,27859,2,0,B|163:179,1,105,0|2
72,344,28596,6,0,B|136:384|200:320,1,105,10|0
224,272,29088,2,0,B|160:232|96:296,1,105,2|0
72,344,29580,2,0,B|28:298|20:245|47:186|121:164|166:164|219:171|251:197,1,315,10|0
296,224,30564,1,2
352,160,30809,1,2
200,96,31301,5,0
272,56,31547,1,0
352,48,31793,1,0
432,72,32039,2,0,B|488:120|480:192,1,105,4|0
472,248,32531,1,2
416,312,32777,2,0,B|368:360|296:352,1,105,2|0
256,112,33760,5,2
192,168,34006,2,0,B|88:168,1,105,2|0
104,248,34498,1,2
192,248,34744,2,0,B|251:304|326:343|408:296,1,210,2|0
496,40,35727,5,2
416,56,35973,2,0,B|360:192,1,105,2|0
312,96,36465,2,0,B|256:232,1,105,2|0
208,136,36957,2,0,B|152:272,1,105,2|0
104,176,37449,2,0,B|48:312,1,105,2|0
128,344,37941,6,0,B|256:360|344:264,1,210,6|0
344,368,38678,1,2
403,308,38924,2,0,B|411:275|404:247|391:216|371:206|333:201|316:206|312:170|326:131|359:128,1,210,2|2
328,56,39662,1,2
264,104,39908,2,0,B|208:3|127:79|127:79|88:-8|-24:8|-48:39|-57:94|-48:214|98:324|80:352|61:333|162:297|245:159,1,840,6|6
264,288,42244,5,2
360,208,42613,1,2
344,128,42859,2,0,B|379:123|400:128|424:144|440:168|448:200|444:227|440:240|424:256,2,157.5,10|2|0
264,144,43842,2,0,B|192:168|136:104,1,105,10|0
88,160,44334,1,2
104,240,44580,2,0,B|152:200|234:222|264:248|256:288|261:353,1,210,4|0
336,344,45318,5,2
408,296,45564,1,2
432,216,45809,1,10
408,136,46055,1,2
336,88,46301,1,2
252,88,46547,2,0,B|220:88|220:88|208:80|208:80|208:96|208:96|196:88|196:88|124:88,1,105,2|8
120,160,47039,1,2
32,304,47531,5,2
112,336,47777,2,0,B|216:384|200:272|336:352,1,210,10|0
392,360,48514,2,0,B|376:224|480:240|504:184|496:96|408:64,1,315,10|2
272,64,49744,6,0,B|272:176,1,105,6|2
208,224,50236,1,8
120,224,50482,1,2
56,64,50973,2,0,B|56:200,1,105,2|8
120,224,51465,2,0,B|120:272|144:296|176:312,1,105,2|2
344,328,52203,2,0,B|368:248|464:232|464:232|472:144|440:64|296:72,1,420,2|2
32,296,53678,6,0,B|48:216|80:120|144:96|240:72,1,315,4|0
312,72,54662,2,0,B|384:160|352:256,1,157.5,2|0
336,344,55400,1,0
256,336,55645,1,4
136,216,56137,1,2
56,232,56383,2,0,B|64:168|40:104|-16:72|-40:136|-24:192|32:184|128:96,1,315,4|0
272,32,57613,6,0,B|360:56|392:152,1,157.5,6|2
464,232,58350,1,2
376,232,58596,2,0,B|288:208|256:112,1,157.5,6|0
256,256,59334,1,2
208,192,59580,2,0,B|160:232|173:297|208:320,1,105,6|0
120,344,60072,2,0,B|79:247|102:194|136:149|170:123,1,210,2|4
288,56,61055,5,2
368,80,61301,1,2
304,136,61547,1,6
384,160,61793,1,2
320,216,62039,1,2
240,200,62285,2,0,B|184:200|144:264,1,105,2|4
144,336,62777,2,0,B|200:336|240:272,1,105,2|0
240,200,63268,5,2
240,112,63514,2,0,B|224:96|224:96|240:80|240:80|224:64|224:64|240:48|240:48|240:24|240:24,1,105,6|0
320,56,64006,1,2
392,104,64252,2,0,B|480:192|432:344,1,210,6|0
192,288,65482,6,0,B|160:200|73:173,1,157.5,6|2
216,168,66219,1,0
280,224,66465,2,0,B|312:136|398:109,1,157.5,6|0
384,240,67203,1,2
328,304,67449,1,4
248,336,67695,1,2
168,304,67941,1,2
112,240,68186,2,0,B|96:144|56:56|8:80|0:144|8:184|32:184|112:88|208:16|368:168,1,525,2|6
88,336,70645,5,0
128,264,70891,1,2
256,152,71383,1,4
384,264,71875,1,2
424,336,72121,2,0,B|472:304|480:256|464:216|437:183|392:176|360:184,1,210,0|2
272,304,73104,5,0
192,280,73350,2,0,B|120:264|96:184,1,105,4|0
192,192,73842,1,2
192,280,74088,2,0,B|176:360|48:360|32:264,1,210,4|0
32,192,74826,1,2
111,220,75072,2,0,B|96:144|128:112|168:88|240:80|280:128|296:184|264:248,1,315,2|2
192,192,76055,1,4
464,56,76793,5,2
384,80,77039,1,2
328,144,77285,2,0,B|320:184|248:184|248:136,1,105,10|2
176,192,77777,1,2
240,248,78023,2,0,B|288:272|360:256|400:216|411:160,1,210,10|0
328,144,78760,1,2
264,88,79006,1,2
184,64,79252,2,0,B|120:40|48:48,1,105,10|0
48,208,79990,5,2
128,232,80236,2,0,B|224:224|256:304|256:304|304:208|400:240,1,315,10|2
464,208,81219,6,0,B|496:128|472:48,3,140,10|2|2|4
48,176,83186,6,2,B|16:256|40:336,3,140,10|2|2|4
160,328,84539,6,0,B|216:280|240:312|288:352|336:256,1,157.5
352,224,85154,2,0,B|416:184|392:104,1,105,10|0
312,144,85645,1,2
344,64,85891,2,0,B|300:51|272:56|240:80|224:112|208:144|232:192|264:224,1,210,10|8
280,264,86629,2,0,B|224:288|176:272|144:224|152:176,1,157.5,2|0
152,128,87244,1,2
424,248,88104,2,0,B|416:216|344:200|360:120|392:88|441:149|441:149|496:64|544:152|512:200|472:216|440:264,1,420,2|4
320,320,89580,5,2
232,320,89826,2,0,B|152:320|136:256,1,105,2|8
216,232,90318,1,2
328,104,90809,1,2
392,160,91055,2,0,B|336:208|280:192|238:155|240:104|256:72,1,210,10|0
176,48,91793,1,2
152,128,92039,2,0,B|96:80|40:96|-1:132|0:184|16:216,1,210,10|0
240,304,93023,6,0,B|280:192|224:56,1,210,10|2
320,80,93760,2,0,B|352:136|440:104,1,105,2|8
424,192,94252,2,0,B|352:196|335:256,1,105,2|0
416,280,94744,1,2
496,272,94990,2,0,B|496:344|447:372|400:376|352:352|328:288,1,210,10|0
272,288,95727,1,0
200,328,95973,2,0,B|48:280|64:144,1,210,8|0
64,104,96711,2,0,B|64:32,2,52.5,2|0|6
448,192,97941,5,2
320,192,98186,1,2
256,80,98432,1,2
192,192,98678,1,2
64,192,98923,1,2
256,360,99662,5,2
256,360,99908,1,2
136,80,100891,6,0,B|192:160|248:152,1,105,6|0
368,72,101383,2,0,B|288:128|296:184,1,105,8|0
376,304,101875,2,0,B|320:224|264:232,1,105,2|0
144,312,102367,2,2,B|224:256|216:200,1,105,8|0
136,80,102859,2,0,B|136:200|56:144|72:312,1,210,4|8
376,304,103842,2,0,B|376:184|456:240|440:72,1,210,2|8
296,248,104826,6,0,B|304:209|319:188|335:170|370:148|352:109,3,140,4|2|2|4
216,136,106793,6,0,B|208:175|193:196|177:214|142:236|160:275,3,140,4|2|2|4
256,48,108760,5,4
256,192,109744,12,0,117613
