osu file format v12

[General]
AudioFilename: lightlug.mp3
AudioLeadIn: 0
PreviewTime: 67238
Countdown: 0
SampleSet: Soft
StackLeniency: 0.7
Mode: 0
LetterboxInBreaks: 0
WidescreenStoryboard: 0

[Editor]
Bookmarks: 135247
DistanceSpacing: 0.3
BeatDivisor: 4
GridSize: 8

[Metadata]
Title:Light Lag
TitleUnicode:ライトラグ
Artist:DECO*27 feat. topi
ArtistUnicode:DECO*27 feat. とぴ
Creator:happy30
Version:Insane
Source:
Tags:Apriy Sharp Takahide Azuchi Seiya Nagatomo Takeshi Kajiyama
BeatmapID:329301
BeatmapSetID:130583

[Difficulty]
HPDrainRate:7
CircleSize:4
OverallDifficulty:7
ApproachRate:8
SliderMultiplier:1.8
SliderTickRate:1

[Events]
//Background and Video events
0,0,"apriy-happy.jpg",0,0
//Break Periods
2,44271,53321
2,94938,97988
2,135238,145321
2,189604,192488
//Storyboard Layer 0 (Background)
//Storyboard Layer 1 (Fail)
//Storyboard Layer 2 (Pass)
//Storyboard Layer 3 (Foreground)
//Storyboard Sound Samples
//Background Colour Transformations
3,100,163,162,255

[TimingPoints]
1405,333.333333333333,4,2,1,80,1,0
53988,-100,4,2,1,60,0,0
54321,-100,4,2,1,80,0,0
68071,-100,4,2,0,80,0,1
89404,-100,4,2,0,80,0,0
91404,-100,4,2,0,5,0,0
91738,-100,4,2,0,80,0,0
94738,-100,4,2,0,80,0,0
100071,-100,4,2,0,70,0,0
133154,-100,4,2,0,5,0,0
146071,-100,4,2,0,55,0,0
157404,-100,4,2,0,70,0,0
159904,-100,4,2,0,80,0,0
162738,-100,4,2,0,80,0,1
184071,-100,4,2,0,80,0,0
186071,-100,4,2,0,5,0,0
186404,-100,4,2,0,80,0,0
189404,-100,4,2,0,80,0,0
205321,-100,4,2,0,5,0,0

[Colours]
Combo1 : 199,98,242
Combo2 : 169,255,128
Combo3 : 255,128,249
Combo4 : 254,238,129
Combo5 : 255,150,64
Combo6 : 74,165,255

[HitObjects]
212,120,21404,2,0,B|164:200,2,90,2|0|0,3:0|0:0|0:0,0:0:0:0:
300,120,21904,2,0,B|348:200,2,90,2|0|0,3:0|3:0|2:0,0:0:0:0:
256,40,22404,1,2,1:2:0:0:
256,132,22571,1,0,0:0:0:0:
256,224,22738,6,0,B|176:256|80:224,1,180,4|0,1:0|3:0,0:0:0:0:
32,144,23238,2,0,B|128:144,1,90,0|2,0:0|0:0,0:0:0:0:
232,72,23571,2,0,B|144:72,1,90,0|0,0:0|3:0,0:0:0:0:
300,120,23904,2,0,B|380:88|476:120,1,180
476,120,24404,1,0,3:0:0:0:
408,288,24738,6,0,B|328:320|232:288,1,180,2|0,0:0|3:0,0:0:0:0:
231,287,25154,1,0,0:0:0:0:
231,287,25238,1,2,3:0:0:0:
176,216,25404,2,0,B|48:352,1,180,0|0,0:0|3:0,0:0:0:0:
32,256,25904,2,0,B|160:120,1,180
208,64,26404,1,0,3:0:0:0:
384,100,26738,5,0,0:0:0:0:
216,168,27071,1,0,3:0:0:0:
312,16,27404,1,2,0:0:0:0:
340,196,27738,5,0,3:0:0:0:
424,160,27904,1,2,0:3:0:0:
424,160,27988,1,0,3:0:0:0:
424,160,28071,2,0,B|464:248|424:336,1,180,0|0,0:3|3:0,0:0:0:0:
344,296,28571,2,0,B|272:240,1,90,0|2,0:0|0:0,0:0:0:0:
136,224,28904,2,0,B|208:280,2,90,0|0|0,0:0|3:0|0:0,0:0:0:0:
72,160,29404,1,0,0:0:0:0:
72,160,29738,1,0,3:0:0:0:
216,56,30071,6,0,B|296:96|392:56,2,180,2|0|0,0:0|3:0|0:0,0:0:0:0:
376,144,31071,1,0,3:0:0:0:
448,192,31238,2,0,B|488:280|448:368,1,180
280,312,31738,2,0,B|240:224|280:136,2,180,0|0|0,3:0|0:0|3:0,0:0:0:0:
96,320,32738,5,2,0:0:0:0:
48,240,32904,1,0,0:0:0:0:
48,152,33071,1,2,0:0:0:0:
96,72,33238,1,2,3:0:0:0:
96,72,33321,1,0,0:0:0:0:
96,72,33404,2,0,B|168:144,1,90
224,200,33738,1,0,3:0:0:0:
360,216,33904,2,0,B|224:80,1,180
312,48,34404,2,0,B|400:16|496:56,2,180,0|0|0,3:0|0:0|3:0,0:0:0:0:
360,216,35404,6,0,B|376:256|360:304,1,90,2|0,0:0|0:0,0:0:0:0:
232,344,35738,2,0,B|216:304|232:256,1,90,0|2,3:0|3:0,0:0:0:0:
232,255,35988,1,0,0:0:0:0:
232,255,36071,1,0,0:0:0:0:
136,192,36238,1,0,0:0:0:0:
40,256,36404,1,0,3:0:0:0:
136,320,36571,2,0,B|136:136,1,180
176,56,37071,1,0,3:0:0:0:
248,112,37238,2,0,B|328:160|424:112,1,180
420,113,37738,1,0,3:0:0:0:
408,296,38071,6,0,B|312:344,1,90,2|0,0:0|0:0,0:0:0:0:
192,312,38404,2,0,B|288:264,1,90,0|2,3:0|0:3,0:0:0:0:
288,264,38654,1,0,0:0:0:0:
304,256,38738,2,0,B|224:208|128:256,1,180,0|0,0:0|3:0,0:0:0:0:
72,320,39238,2,0,B|72:128,1,180
144,88,39738,2,0,B|144:176,2,90,0|0|0,3:0|0:0|0:0,0:0:0:0:
256,232,40404,1,0,3:0:0:0:
408,136,40738,6,0,B|448:224|408:312,1,180,2|0,0:0|3:0,0:0:0:0:
280,336,41238,1,2,3:0:0:0:
280,336,41321,1,0,0:0:0:0:
280,336,41404,2,0,B|240:248|280:160,1,180,0|0,0:0|3:0,0:0:0:0:
368,136,41904,2,0,B|184:136,1,180
120,192,42404,5,2,0:0:0:0:
120,200,42488,1,0,0:0:0:0:
120,208,42571,1,0,0:0:0:0:
120,296,42738,2,0,B|120:344,2,45,2|0|0,3:0|3:0|1:0,0:0:0:0:
200,252,43071,1,0,1:0:0:0:
264,184,43238,2,0,B|344:224|440:184,1,180,2|0,3:0|1:0,0:0:0:0:
424,96,43738,5,0,1:0:0:0:
352,48,43904,1,2,3:0:0:0:
264,40,44071,1,4,1:0:0:0:
40,112,54071,5,2,3:0:0:0:
112,56,54238,1,2,3:0:0:0:
200,40,54404,1,2,3:0:0:0:
288,56,54571,1,2,3:0:0:0:
200,40,54738,6,4,B|152:120|200:216,1,180,4|0,1:2|0:0,3:0:0:0:
112,232,55238,2,0,B|296:232,1,180,2|0,1:3|0:0,0:0:0:0:
384,232,55738,1,0,1:0:0:0:
232,328,56071,2,0,B|48:328,1,180,0|0,1:0|0:0,0:0:0:0:
80,240,56571,2,0,B|32:160|80:64,1,180,2|2,1:3|3:0,0:0:0:0:
200,120,57071,1,2,3:0:0:0:
200,120,57404,6,0,B|248:200|200:296,1,180,0|0,1:0|0:0,0:0:0:0:
360,168,57904,2,0,B|392:80|392:80,2,90,0|0|0,1:0|0:0|0:0,0:0:0:0:
352,184,58321,1,0,0:0:0:0:
344,200,58404,1,0,3:0:0:0:
408,264,58571,1,0,3:0:0:0:
456,344,58738,2,0,B|376:296|280:344,1,180,0|0,1:0|0:0,0:0:0:0:
224,272,59238,5,0,1:0:0:0:
144,320,59404,1,0,0:0:0:0:
72,272,59571,1,0,1:0:0:0:
144,216,59738,2,0,B|144:160,3,45,0|0|0|0,1:0|1:0|1:0|1:0,0:0:0:0:
128,136,60071,6,0,B|216:176|304:136,1,180,4|0,1:2|0:0,0:0:0:0:
400,40,60571,2,0,B|312:0|224:40,1,180,0|0,1:0|0:0,0:0:0:0:
288,104,61071,2,0,B|376:136,1,90,2|0,1:3|0:0,0:0:0:0:
400,224,61404,2,0,B|312:264|224:224,1,180,0|0,1:0|0:0,0:0:0:0:
160,280,61904,2,0,B|136:312|72:336,1,90,2|0,1:3|0:0,0:0:0:0:
48,200,62238,2,0,B|72:168|136:144,1,90,2|2,3:0|3:0,0:0:0:0:
200,112,62571,1,0,0:0:0:0:
200,112,62654,1,0,0:0:0:0:
200,112,62738,2,0,B|376:40,1,180,4|0,1:0|0:0,0:0:0:0:
440,96,63238,6,0,B|352:136,1,90,0|0,0:0|1:0,0:0:0:0:
288,248,63571,2,0,B|376:208,1,90,0|0,1:0|0:0,0:0:0:0:
376,304,63904,2,0,B|288:344,2,90,0|0|0,0:0|1:0|0:0,0:0:0:0:
456,272,64404,1,0,0:0:0:0:
288,208,64738,5,0,1:0:0:0:
272,208,65071,5,0,0:0:0:0:
256,208,65404,5,4,1:0:0:0:
240,208,65738,6,0,B|184:240|128:176|64:208|64:208,2,180,0|0|0,0:0|1:0|1:0,0:0:0:0:
104,72,66738,5,0,1:3:0:0:
192,96,66904,1,0,1:3:0:0:
280,96,67071,1,0,1:3:0:0:
360,56,67238,1,4,1:2:0:0:
360,56,68071,6,0,B|400:144|360:232,1,180,4|2,1:0|1:3,0:0:0:0:
400,312,68571,1,0,0:0:0:0:
312,312,68738,2,0,B|224:312,2,90,0|0|2,1:0|1:0|3:0,0:0:0:0:
312,312,69154,1,0,0:0:0:0:
312,312,69238,1,0,0:0:0:0:
264,232,69404,2,0,B|176:192|88:232,2,180,0|2|0,1:0|1:3|1:0,0:0:0:0:
176,128,70238,5,0,1:0:0:0:
240,72,70404,1,2,3:0:0:0:
328,56,70571,1,0,0:0:0:0:
416,64,70738,2,0,B|464:144|416:240,1,180,0|2,1:0|3:0,0:0:0:0:
328,336,71238,2,0,B|280:256|328:160,1,180,0|0,1:0|0:0,0:0:0:0:
248,128,71738,2,0,B|192:96,2,45,2|0|0,1:3|0:0|0:0,0:0:0:0:
176,184,72071,2,0,B|96:136,2,90,0|0|2,1:0|1:0|3:0,0:0:0:0:
256,224,72571,5,0,1:0:0:0:
104,328,72904,2,0,B|56:248|104:152,1,180,0|0,1:0|0:0,0:0:0:0:
192,56,73404,2,0,B|240:136|192:232,1,180,4|2,1:0|3:0,0:0:0:0:
240,304,73904,2,0,B|328:304,1,90,0|0,0:0|1:0,0:0:0:0:
440,224,74238,2,0,B|336:224,1,90,0|2,1:0|3:0,0:0:0:0:
336,224,74488,1,0,0:0:0:0:
322,223,74571,1,0,0:0:0:0:
304,136,74738,2,0,B|392:96|480:136,2,180,0|2|0,1:0|3:0|1:0,0:0:0:0:
224,80,75571,5,0,1:0:0:0:
136,64,75738,1,2,3:0:0:0:
48,80,75904,1,0,1:0:0:0:
136,64,76071,2,0,B|136:256,1,180,4|2,1:0|3:0,0:0:0:0:
32,256,76571,2,0,B|96:336,1,90,0|0,1:0|0:0,0:0:0:0:
176,328,76904,2,0,B|240:248,1,90,0|2,1:0|3:0,0:0:0:0:
320,264,77238,1,0,0:0:0:0:
320,264,77321,1,0,0:0:0:0:
320,264,77404,2,0,B|408:304|496:264,1,180,4|2,1:0|3:0,0:0:0:0:
440,160,77904,1,4,1:0:0:0:
440,160,78071,6,0,B|352:120|264:160,1,180,0|2,0:0|3:0,0:0:0:0:
120,88,78738,2,0,B|32:128,2,90,0|0|2,1:3|0:0|1:3,0:0:0:0:
200,48,79238,1,0,0:0:0:0:
192,136,79404,2,0,B|144:216|192:312,1,180,0|2,1:0|1:3,0:0:0:0:
328,304,79904,2,0,B|376:224|328:128,1,180,0|0,1:0|0:0,0:0:0:0:
329,131,80404,1,2,1:3:0:0:
456,256,80738,5,0,1:0:0:0:
416,336,80904,1,0,1:0:0:0:
328,352,81071,1,2,3:0:0:0:
248,304,81238,6,0,B|160:304,2,90,0|4|0,0:0|1:0|0:0,0:0:0:0:
88,224,81738,2,0,B|192:224,1,90,2|0,3:0|0:0,0:0:0:0:
136,144,82071,2,0,B|224:104|312:144,1,180,0|2,1:0|3:0,0:0:0:0:
456,32,82738,5,0,1:0:0:0:
400,96,82904,1,0,0:0:0:0:
456,168,83071,1,2,3:0:0:0:
352,320,83404,6,0,B|264:360|176:320,2,180,0|2|4,1:0|1:3|1:0,0:0:0:0:
352,320,84404,1,2,3:0:0:0:
256,168,84738,2,0,B|256:64,2,90,0|0|2,1:0|1:0|3:0,0:0:0:0:
256,256,85238,1,0,0:0:0:0:
224,176,85404,6,0,B|136:176,1,90,0|0,1:0|1:0,0:0:0:0:
296,176,85738,2,0,B|392:176,1,90,2|0,3:0|0:0,0:0:0:0:
448,112,86071,2,0,B|480:176|440:256,1,135,0|0,1:0|1:0,0:0:0:0:
448,280,86404,1,2,3:0:0:0:
376,336,86571,1,0,0:0:0:0:
376,336,86654,1,0,0:0:0:0:
376,336,86738,6,0,B|288:280|208:336,1,180,4|2,1:0|3:0,0:0:0:0:
128,304,87238,1,4,1:0:0:0:
48,264,87404,1,0,1:0:0:0:
128,104,87738,1,2,3:0:0:0:
256,248,88071,2,0,B|216:168|256:72,1,180,4|0,1:0|0:0,0:0:0:0:
384,24,88571,2,0,B|424:104|384:200,1,180
384,198,88988,1,0,0:0:0:0:
384,198,89071,1,2,0:0:0:0:
256,192,89404,12,4,91404,0:0:0:0:
144,192,91738,5,0,0:0:0:0:
256,152,91904,1,2,3:2:0:0:
368,192,92071,1,0,0:0:0:0:
256,192,92154,12,4,94738,0:0:0:0:
212,192,98738,6,0,B|124:192,2,90,2|0|0,3:0|0:0|0:0,0:0:0:0:
300,192,99238,2,0,B|396:192,2,90,2|0|0,3:0|0:0|0:0,0:0:0:0:
256,104,99738,1,0,1:0:0:0:
184,56,99904,1,0,0:0:0:0:
104,104,100071,6,0,B|64:192|104:280,1,180,4|0,2:0|3:0,0:0:0:0:
168,344,100571,1,0,0:0:0:0:
168,344,100738,1,2,0:0:0:0:
208,264,100904,2,0,B|232:304|280:320,1,90,0|0,0:0|3:0,0:0:0:0:
296,184,101238,2,0,B|272:144|224:128,2,90,0|0|0,0:0|0:0|0:0,0:0:0:0:
352,256,101738,1,0,3:0:0:0:
512,344,102071,6,0,B|552:256|512:168,1,180,2|0,3:2|0:0,0:0:0:0:
512,169,102488,1,0,0:0:0:0:
512,169,102571,1,2,3:0:0:0:
400,96,102738,2,0,B|360:184|400:272,1,180,0|0,0:0|3:0,0:0:0:0:
336,328,103238,2,0,B|304:240,1,90,0|2,0:0|0:0,0:0:0:0:
192,176,103571,2,0,B|224:264,2,90,0|0|0,0:0|3:0|0:0,0:0:0:0:
168,88,104071,1,0,0:0:0:0:
96,256,104404,1,0,3:0:0:0:
168,88,104738,1,2,3:2:0:0:
312,200,105071,5,0,3:0:0:0:
256,128,105238,1,2,3:0:0:0:
256,128,105321,1,0,0:0:0:0:
256,128,105404,2,0,B|344:88|432:128,1,180,0|0,0:0|3:0,0:0:0:0:
448,216,105904,1,0,0:0:0:0:
392,288,106071,1,2,0:0:0:0:
408,376,106238,2,0,B|512:376,2,90,0|0|0,0:0|3:0|0:0,0:0:0:0:
392,288,106738,2,0,B|304:328|216:288,1,180,0|0,0:0|3:0,0:0:0:0:
104,152,107404,6,0,B|192:112|280:152,1,180,2|0,0:0|3:0,0:0:0:0:
312,72,107904,1,2,3:0:0:0:
312,72,107988,1,0,0:0:0:0:
312,72,108071,2,0,B|312:264,1,180,0|0,0:0|3:0,0:0:0:0:
384,304,108571,2,0,B|384:208,2,90,0|2|0,0:0|0:0|0:0,0:0:0:0:
312,360,109071,2,0,B|224:400|136:360,1,180,4|0,3:2|1:0,0:0:0:0:
88,184,109738,1,0,0:0:0:0:
128,104,109904,1,0,1:0:0:0:
216,72,110071,6,0,B|176:160|216:248,1,180,0|0,0:0|1:0,0:0:0:0:
296,288,110571,1,0,0:0:0:0:
376,248,110738,2,0,B|424:232|464:248,2,90,4|0|0,1:2|0:0|3:0,0:0:0:0:
296,208,111238,2,0,B|336:120|296:32,1,180
168,72,111738,2,0,B|128:160|168:248,2,180,0|0|0,3:0|0:0|3:0,0:0:0:0:
64,224,112738,5,2,0:0:0:0:
104,304,112904,1,0,0:0:0:0:
192,328,113071,1,0,3:0:0:0:
280,304,113238,1,2,3:0:0:0:
280,304,113321,1,0,0:0:0:0:
280,304,113404,2,0,B|384:304,2,90,0|0|0,3:0|0:0|3:0,0:0:0:0:
312,224,113904,2,0,B|400:184|488:224,1,180
472,136,114404,1,0,3:0:0:0:
408,72,114571,1,0,0:0:0:0:
320,64,114738,5,0,0:0:0:0:
152,120,115071,1,0,3:0:0:0:
304,224,115404,1,2,0:0:0:0:
144,144,115738,1,0,3:0:0:0:
56,168,115904,5,2,3:0:0:0:
56,168,115988,1,0,0:0:0:0:
56,168,116071,2,0,B|16:256|56:344,1,180,0|0,0:0|3:0,0:0:0:0:
144,344,116571,2,0,B|232:344,2,90,0|2|0,0:0|0:0|0:0,0:0:0:0:
240,192,117238,6,0,B|328:136|424:200,1,180
472,256,117738,1,0,3:0:0:0:
424,80,118071,1,2,0:0:0:0:
256,8,118404,1,2,3:0:0:0:
256,96,118571,5,2,3:0:0:0:
256,96,118654,1,0,0:0:0:0:
256,96,118738,2,0,B|256:192,2,90,0|0|0,0:0|0:0|3:0,0:0:0:0:
152,152,119238,2,0,B|176:248,1,90,0|2,0:0|0:0,0:0:0:0:
56,256,119571,2,0,B|120:320,1,90,0|0,0:0|3:0,0:0:0:0:
208,320,119904,2,0,B|296:360|384:320,1,180
448,208,120404,2,0,B|360:168|272:208,1,180,0|2,0:0|3:2,0:0:0:0:
200,160,120904,5,0,1:0:0:0:
200,160,120988,1,0,1:0:0:0:
200,160,121071,1,0,1:0:0:0:
136,96,121238,1,0,1:0:0:0:
128,104,121321,1,0,1:0:0:0:
120,112,121404,2,0,B|88:200|120:296,1,180,4|0,1:2|0:0,1:0:0:0:
240,344,121904,1,0,0:0:0:0:
240,344,122071,2,0,B|272:256|240:160,1,180,2|0,2:2|3:0,0:0:0:0:
376,48,122738,6,0,B|344:136|376:232,1,180,0|0,2:0|0:0,0:0:0:0:
480,368,123404,2,0,B|512:280|480:184,1,180,2|0,3:2|0:0,0:0:0:0:
482,191,123821,1,0,0:0:0:0:
482,191,123904,1,2,3:0:0:0:
400,232,124071,2,0,B|296:232,1,90
352,312,124404,6,0,B|160:312,1,180,0|2,0:0|0:0,0:0:0:0:
80,304,124904,2,0,B|136:232,2,90
56,216,125404,2,0,B|24:128|56:32,1,180
176,88,125904,1,0,0:0:0:0:
176,88,126071,2,0,B|208:176|176:272,1,180,2|0,0:0|0:0,0:0:0:0:
248,320,126571,1,0,1:0:0:0:
248,320,126654,1,0,1:0:0:0:
248,320,126738,1,0,1:0:0:0:
376,192,127071,1,0,0:0:0:0:
448,248,127238,6,0,B|448:336,2,90,0|2|0,0:0|0:0|0:0,0:0:0:0:
448,160,127738,2,0,B|448:56,1,90
376,192,128071,2,0,B|376:288,1,90
296,176,128404,2,0,B|296:368,1,180,0|2,0:0|0:0,0:0:0:0:
136,280,129071,5,0,0:0:0:0:
72,216,129238,1,0,1:0:0:0:
136,152,129404,2,0,B|216:112|312:152,1,180,4|0,0:0|0:0,0:0:0:0:
416,232,129904,2,0,B|336:272|240:232,1,180
208,312,130404,2,0,B|128:352|32:312,2,180
256,136,131404,1,2,0:0:0:0:
384,264,131738,5,0,0:0:0:0:
448,200,131904,1,0,1:0:0:0:
384,136,132071,2,0,B|304:96|208:136,1,180
128,184,132571,2,0,B|224:232,1,90
264,344,132904,2,0,B|168:296,2,90,0|0|2,0:0|0:0|0:0,0:0:0:0:
64,88,146071,5,0,1:0:0:0:
64,88,146404,1,0,1:0:0:0:
64,88,146738,5,0,1:0:0:0:
56,176,146904,2,0,B|40:224|56:272,1,90,0|0,0:0|1:0,0:0:0:0:
112,328,147238,1,0,0:0:0:0:
152,248,147404,2,0,B|188:154|286:134,1,180,2|0,2:2|0:0,0:0:0:0:
416,160,147904,2,0,B|379:253|281:273,1,180
288,360,148404,1,0,1:0:0:0:
288,176,148738,2,0,B|288:72,2,90,2|0|0,0:0|0:0|1:0,0:0:0:0:
360,232,149238,5,2,3:0:0:0:
360,232,149321,1,0,0:0:0:0:
360,232,149404,2,0,B|416:152,1,90
400,24,149738,2,0,B|344:104,1,90,0|0,1:0|0:0,0:0:0:0:
264,120,150071,2,0,B|184:72|88:120,1,180,2|0,0:0|1:0,0:0:0:0:
40,288,150738,5,0,0:0:0:0:
112,344,150904,1,0,0:0:0:0:
184,288,151071,1,0,1:0:0:0:
360,328,151404,6,0,B|392:240|360:152,1,180,2|0,0:0|1:0,0:0:0:0:
296,88,151904,2,0,B|256:120,2,45,0|0|0,1:0|1:0|1:0,0:0:0:0:
112,48,152404,1,0,1:0:0:0:
232,184,152738,6,0,B|200:272|232:360,1,180,0|0,1:0|1:0,0:0:0:0:
152,200,153404,2,0,B|184:112|152:24,1,180,0|0,1:0|1:0,0:0:0:0:
56,176,154071,2,0,B|56:272,1,90,4|0,1:2|1:0,0:0:0:0:
56,280,154321,1,0,1:0:0:0:
56,293,154404,1,0,1:0:0:0:
136,336,154571,1,0,1:0:0:0:
136,336,154654,1,0,1:0:0:0:
136,336,154738,2,0,B|216:384|312:336,1,180,4|0,1:2|0:0,1:0:0:0:
384,296,155238,1,0,0:0:0:0:
440,224,155404,1,0,0:0:0:0:
312,96,155738,5,2,0:0:0:0:
312,96,156071,2,0,B|224:72|128:96,2,180,4|0|0,1:2|0:0|0:0,0:0:0:0:
400,120,156904,1,0,0:0:0:0:
432,200,157071,1,0,1:0:0:0:
424,288,157238,1,0,0:0:0:0:
352,240,157404,6,0,B|264:264|168:240,1,180,4|2,1:0|3:0,0:0:0:0:
72,152,157904,2,0,B|160:128|256:152,1,180,0|2,1:0|3:0,0:0:0:0:
328,112,158404,1,0,1:0:0:0:
152,64,158738,2,0,B|104:144|144:240,1,180,2|0,3:0|1:0,0:0:0:0:
142,236,159238,1,0,3:0:0:0:
240,336,159404,6,0,B|288:256|248:160,1,180,2|0,3:0|1:0,0:0:0:0:
68,164,160071,2,0,B|20:244|60:340,1,180,2|0,1:0|3:0,0:0:0:0:
136,288,160571,2,0,B|209:230|309:258,1,180,2|0,1:0|0:0,0:0:0:0:
248,136,161071,2,0,B|341:139|399:225,1,180,2|0,1:0|1:0,0:0:0:0:
384,312,161571,1,0,1:0:0:0:
349,303,161654,1,0,1:0:0:0:
312,300,161738,1,0,1:0:0:0:
277,308,161821,1,0,1:0:0:0:
243,320,161904,1,0,1:0:0:0:
206,324,161988,1,0,1:0:0:0:
170,321,162071,1,0,1:0:0:0:
168,320,162738,5,4,1:0:0:0:
63,243,162904,1,0,1:0:0:0:
192,241,163071,1,2,1:0:0:0:
84,320,163238,1,0,1:0:0:0:
127,192,163404,2,0,B|78:176|50:133,1,90,0|0,0:0|1:0,1:0:0:0:
136,32,163738,2,0,B|184:47|212:90,1,90,2|0,1:0|0:0,1:0:0:0:
280,136,164071,2,0,B|360:80|448:136,1,180,0|2,1:0|1:0,1:0:0:0:
456,312,164738,6,0,B|360:312,1,90,0|0,1:0|1:0,1:0:0:0:
256,232,165071,2,0,B|352:232,2,90,2|0|0,1:0|1:0|1:0,1:0:0:0:
256,232,165488,1,0,1:0:0:0:
256,232,165571,1,0,1:0:0:0:
256,320,165738,2,0,B|176:376|88:320,2,180,2|2|2,1:3|1:0|1:3,1:0:0:0:
128,200,166738,1,2,1:0:0:0:
256,72,167071,6,0,B|240:112|256:160,1,90,2|0,1:0|0:0,1:0:0:0:
328,216,167404,2,0,B|344:176|328:128,1,90,2|0,1:0|0:0,1:0:0:0:
168,72,167738,2,0,B|128:152|168:248,2,180,2|4|0,1:0|1:0|1:0,1:0:0:0:
352,72,168738,6,0,B|392:152|352:248,1,180,0|2,1:0|1:3,1:0:0:0:
184,344,169404,2,0,B|184:248,1,90,0|0,1:0|0:0,1:0:0:0:
104,144,169738,2,0,B|104:256,1,90,2|0,1:3|0:0,1:0:0:0:
24,280,170071,2,0,B|24:96,1,180,2|2,1:0|1:0,1:0:0:0:
200,48,170738,6,0,B|280:104|368:48,1,180,4|2,1:0|1:3,1:0:0:0:
432,168,171238,1,0,1:0:0:0:
432,168,171404,2,0,B|352:112|264:168,1,180,2|2,1:0|1:3,1:0:0:0:
144,304,172071,2,0,B|224:360|312:304,1,180,0|2,1:0|1:3,1:0:0:0:
312,303,172488,1,0,1:0:0:0:
312,303,172571,1,4,1:2:0:0:
256,232,172738,6,0,B|200:152,1,90,0|0,1:0|0:0,1:0:0:0:
80,112,173071,2,0,B|136:192,1,90,2|0,1:3|0:0,1:0:0:0:
232,48,173404,2,0,B|283:121,1,90,4|0,1:0|0:0,1:0:0:0:
368,96,173738,1,2,1:0:0:0:
440,48,173904,1,0,1:0:0:0:
512,96,174071,1,0,1:0:0:0:
484,184,174238,1,0,1:0:0:0:
396,184,174404,2,0,B|412:224|396:272,1,90,2|0,1:0|0:0,1:0:0:0:
256,336,174738,2,0,B|240:296|256:248,2,90,0|0|2,1:0|1:0|1:3,1:0:0:0:
112,232,175404,5,2,1:0:0:0:
112,144,175571,1,0,1:0:0:0:
112,144,175654,1,0,1:0:0:0:
112,144,175738,2,0,B|192:96|288:152,1,180,0|4,1:0|1:2,1:0:0:0:
448,72,176404,5,0,1:0:0:0:
408,196,176571,1,0,1:0:0:0:
512,124,176738,1,0,1:0:0:0:
384,124,176904,1,0,1:0:0:0:
488,196,177071,1,0,1:0:0:0:
360,320,177404,6,0,B|272:272,1,90,2|0,1:0|0:0,1:0:0:0:
144,288,177738,2,0,B|232:336,1,90,2|0,1:0|0:0,1:0:0:0:
216,240,178071,2,2,B|152:200,6,60,2|0|0|2|0|0|4,1:0|1:0|1:0|1:0|1:0|1:0|1:0,1:0:0:0:
352,120,179071,5,0,1:0:0:0:
408,192,179238,1,0,1:0:0:0:
384,280,179404,1,2,1:0:0:0:
160,352,179738,5,0,1:0:0:0:
104,280,179904,1,0,1:0:0:0:
128,192,180071,1,2,1:0:0:0:
256,72,180404,5,0,1:0:0:0:
336,32,180571,1,0,1:0:0:0:
416,72,180738,1,2,1:0:0:0:
336,112,180904,1,0,1:0:0:0:
336,112,180988,1,0,1:0:0:0:
336,112,181071,1,0,1:0:0:0:
408,168,181238,1,0,1:0:0:0:
336,216,181404,6,0,B|256:168|160:216,1,180,4|0,1:0|0:0,1:0:0:0:
80,320,181904,1,4,1:0:0:0:
80,320,182071,2,0,B|160:368|256:320,1,180,0|0,0:0|1:0,1:0:0:0:
272,312,182488,1,0,1:0:0:0:
292,303,182571,1,0,1:0:0:0:
216,256,182738,6,0,B|184:168|216:72,1,180,4|0,1:0|0:0,1:0:0:0:
336,32,183238,2,0,B|368:120|336:216,1,180,0|0,2:0|0:0,1:0:0:0:
400,272,183738,2,0,B|448:240,2,45,2|0|0,3:0|0:0|0:0,1:0:0:0:
256,192,184071,12,0,186071,1:0:0:0:
368,192,186404,5,0,2:0:0:0:
256,232,186571,1,2,0:0:0:0:
144,192,186738,1,4,2:0:0:0:
256,192,186821,12,4,189404,1:0:0:0:
256,64,193238,5,0,1:0:0:0:
256,64,193321,1,0,1:0:0:0:
256,64,193404,1,0,1:0:0:0:
344,48,193571,1,0,1:0:0:0:
256,152,193738,1,0,1:0:0:0:
168,136,193904,1,0,1:0:0:0:
256,152,194071,2,0,B|256:240,2,90,0|0|0,0:0|0:0|1:0,1:0:0:0:
344,136,194571,1,4,1:2:0:0:
432,152,194738,6,0,B|480:240|432:328,2,180,0|0|2,0:0|0:0|0:0,0:0:0:0:
432,152,195738,1,0,0:0:0:0:
256,184,196071,2,0,B|208:272|256:360,2,180,0|0|2,0:0|0:0|0:0,0:0:0:0:
168,176,196904,1,0,0:0:0:0:
88,208,197071,1,0,0:0:0:0:
56,288,197238,1,0,1:0:0:0:
88,208,197404,6,0,B|40:120|88:32,2,180,0|0|2,0:0|0:0|0:0,0:0:0:0:
256,128,198404,1,0,0:0:0:0:
256,312,198738,1,0,0:0:0:0:
416,224,199071,1,0,0:0:0:0:
256,152,199404,1,2,0:0:0:0:
256,240,199571,6,0,B|192:240,2,45,0|0|0,1:0|1:0|1:0,0:0:0:0:
208,320,199904,1,0,1:0:0:0:
208,320,199988,1,0,1:0:0:0:
208,320,200071,2,0,B|128:360|32:320,1,180,0|0,0:0|0:0,1:0:0:0:
80,152,200738,2,0,B|160:112|256:152,1,180,2|0,0:0|0:0,0:0:0:0:
424,96,201404,2,0,B|472:184|424:272,1,180
248,296,202071,2,0,B|200:208|248:120,1,180,2|0,0:0|0:0,0:0:0:0:
245,123,202488,1,0,0:0:0:0:
245,123,202571,1,2,3:0:0:0:
328,88,202738,6,0,B|144:88,2,180,0|0|2,0:0|0:0|0:3,0:0:0:0:
480,192,203738,1,0,0:0:0:0:
328,288,204071,1,0,0:0:0:0:
176,192,204404,1,0,0:0:0:0:
0,192,204738,5,0,1:0:0:0:
88,192,204904,5,0,1:0:0:0:
176,192,205071,5,0,1:0:0:0:
264,192,205238,6,0,B|368:192,1,90,0|0,0:0|0:0,1:0:0:0:
