osu file format v12

[General]
AudioFilename: lightlug.mp3
AudioLeadIn: 0
PreviewTime: 67238
Countdown: 0
SampleSet: Soft
StackLeniency: 0.7
Mode: 0
LetterboxInBreaks: 0
WidescreenStoryboard: 0

[Editor]
Bookmarks: 12080,22747,33413,44080,54747,68080,89413,100080,110747,121413,133413,146747,162747,173413,184080
DistanceSpacing: 1
BeatDivisor: 4
GridSize: 8

[Metadata]
Title:Light Lag
TitleUnicode:ライトラグ
Artist:DECO*27 feat. topi
ArtistUnicode:DECO*27 feat. とぴ
Creator:happy30
Version:Hard
Source:
Tags:Apriy Sharp Takahide Azuchi Seiya Nagatomo Takeshi Kajiyama
BeatmapID:329300
BeatmapSetID:130583

[Difficulty]
HPDrainRate:6
CircleSize:4
OverallDifficulty:6
ApproachRate:7
SliderMultiplier:1.6
SliderTickRate:1

[Events]
//Background and Video events
0,0,"apriy-happy.jpg",0,0
//Break Periods
2,44271,53838
2,94938,99171
2,135238,145171
2,189604,192338
//Storyboard Layer 0 (Background)
//Storyboard Layer 1 (Fail)
//Storyboard Layer 2 (Pass)
//Storyboard Layer 3 (Foreground)
//Storyboard Sound Samples
//Background Colour Transformations
3,100,163,162,255

[TimingPoints]
1405,333.333333333333,4,2,0,60,1,0
68071,-100,4,2,0,60,0,1
87904,-200,4,2,0,60,0,1
88321,-200,4,2,0,10,0,1
88904,-100,4,2,0,60,0,1
89238,-100,4,2,0,60,0,1
89404,-100,4,2,0,60,0,0
91404,-100,4,2,0,5,0,0
91571,-100,4,2,0,60,0,0
94738,-100,4,2,0,60,0,0
121571,-133.333333333333,4,2,0,60,0,0
133238,-133.333333333333,4,2,0,30,0,0
146071,-133.333333333333,4,2,0,60,0,0
155988,-133.333333333333,4,2,0,30,0,0
156071,-133.333333333333,4,2,0,60,0,0
162738,-100,4,2,0,60,0,1
182571,-200,4,2,0,60,0,1
182988,-200,4,2,0,10,0,1
183571,-100,4,2,0,60,0,1
184071,-100,4,2,0,60,0,0
186071,-100,4,2,0,5,0,0
186738,-100,4,2,0,60,0,0
189404,-100,4,2,0,60,0,0
205404,-100,4,2,0,30,0,0

[Colours]
Combo1 : 199,98,242
Combo2 : 169,255,128
Combo3 : 255,128,249
Combo4 : 254,238,129
Combo5 : 255,150,64
Combo6 : 74,165,255

[HitObjects]
128,344,22738,2,0,B|176:272|128:192,1,160,4|0,1:0|3:0,0:0:0:0:
224,32,23404,2,0,B|256:104,2,80,2|0|0,0:0|0:0|3:0,0:0:0:0:
184,160,23904,2,0,B|344:160,1,160,0|0,0:0|0:0,0:0:0:0:
344,160,24404,1,0,3:0:0:0:
272,352,24738,5,2,0:0:0:0:
448,240,25071,1,0,3:0:0:0:
232,240,25404,2,0,B|184:168|232:88,1,160,0|0,0:0|3:0,0:0:0:0:
312,88,25904,2,0,B|152:88,1,160,0|0,0:0|0:0,0:0:0:0:
72,88,26404,1,0,3:0:0:0:
56,248,26738,6,0,B|88:320,1,80,0|0,0:0|0:0,0:0:0:0:
152,272,27071,2,0,B|224:304,1,80,0|0,3:0|0:0,0:0:0:0:
232,224,27404,2,0,B|376:152,1,160,2|0,0:0|3:0,0:0:0:0:
344,272,27904,5,0,0:0:0:0:
344,272,27988,1,0,0:0:0:0:
344,272,28071,2,0,B|296:200|344:120,1,160,0|0,0:0|3:0,0:0:0:0:
256,48,28571,2,0,B|168:48,1,80,0|2,0:0|0:0,0:0:0:0:
120,144,28904,2,0,B|200:144,2,80,0|0|0,0:0|3:0|0:0,0:0:0:0:
40,144,29404,1,0,0:0:0:0:
168,232,29738,1,0,3:0:0:0:
24,304,30071,5,2,0:0:0:0:
168,232,30404,1,0,3:0:0:0:
312,160,30738,2,0,B|400:104|448:192,1,160,0|0,0:0|3:0,0:0:0:0:
480,320,31238,2,0,B|392:376|344:288,1,160,0|0,0:0|0:0,0:0:0:0:
416,256,31738,2,0,B|256:256,1,160,0|0,3:0|0:0,0:0:0:0:
80,136,32404,5,0,3:0:0:0:
80,136,32571,1,0,0:0:0:0:
152,104,32738,1,2,0:0:0:0:
152,104,32904,1,0,0:0:0:0:
224,136,33071,1,2,0:0:0:0:
256,64,33238,5,2,3:0:0:0:
280,64,33321,1,0,0:0:0:0:
304,64,33404,2,0,B|384:64,1,80,0|0,0:0|0:0,0:0:0:0:
352,136,33738,1,0,3:0:0:0:
320,208,33904,2,0,B|240:208,2,80,0|2|0,0:0|0:0|0:0,0:0:0:0:
400,208,34404,2,0,B|448:280|400:360,1,160,0|0,3:0|0:0,0:0:0:0:
112,88,35404,5,2,0:0:0:0:
152,80,35738,5,0,3:0:0:0:
192,72,36071,6,0,B|272:72,2,80,0|0|0,0:0|0:0|3:0,0:0:0:0:
328,16,36571,2,0,B|280:88|328:168,1,160,0|0,0:0|0:0,0:0:0:0:
408,168,37071,1,0,3:0:0:0:
408,168,37238,2,0,B|248:168,1,160,0|0,0:0|0:0,0:0:0:0:
168,168,37738,1,0,3:0:0:0:
64,288,38071,6,0,B|136:240|216:288,1,160,2|0,0:0|3:0,0:0:0:0:
328,256,38571,1,0,0:0:0:0:
328,256,38654,1,0,0:0:0:0:
328,256,38738,2,0,B|256:224,1,80,0|0,0:0|0:0,0:0:0:0:
304,160,39071,1,0,3:0:0:0:
376,128,39238,2,0,B|216:128,1,160,0|0,0:0|0:0,0:0:0:0:
248,56,39738,2,0,B|264:136|216:208,1,160,0|0,3:0|0:0,0:0:0:0:
464,296,40738,5,2,0:0:0:0:
424,304,41071,5,0,3:0:0:0:
384,312,41404,6,0,B|216:312,1,160,0|0,0:0|3:0,0:0:0:0:
184,240,41904,2,0,B|344:240,1,160,0|0,0:0|0:0,0:0:0:0:
376,168,42404,1,2,0:0:0:0:
408,96,42571,6,0,B|424:56,2,40,0|0|2,0:0|0:0|3:0,0:0:0:0:
336,64,42904,1,0,1:0:0:0:
264,96,43071,1,0,1:0:0:0:
296,168,43238,5,2,3:0:0:0:
224,208,43404,1,0,0:0:0:0:
152,168,43571,1,0,1:0:0:0:
120,96,43738,5,0,1:0:0:0:
120,96,43904,1,2,3:0:0:0:
120,96,44071,1,4,1:0:0:0:
464,48,54738,6,0,B|416:120|464:200,1,160,4|0,1:2|0:0,0:0:0:0:
463,198,55238,2,0,B|312:248,1,160,2|0,1:3|0:0,0:0:0:0:
232,272,55738,1,0,1:0:0:0:
48,336,56071,6,0,B|96:264|48:184,1,160,0|0,1:0|0:0,0:0:0:0:
120,152,56571,1,2,1:3:0:0:
184,296,56904,1,2,3:0:0:0:
216,224,57071,1,2,3:0:0:0:
360,296,57404,6,0,B|408:144,1,160,0|0,1:0|0:0,0:0:0:0:
464,200,57904,2,0,B|392:248|312:200,1,160,0|0,1:0|0:0,0:0:0:0:
302,195,58321,1,0,0:0:0:0:
291,188,58404,1,0,3:0:0:0:
224,40,58738,6,0,B|168:16|112:56|128:120,1,160,0|0,1:0|0:0,0:0:0:0:
96,192,59238,2,0,B|168:224,1,80,0|0,1:0|0:0,0:0:0:0:
240,256,59571,1,0,1:0:0:0:
312,288,59738,1,0,1:0:0:0:
440,192,60071,6,0,B|368:240|288:192,1,160,4|0,1:2|0:0,0:0:0:0:
336,128,60571,2,0,B|264:80|184:128,1,160,0|0,1:0|0:0,0:0:0:0:
136,64,61071,1,2,1:3:0:0:
40,192,61404,6,0,B|120:192,2,80,0|0|0,1:0|0:0|0:0,0:0:0:0:
72,264,61904,2,0,B|232:264,1,160,2|2,1:3|3:0,0:0:0:0:
232,264,62404,1,2,3:0:0:0:
352,160,62738,6,0,B|344:120|376:88,1,80,0|0,1:0|0:0,0:0:0:0:
432,144,63071,2,0,B|440:184|408:216,1,80,0|0,0:0|0:0,0:0:0:0:
432,296,63404,2,0,B|352:296,1,80,0|0,1:0|1:0,0:0:0:0:
272,296,63738,1,0,0:0:0:0:
272,296,63904,2,0,B|320:224|272:144,1,160,0|0,0:0|0:0,0:0:0:0:
168,64,64404,2,0,B|248:64,1,80,0|0,1:0|0:0,0:0:0:0:
192,144,64738,2,0,B|104:144,1,80,0|0,1:0|0:0,0:0:0:0:
32,144,65071,1,0,0:0:0:0:
80,296,65404,6,0,B|232:248,1,160,4|0,1:0|0:0,0:0:0:0:
224,328,65904,2,0,B|176:256|224:176,1,160,0|0,0:0|0:0,0:0:0:0:
168,120,66404,2,0,B|240:88,1,80,0|0,1:0|0:0,0:0:0:0:
320,64,66738,5,0,1:3:0:0:
352,136,66904,1,0,1:3:0:0:
384,208,67071,1,0,1:3:0:0:
416,280,67238,1,4,1:2:0:0:
416,280,68071,6,0,B|336:280,1,80,4|0,1:0|0:0,0:0:0:0:
256,280,68404,1,2,1:3:0:0:
176,280,68571,2,0,B|224:208|176:128,1,160,0|0,0:0|1:0,0:0:0:0:
144,56,69071,2,0,B|224:56,1,80,2|0,3:0|0:0,0:0:0:0:
304,56,69404,2,0,B|360:32|408:96|376:152,1,160,0|2,1:0|1:3,0:0:0:0:
408,224,69904,1,0,0:0:0:0:
328,224,70071,1,0,1:0:0:0:
248,224,70238,6,0,B|168:224,2,80,0|2|0,1:0|3:0|0:0,0:0:0:0:
120,288,70738,2,0,B|168:216|120:136,1,160,0|2,1:0|3:0,0:0:0:0:
232,72,71238,2,0,B|184:144|232:224,1,160,0|0,1:0|0:0,0:0:0:0:
304,256,71738,1,2,1:3:0:0:
376,288,71904,1,0,0:0:0:0:
376,288,72071,2,0,B|424:216|376:136,1,160,0|2,1:0|3:0,0:0:0:0:
408,64,72571,6,0,B|328:64,1,80,0|0,1:0|0:0,0:0:0:0:
304,144,72904,2,0,B|224:144,1,80,0|0,1:0|0:0,0:0:0:0:
200,224,73238,1,0,0:0:0:0:
200,224,73404,2,0,B|120:224,1,80,4|0,1:0|0:0,0:0:0:0:
40,224,73738,1,2,3:0:0:0:
96,152,73904,2,0,B|144:224|96:304,1,160,0|0,0:0|1:0,0:0:0:0:
176,304,74404,1,2,3:0:0:0:
256,304,74571,1,0,0:0:0:0:
336,304,74738,2,0,B|384:232|336:152,1,160,0|2,1:0|3:0,0:0:0:0:
392,88,75238,2,0,B|424:160,1,80,0|0,0:0|1:0,0:0:0:0:
456,232,75571,5,0,1:0:0:0:
384,264,75738,1,2,3:0:0:0:
312,232,75904,1,0,1:0:0:0:
240,264,76071,2,0,B|208:304|128:288|128:216,1,160,4|2,1:0|3:0,0:0:0:0:
224,152,76571,2,0,B|256:112|336:128|336:200,1,160,0|0,1:0|1:0,0:0:0:0:
384,264,77071,1,2,3:0:0:0:
384,264,77238,1,0,0:0:0:0:
352,336,77404,2,0,B|432:336,2,80,4|0|2,1:0|0:0|3:0,0:0:0:0:
272,336,77904,1,4,1:0:0:0:
80,192,78404,5,2,3:0:0:0:
112,32,78738,2,0,B|192:32,1,80,0|0,1:3|0:0,0:0:0:0:
224,104,79071,2,0,B|144:104,1,80,2|0,1:3|0:0,0:0:0:0:
176,176,79404,2,0,B|336:176,1,160,0|2,1:0|1:3,0:0:0:0:
416,176,79904,1,0,1:0:0:0:
384,336,80238,1,0,0:0:0:0:
384,336,80404,1,2,1:3:0:0:
264,232,80738,2,0,B|248:272|208:288,1,80,0|0,1:0|1:0,0:0:0:0:
176,216,81071,1,2,3:0:0:0:
144,144,81238,6,0,B|216:112,1,80,0|4,0:0|1:0,0:0:0:0:
296,144,81571,2,0,B|368:112,2,80,0|2|0,0:0|3:0|0:0,0:0:0:0:
232,192,82071,2,0,B|180:280|264:328,2,160,0|2|0,1:0|3:0|1:0,0:0:0:0:
160,160,82904,1,0,0:0:0:0:
88,128,83071,1,2,3:0:0:0:
256,48,83404,6,0,B|336:80|408:32,2,160,0|2|4,1:0|1:3|1:0,0:0:0:0:
328,192,84404,1,2,3:0:0:0:
168,176,84738,2,0,B|96:320,1,160,0|2,1:0|3:0,0:0:0:0:
256,320,85404,2,0,B|328:288,1,80,0|0,1:0|1:0,0:0:0:0:
296,216,85738,2,0,B|328:144,1,80,2|0,3:0|0:0,0:0:0:0:
400,176,86071,2,0,B|328:224|248:176,1,160,0|2,1:0|3:0,0:0:0:0:
64,96,86738,6,0,B|104:16|200:48,1,160,4|2,1:0|3:0,0:0:0:0:
184,152,87238,2,0,B|279:183|319:103,1,160,4|0,1:0|0:0,0:0:0:0:
408,56,87738,1,2,3:0:0:0:
328,280,88071,6,0,B|256:328|176:280,1,160,4|0,1:0|0:0,0:0:0:0:
177,280,89071,1,2,0:0:0:0:
256,192,89404,5,4,0:0:0:0:
256,192,89488,12,0,91404,0:0:0:0:
256,192,92071,12,0,94738,0:0:0:0:
384,312,100071,6,0,B|336:240|384:160,1,160,4|0,2:0|3:0,0:0:0:0:
352,88,100571,1,0,0:0:0:0:
352,88,100738,1,2,0:0:0:0:
280,120,100904,1,0,0:0:0:0:
280,120,101071,1,0,3:0:0:0:
208,152,101238,2,0,B|48:152,1,160,0|0,0:0|0:0,0:0:0:0:
80,80,101738,1,0,3:0:0:0:
80,288,102071,5,2,3:2:0:0:
120,296,102404,5,0,0:0:0:0:
160,304,102738,6,0,B|240:304,1,80,0|0,0:0|0:0,0:0:0:0:
320,304,103071,1,0,3:0:0:0:
400,304,103238,2,0,B|448:232|400:152,1,160,0|0,0:0|0:0,0:0:0:0:
336,224,103738,2,0,B|496:224,1,160,0|0,3:0|0:0,0:0:0:0:
464,64,104404,1,0,3:0:0:0:
320,128,104738,1,2,3:2:0:0:
160,96,105071,5,0,3:0:0:0:
128,168,105238,1,2,3:0:0:0:
144,176,105321,1,0,0:0:0:0:
160,184,105404,2,0,B|320:184,1,160,0|0,0:0|3:0,0:0:0:0:
352,256,105904,2,0,B|272:256,1,80,0|2,0:0|0:0,0:0:0:0:
240,328,106238,2,0,B|320:328,2,80,0|0|0,0:0|3:0|0:0,0:0:0:0:
160,328,106738,1,0,0:0:0:0:
160,56,107404,5,2,0:0:0:0:
104,208,107738,1,0,3:0:0:0:
264,184,108071,2,0,B|328:168|368:224|328:280,1,160,0|0,0:0|3:0,0:0:0:0:
248,304,108571,2,0,B|408:304,1,160,0|0,0:0|0:0,0:0:0:0:
488,304,109071,1,4,3:2:0:0:
488,144,109404,5,0,1:0:0:0:
352,64,109738,1,0,0:0:0:0:
320,136,109904,1,0,1:0:0:0:
160,104,110238,1,0,0:0:0:0:
128,176,110404,1,0,1:0:0:0:
216,312,110738,6,0,B|296:312,2,80,4|0|0,1:2|0:0|3:0,0:0:0:0:
136,312,111238,1,0,0:0:0:0:
32,192,111571,1,0,0:0:0:0:
112,192,111738,2,0,B|160:192|160:192|224:176|224:176|272:176,2,160,0|0|0,3:0|0:0|3:0,0:0:0:0:
176,40,112738,5,2,0:0:0:0:
216,48,113071,5,0,3:0:0:0:
256,56,113405,6,0,B|336:56,1,80,0|0,3:0|0:0,0:0:0:0:
304,128,113738,1,0,3:0:0:0:
272,200,113904,2,0,B|112:200,1,160,0|0,0:0|0:0,0:0:0:0:
32,200,114404,1,0,3:0:0:0:
32,200,114571,1,0,0:0:0:0:
120,336,114904,5,0,0:0:0:0:
192,304,115071,2,0,B|224:232,1,80,0|0,3:0|0:0,0:0:0:0:
296,256,115404,2,0,B|368:224,1,80,2|0,0:0|0:0,0:0:0:0:
400,152,115738,1,0,3:0:0:0:
328,120,115904,1,2,3:0:0:0:
312,128,115988,1,0,0:0:0:0:
296,136,116071,6,0,B|248:208|296:288,1,160,0|0,0:0|3:0,0:0:0:0:
224,320,116571,1,0,0:0:0:0:
224,320,116738,1,2,0:0:0:0:
152,288,116904,1,0,0:0:0:0:
152,288,117071,1,0,0:0:0:0:
80,320,117238,2,0,B|40:320|8:288,1,80,0|0,0:0|0:0,0:0:0:0:
48,184,117571,2,0,B|88:184|120:216,1,80,0|0,0:0|3:0,0:0:0:0:
280,192,118071,1,2,0:0:0:0:
184,64,118404,1,2,3:0:0:0:
120,216,118738,6,0,B|104:280|160:320|216:280,1,160,0|0,0:0|3:0,0:0:0:0:
280,192,119238,2,0,B|312:264,1,80,0|0,0:0|0:0,0:0:0:0:
384,232,119571,2,0,B|416:304,1,80,0|0,0:0|3:0,0:0:0:0:
488,336,119904,2,0,B|520:256|472:184,1,160,0|0,0:0|0:0,0:0:0:0:
440,112,120404,1,0,0:0:0:0:
288,72,120738,6,0,B|208:72,1,80,0|0,3:0|1:0,0:0:0:0:
184,72,120988,1,0,1:0:0:0:
160,72,121071,1,0,1:0:0:0:
80,72,121238,2,0,B|40:72,2,40,0|0|4,1:0|1:0|1:2,0:0:0:0:
48,232,121738,5,0,0:0:0:0:
160,200,122071,1,2,2:2:0:0:
128,312,122404,1,0,3:0:0:0:
160,200,122738,1,0,2:0:0:0:
280,232,123071,1,0,0:0:0:0:
248,112,123404,5,2,3:2:0:0:
280,232,123738,1,0,0:0:0:0:
400,200,124071,1,0,0:0:0:0:
368,320,124404,2,0,B|248:320,1,119.999996423721,0|4,0:0|0:0,0:0:0:0:
162,233,125071,2,0,B|282:233,1,119.999996423721,0|0,0:0|0:0,0:0:0:0:
408,104,125904,5,0,0:0:0:0:
408,104,126071,2,0,B|288:104,1,119.999996423721,2|0,0:0|0:0,0:0:0:0:
208,104,126571,2,0,B|176:104,2,29.9999991059304,0|0|0,1:0|1:0|1:0,0:0:0:0:
320,240,127238,5,0,0:0:0:0:
320,240,127404,2,0,B|304:304|240:320,1,119.999996423721,2|0,0:0|0:0,0:0:0:0:
200,208,128071,1,0,0:0:0:0:
80,176,128404,2,0,B|96:112|160:96,1,119.999996423721,0|2,0:0|0:0,0:0:0:0:
280,96,129071,1,0,0:0:0:0:
280,96,129404,6,0,B|400:96,1,119.999996423721,4|0,0:0|0:0,0:0:0:0:
424,168,129904,2,0,B|304:168,1,119.999996423721,0|0,0:0|0:0,0:0:0:0:
232,168,130404,1,0,0:0:0:0:
112,168,130738,1,0,0:0:0:0:
288,328,131404,5,2,0:0:0:0:
168,296,131738,1,0,0:0:0:0:
240,264,131904,1,0,1:0:0:0:
256,256,131988,1,0,0:0:0:0:
272,248,132071,2,0,B|312:192|272:136,1,119.999996423721,0|0,0:0|0:0,0:0:0:0:
200,128,132571,2,0,B|320:128,1,119.999996423721,0|0,0:0|0:0,0:0:0:0:
392,128,133071,2,0,B|456:128,1,59.9999982118607,0|2,0:0|0:0,0:0:0:0:
104,48,146071,5,0,1:0:0:0:
72,192,146404,1,0,1:0:0:0:
104,336,146738,1,0,1:0:0:0:
104,336,146904,2,0,B|168:336,1,59.9999982118607,0|0,0:0|1:0,0:0:0:0:
240,336,147238,1,0,0:0:0:0:
312,336,147404,2,0,B|352:280|312:224,1,119.999996423721,2|0,2:2|1:0,0:0:0:0:
240,248,147904,2,0,B|200:192|240:136,1,119.999996423721,0|0,0:0|0:0,0:0:0:0:
288,80,148404,2,0,B|168:80,2,119.999996423721,0|2|0,1:0|0:0|1:0,0:0:0:0:
360,80,149238,5,2,3:0:0:0:
392,144,149404,1,0,0:0:0:0:
360,208,149571,1,0,0:0:0:0:
360,208,149738,2,0,B|304:232,1,59.9999982118607,0|0,1:0|0:0,0:0:0:0:
320,304,150071,2,0,B|200:304,2,119.999996423721,2|0|0,0:0|1:0|0:0,0:0:0:0:
392,304,150904,1,0,0:0:0:0:
464,304,151071,1,0,1:0:0:0:
360,208,151404,2,0,B|400:152|360:96,2,119.999996423721,2|0|4,0:0|1:0|1:0,0:0:0:0:
216,184,152404,1,0,1:0:0:0:
264,320,152738,6,0,B|144:320,1,119.999996423721,0|0,1:0|1:0,0:0:0:0:
32,224,153404,2,0,B|152:224,1,119.999996423721,0|0,1:0|1:0,0:0:0:0:
88,96,154071,1,4,1:2:0:0:
88,96,154404,1,0,1:0:0:0:
256,64,154738,5,4,1:2:0:0:
256,64,155738,2,0,B|256:152,1,89.9999973177911,2|0,0:0|0:0,0:0:0:0:
256,192,156071,5,4,1:2:0:0:
256,192,157071,1,0,1:0:0:0:
368,288,157404,6,0,B|312:312,2,59.9999982118607,4|0|2,1:0|0:0|3:0,0:0:0:0:
328,224,157904,2,0,B|272:200,2,59.9999982118607,0|0|2,1:0|0:0|3:0,0:0:0:0:
344,152,158404,2,0,B|320:96,2,59.9999982118607,0|0|2,1:0|0:0|3:0,0:0:0:0:
408,120,158904,2,0,B|432:64,2,59.9999982118607,0|0|0,0:0|1:0|3:0,0:0:0:0:
408,208,159404,1,2,3:0:0:0:
408,208,159738,1,0,1:0:0:0:
288,288,160071,6,0,B|168:288,1,119.999996423721,2|0,1:0|3:0,0:0:0:0:
96,216,160571,2,0,B|216:216,1,119.999996423721,2|0,1:0|0:0,0:0:0:0:
272,128,161071,2,0,B|152:128,1,119.999996423721,2|0,1:0|1:0,0:0:0:0:
120,24,161571,2,0,B|240:24,1,119.999996423721,0|0,1:0|1:0,0:0:0:0:
336,24,162071,1,0,1:0:0:0:
336,24,162738,6,0,B|384:104|336:176,1,160,4|2,1:0|1:0,0:0:0:0:
368,248,163238,1,0,1:0:0:0:
288,248,163404,2,0,B|208:248,1,80,0|0,0:0|1:0,0:0:0:0:
168,320,163738,2,0,B|248:320,1,80,2|0,1:0|0:0,0:0:0:0:
328,320,164071,1,0,1:0:0:0:
288,168,164404,1,2,1:0:0:0:
440,216,164738,6,0,B|360:264|288:216,1,160,0|2,1:0|1:0,0:0:0:0:
320,144,165238,1,0,1:0:0:0:
240,144,165404,2,0,B|160:144,1,80,0|0,1:0|1:0,0:0:0:0:
192,216,165738,2,0,B|112:216,2,80,2|0|2,1:3|0:0|1:0,0:0:0:0:
160,288,166238,1,0,0:0:0:0:
240,288,166404,2,0,B|320:288,1,80,2|0,1:3|0:0,0:0:0:0:
400,280,166738,2,0,B|448:200|400:128,1,160,2|2,1:0|1:0,0:0:0:0:
256,56,167404,2,0,B|208:136|256:208,1,160,2|2,1:0|1:0,0:0:0:0:
96,192,168071,1,4,1:0:0:0:
384,56,168738,6,0,B|224:56,1,160,0|2,1:0|1:3,0:0:0:0:
312,192,169404,2,0,B|152:192,1,160,0|2,1:0|1:3,0:0:0:0:
256,312,170071,2,0,B|208:232|256:160,1,160,2|2,1:0|1:0,0:0:0:0:
104,104,170738,6,0,B|152:256,1,160,4|2,1:0|1:3,0:0:0:0:
224,224,171238,1,0,1:0:0:0:
224,224,171404,2,0,B|376:272,1,160,2|2,1:0|1:3,0:0:0:0:
336,120,172071,2,0,B|256:96,2,80,0|0|2,1:0|0:0|1:3,0:0:0:0:
408,144,172571,1,4,1:2:0:0:
256,328,173071,1,2,1:3:0:0:
176,192,173404,6,0,B|248:160,1,80,4|0,1:0|0:0,0:0:0:0:
192,104,173738,2,0,B|120:136,1,80,2|0,1:0|1:0,0:0:0:0:
48,168,174071,2,0,B|0:248|48:320,1,160,0|2,1:0|1:0,0:0:0:0:
128,320,174571,1,0,0:0:0:0:
208,320,174738,2,0,B|288:320,1,80,0|0,1:0|1:0,0:0:0:0:
256,248,175071,2,0,B|328:216,1,80,2|0,1:3|0:0,0:0:0:0:
368,288,175404,5,2,1:0:0:0:
400,128,175738,1,0,1:0:0:0:
248,184,176071,2,0,B|192:208|136:152|160:96,1,160,4|0,1:2|1:0,0:0:0:0:
312,40,176738,2,0,B|368:16|424:72|400:128,1,160,0|0,1:0|1:0,0:0:0:0:
512,240,177404,6,0,B|360:288,1,160,2|2,1:0|1:0,0:0:0:0:
232,192,178071,2,0,B|80:240,1,160,2|2,1:0|1:0,0:0:0:0:
79,240,178738,1,4,1:0:0:0:
48,80,179071,5,0,1:0:0:0:
120,48,179238,1,0,1:0:0:0:
192,80,179404,1,2,1:0:0:0:
160,240,179738,5,0,1:0:0:0:
232,272,179904,1,0,1:0:0:0:
304,240,180071,1,2,1:0:0:0:
456,192,180404,5,0,1:0:0:0:
496,120,180571,1,0,1:0:0:0:
456,192,180738,2,0,B|296:192,1,160,2|0,1:0|1:0,0:0:0:0:
368,336,181404,6,0,B|272:344|240:264,1,160,4|0,1:0|0:0,0:0:0:0:
328,216,181904,2,0,B|295:135|199:143,1,160,4|0,1:0|0:0,0:0:0:0:
112,96,182404,1,0,1:0:0:0:
184,280,182738,6,0,B|256:328|336:280,1,160,4|0,1:0|0:0,0:0:0:0:
335,280,183738,1,2,3:0:0:0:
256,192,184071,5,4,0:0:0:0:
256,192,184155,12,0,186071,0:0:0:0:
256,192,186738,12,0,189404,0:0:0:0:
128,264,193238,6,0,B|88:264,2,40,0|0|0,1:0|1:0|1:0,0:0:0:0:
200,232,193571,1,0,1:0:0:0:
232,160,193738,1,0,1:0:0:0:
200,88,193904,2,0,B|120:88,2,80,0|0|0,1:0|0:0|0:0,0:0:0:0:
280,88,194404,1,0,1:0:0:0:
360,88,194571,2,0,B|440:88,1,80,4|0,1:2|0:0,0:0:0:0:
472,248,195071,5,0,0:0:0:0:
344,344,195404,1,2,0:0:0:0:
320,184,195738,1,0,0:0:0:0:
344,344,196071,2,0,B|184:344,1,160,0|0,0:0|0:0,0:0:0:0:
64,240,196738,2,0,B|224:240,1,160,2|0,0:0|0:0,0:0:0:0:
320,112,197404,6,0,B|296:80|256:64,1,80,0|0,0:0|0:0,0:0:0:0:
232,144,197738,2,0,B|256:176|296:192,1,80,0|0,0:0|0:0,0:0:0:0:
368,168,198071,2,0,B|216:216,1,160,2|0,0:0|0:0,0:0:0:0:
136,352,198738,2,0,B|288:304,1,160,0|0,0:0|0:0,0:0:0:0:
200,168,199404,2,0,B|280:168,1,80,2|0,0:0|1:0,0:0:0:0:
304,168,199654,1,0,1:0:0:0:
328,168,199738,1,0,1:0:0:0:
408,168,199904,2,0,B|448:168,2,40,0|0|0,1:0|1:0|0:0,0:0:0:0:
376,328,200404,5,0,0:0:0:0:
224,272,200738,1,2,0:0:0:0:
256,112,201071,1,0,0:0:0:0:
104,144,201404,2,0,B|256:192,1,160,0|0,0:0|0:0,0:0:0:0:
128,288,202071,2,0,B|280:336,1,160,2|0,0:0|0:0,0:0:0:0:
440,336,202738,5,0,0:0:0:0:
256,72,203404,1,2,0:3:0:0:
72,336,204071,1,0,0:0:0:0:
360,192,204738,5,0,1:0:0:0:
288,224,204904,1,0,1:0:0:0:
216,192,205071,1,0,1:0:0:0:
144,224,205238,2,0,B|72:256,1,80,0|0,0:0|0:0,0:0:0:0:
