osu file format v12

[General]
AudioFilename: lightlug.mp3
AudioLeadIn: 0
PreviewTime: 67238
Countdown: 0
SampleSet: Soft
StackLeniency: 0.7
Mode: 0
LetterboxInBreaks: 0
WidescreenStoryboard: 0

[Editor]
Bookmarks: 12080,22747,33413,44080,54747,68080,89413,100080,110747,121413,133413,146747,162747,173413,184080
DistanceSpacing: 1
BeatDivisor: 4
GridSize: 8

[Metadata]
Title:Light Lag
TitleUnicode:ライトラグ
Artist:DECO*27 feat. topi
ArtistUnicode:DECO*27 feat. とぴ
Creator:happy30
Version:Easy
Source:
Tags:Apriy Sharp Takahide Azuchi Seiya Nagatomo Takeshi Kajiyama
BeatmapID:329821
BeatmapSetID:130583

[Difficulty]
HPDrainRate:2
CircleSize:3
OverallDifficulty:2
ApproachRate:2
SliderMultiplier:0.6
SliderTickRate:1

[Events]
//Background and Video events
0,0,"apriy-happy.jpg",0,0
//Break Periods
2,44271,53178
2,94938,98511
2,135238,144511
2,189604,193178
//Storyboard Layer 0 (Background)
//Storyboard Layer 1 (Fail)
//Storyboard Layer 2 (Pass)
//Storyboard Layer 3 (Foreground)
//Storyboard Sound Samples
//Background Colour Transformations
3,100,163,162,255

[TimingPoints]
1405,333.333333333333,4,2,0,60,1,0
68071,-100,4,2,0,60,0,1
87904,-200,4,2,0,60,0,1
88321,-200,4,2,0,10,0,1
88904,-100,4,2,0,60,0,1
89238,-100,4,2,0,60,0,1
89404,-100,4,2,0,60,0,0
91404,-100,4,2,0,5,0,0
91571,-100,4,2,0,60,0,0
94738,-100,4,2,0,60,0,0
121571,-133.333333333333,4,2,0,60,0,0
133238,-133.333333333333,4,2,0,30,0,0
146071,-133.333333333333,4,2,0,60,0,0
155988,-133.333333333333,4,2,0,30,0,0
156071,-133.333333333333,4,2,0,60,0,0
157404,-100,4,2,0,60,0,0
162738,-100,4,2,0,60,0,1
182571,-200,4,2,0,60,0,1
182988,-200,4,2,0,10,0,1
183571,-100,4,2,0,60,0,1
184071,-100,4,2,0,60,0,0
186071,-100,4,2,0,5,0,0
186738,-100,4,2,0,60,0,0
189404,-100,4,2,0,60,0,0
205404,-100,4,2,0,30,0,0

[Colours]
Combo1 : 199,98,242
Combo2 : 169,255,128
Combo3 : 255,128,249
Combo4 : 254,238,129
Combo5 : 255,150,64
Combo6 : 74,165,255

[HitObjects]
200,248,21404,2,0,L|184:344,2,90,2|2|2,3:0|3:0|1:2,0:0:0:0:
208,216,22738,6,0,P|272:200|328:192,1,120,4|2,1:0|0:0,0:0:0:0:
416,184,23904,2,0,P|436:107|464:32,1,150,0|2,0:0|0:0,0:0:0:0:
344,80,25404,1,0,0:0:0:0:
304,160,25904,2,0,P|328:208|344:248,1,90,0|0,0:0|3:0,0:0:0:0:
352,272,26738,1,0,0:0:0:0:
264,352,27404,1,2,0:0:0:0:
176,272,28071,6,0,P|112:256|56:248,1,120,0|2,0:0|0:0,0:0:0:0:
88,160,29237,2,0,P|68:83|40:8,1,150,0|2,0:0|0:0,0:0:0:0:
160,32,30737,1,0,0:0:0:0:
192,120,31237,2,0,P|240:144|280:160,1,90,0|0,0:0|3:0,0:0:0:0:
304,168,32071,1,0,0:0:0:0:
424,192,32737,1,2,0:0:0:0:
328,264,33404,6,0,P|281:286|248:304,1,90,0|0,0:0|0:0,0:0:0:0:
184,368,34404,1,0,3:0:0:0:
184,368,34738,1,0,0:0:0:0:
104,280,35404,1,2,0:0:0:0:
104,160,36071,2,0,P|151:182|184:200,1,90,0|0,0:0|0:0,0:0:0:0:
208,216,36904,2,0,P|213:250|216:288,1,60,0|0,0:0|0:0,0:0:0:0:
280,144,38071,6,0,L|264:16,1,120,2|0,0:0|0:0,0:0:0:0:
352,40,39238,1,0,0:0:0:0:
440,48,39738,1,0,3:0:0:0:
360,208,40738,2,0,L|344:336,1,120,2|0,0:0|0:0,0:0:0:0:
256,344,41904,1,0,0:0:0:0:
168,360,42404,1,2,0:0:0:0:
144,344,42738,6,0,P|80:312|56:304,2,90,2|0|0,3:0|1:0|2:0,0:0:0:0:
168,360,44071,1,4,1:0:0:0:
48,272,54738,6,0,P|72:304|200:296,1,180,4|0,1:2|1:0,0:0:0:0:
216,272,56071,2,0,P|298:244|366:297,1,180,0|2,1:0|3:0,0:0:0:0:
384,320,57404,6,0,L|480:328,2,90,0|0|0,1:0|1:0|3:0,0:0:0:0:
352,320,58738,1,0,1:0:0:0:
296,248,59238,1,0,1:0:0:0:
288,160,59738,1,0,1:0:0:0:
291,130,60071,6,0,L|299:34,1,90,4|0,1:2|1:0,0:0:0:0:
384,64,61071,2,0,L|378:134,1,60,2|0,1:3|1:0,0:0:0:0:
448,176,61904,2,0,P|449:223|440:269,1,90,2|2,1:3|3:0,0:0:0:0:
430,293,62738,6,0,P|358:269|312:256,1,120,0|0,1:0|1:0,0:0:0:0:
256,184,63904,2,0,P|207:201|168:208,1,90,0|0,0:0|1:0,0:0:0:0:
139,207,64738,1,0,1:0:0:0:
32,160,65404,5,0,1:0:0:0:
32,40,66071,1,0,1:0:0:0:
136,104,66738,1,0,1:3:0:0:
136,104,68071,6,0,L|120:232,1,120,4|0,1:0|1:0,0:0:0:0:
216,296,69404,1,0,1:0:0:0:
328,248,70071,2,0,L|342:128,1,120,0|0,1:0|1:0,0:0:0:0:
376,48,71238,2,0,P|424:72|432:72,1,60,0|0,1:0|0:0,0:0:0:0:
456,72,71904,2,0,P|504:112|520:168,1,120,0|0,0:0|1:0,0:0:0:0:
502,190,72904,1,0,1:0:0:0:
480,210,73238,6,0,L|472:330,1,120,0|0,1:0|1:0,0:0:0:0:
472,360,74238,2,0,P|416:344|376:336,1,90,0|0,1:0|3:0,0:0:0:0:
328,232,75404,1,0,0:0:0:0:
232,152,76071,5,0,1:0:0:0:
160,200,76571,2,0,L|72:216,1,90,0|2,1:0|3:0,0:0:0:0:
42,222,77404,2,0,P|18:278|10:310,2,90,4|0|0,1:0|1:0|1:0,0:0:0:0:
64,208,78738,6,0,P|120:230|176:264,1,120,4|0,1:1|1:0,0:0:0:0:
248,304,79904,1,0,1:0:0:0:
296,232,80404,2,0,P|280:160|320:64,1,180,2|0,1:3|1:0,0:0:0:0:
432,104,82071,1,0,1:0:0:0:
480,216,82738,2,0,P|448:240|416:312,1,120,0|0,1:0|1:0,0:0:0:0:
296,288,84071,6,0,L|176:264,1,120,4|0,1:0|1:0,0:0:0:0:
149,257,85071,1,2,3:0:0:0:
119,253,85404,2,0,P|96:184|64:144,2,120,0|0|4,1:0|1:0|1:0,0:0:0:0:
144,368,87404,1,0,1:0:0:0:
248,304,88071,6,0,P|280:272|328:264,1,90,4|2,1:0|0:0,0:0:0:0:
256,192,89404,12,4,91404,0:0:0:0:
256,192,92071,12,0,94738,0:0:0:0:
384,104,100071,6,0,P|320:120|264:128,1,120,4|2,2:0|0:0,0:0:0:0:
184,88,101237,2,0,P|164:165|136:240,1,150,0|2,0:0|3:2,0:0:0:0:
96,344,102737,5,0,0:0:0:0:
184,312,103237,2,0,P|232:288|336:256,1,150,0|0,0:0|0:0,0:0:0:0:
440,224,104737,1,2,3:2:0:0:
368,128,105404,6,0,P|304:144|248:152,1,120,0|2,0:0|0:0,0:0:0:0:
160,168,106570,2,0,P|180:245|208:320,1,150,0|2,0:0|0:0,0:0:0:0:
312,360,108070,5,0,0:0:0:0:
368,296,108570,2,0,P|320:272|280:256,1,90,0|4,0:0|3:2,0:0:0:0:
264,240,109404,2,0,P|256:184|256:144,1,90,0|0,1:0|1:0,0:0:0:0:
312,80,110404,1,0,1:0:0:0:
336,64,110737,6,0,P|383:42|452:43,1,120,4|2,1:2|0:0,0:0:0:0:
488,160,112071,1,0,0:0:0:0:
384,216,112737,1,2,0:0:0:0:
320,304,113404,6,0,P|273:282|240:264,1,90,0|0,3:0|0:0,0:0:0:0:
208,256,114237,2,0,P|203:222|200:184,1,60,0|0,0:0|0:0,0:0:0:0:
104,80,115404,6,0,L|120:208,1,120,2|0,0:0|0:0,0:0:0:0:
128,288,116571,1,0,0:0:0:0:
232,352,117238,1,0,0:0:0:0:
368,296,118071,2,0,L|384:168,1,120,2|0,0:0|0:0,0:0:0:0:
448,120,119237,1,0,0:0:0:0:
376,24,119904,2,0,P|320:48|248:104,1,150,0|0,0:0|3:0,0:0:0:0:
168,192,121404,5,4,1:2:0:0:
232,256,122071,1,2,2:2:0:0:
296,192,122738,1,0,2:0:0:0:
232,128,123404,1,2,3:2:0:0:
168,192,124071,2,0,L|32:208,1,135.000005149841,2|0,0:0|0:0,0:0:0:0:
7,213,125404,1,0,0:0:0:0:
24,304,126071,1,2,0:0:0:0:
112,336,126738,1,0,1:0:0:0:
200,304,127404,6,0,P|240:256|240:136,1,180.000006866455,2|2,0:0|0:0,0:0:0:0:
208,64,129404,2,0,L|136:56,2,67.5000025749207,4|0|0,0:0|0:0|0:0,0:0:0:0:
264,184,131404,1,2,0:0:0:0:
352,168,132071,2,0,L|424:160,2,67.5000025749207,0|0|0,0:0|0:0|0:0,0:0:0:0:
40,168,146071,5,0,1:0:0:0:
128,192,146738,6,0,P|176:216|208:248,1,90.0000034332277,0|2,1:0|2:2,0:0:0:0:
256,304,147904,2,0,L|368:312,1,112.500004291535,0|2,0:0|0:0,0:0:0:0:
488,312,149404,1,0,1:0:0:0:
432,208,150071,1,2,0:0:0:0:
320,176,150738,1,0,0:0:0:0:
208,192,151404,6,0,L|112:200,1,90.0000034332277,2|4,0:0|1:0,0:0:0:0:
32,120,152738,1,0,1:0:0:0:
128,48,153404,1,0,1:0:0:0:
240,80,154071,1,4,1:2:0:0:
256,192,154738,2,0,L|272:328,1,135.000005149841,4|2,1:2|0:0,0:0:0:0:
280,360,156071,2,0,P|357:372|405:340,1,135.000005149841,4|0,1:2|1:0,0:0:0:0:
416,312,157404,6,0,L|512:304,2,90,4|0|0,1:0|1:0|1:0,0:0:0:0:
416,280,158738,2,0,L|424:184,2,90,2|0|0,3:0|3:0|1:0,0:0:0:0:
416,312,160071,6,0,B|320:344|272:272|168:312,1,240,2|0,1:0|1:0,0:0:0:0:
69,359,162071,1,0,1:0:0:0:
69,359,162738,6,0,P|45:303|53:239,1,120,4|2,1:0|1:0,0:0:0:0:
168,216,164071,2,0,P|192:272|184:336,1,120,0|2,1:0|1:0,0:0:0:0:
64,344,165404,5,0,1:0:0:0:
16,232,166071,1,2,1:0:0:0:
80,128,166738,1,2,1:0:0:0:
200,152,167404,1,2,1:0:0:0:
320,168,168071,6,0,P|360:224|384:280,1,120,4|2,1:0|1:0,0:0:0:0:
472,192,169404,2,0,L|496:64,2,120,0|2|0,1:0|1:0|1:0,0:0:0:0:
496,312,171404,1,2,1:0:0:0:
384,344,172071,2,0,P|328:320|288:320,1,90,0|4,1:0|1:2,0:0:0:0:
416,224,173404,6,0,P|421:164|397:110,1,120,4|2,1:0|1:0,0:0:0:0:
288,168,174737,2,0,P|282:227|306:281,1,120,0|2,1:0|1:0,0:0:0:0:
416,336,176070,5,4,1:2:0:0:
496,248,176737,1,0,1:0:0:0:
440,144,177404,1,2,1:0:0:0:
328,184,178070,1,2,1:0:0:0:
224,120,178737,6,0,P|184:64|160:8,1,120,4|2,1:0|1:0,0:0:0:0:
80,104,180071,2,0,L|56:232,1,120,2|2,1:0|1:0,0:0:0:0:
136,312,181404,5,4,1:0:0:0:
224,232,182070,1,0,0:0:0:0:
200,112,182737,6,0,P|256:88|312:112,1,120,4|4,1:0|0:0,0:0:0:0:
256,192,184154,12,0,186071,0:0:0:0:
256,192,186738,12,4,189404,0:0:0:0:
208,128,194738,6,0,P|152:120|88:128,1,120,0|2,0:0|0:0,0:0:0:0:
120,240,196071,2,0,P|176:248|240:240,1,120,0|2,0:0|0:0,0:0:0:0:
263,223,197071,1,0,0:0:0:0:
286,204,197404,2,0,L|310:76,1,120,0|2,0:0|0:0,0:0:0:0:
408,20,198738,2,0,L|384:148,1,120,0|2,0:0|0:0,0:0:0:0:
464,232,200071,6,0,P|400:232|344:256,1,120,0|2,0:0|0:0,0:0:0:0:
280,352,201404,2,0,L|152:344,1,120,0|2,0:0|0:0,0:0:0:0:
130,341,202404,1,0,0:0:0:0:
100,333,202738,2,0,P|108:245|100:141,2,180,0|0|0,0:0|0:0|1:0,0:0:0:0:
12,310,205238,1,0,0:0:0:0:
