osu file format v14

[General]
AudioFilename: 2.mp3
AudioLeadIn: 0
PreviewTime: 55931
Countdown: 0
SampleSet: Normal
StackLeniency: 0.7
Mode: 1
LetterboxInBreaks: 0
WidescreenStoryboard: 0

[Editor]
DistanceSpacing: 0.8
BeatDivisor: 2
GridSize: 32
TimelineZoom: 0.9999999

[Metadata]
Title:Ojama Mushi
TitleUnicode:おじゃま虫
Artist:DECO*27 feat. suzushiro
ArtistUnicode:DECO*27 feat.すずしろ
Creator:EdamaMe411
Version:Futsuu
Source:
Tags:Hatsune Miku Nico Nico Douga Conti New Stickybug
BeatmapID:694627
BeatmapSetID:278923

[Difficulty]
HPDrainRate:4
CircleSize:5
OverallDifficulty:4
ApproachRate:5
SliderMultiplier:1.4
SliderTickRate:2

[Events]
//Background and Video events
0,0,"4cf738ca-af14-4d92-96f4-44b7274d6e90.png",0,120
//Break Periods
//Storyboard Layer 0 (Background)
//Storyboard Layer 1 (Fail)
//Storyboard Layer 2 (Pass)
//Storyboard Layer 3 (Foreground)
//Storyboard Sound Samples

[TimingPoints]
590,322.719449225473,4,1,0,100,1,0
56097,-100,4,1,0,100,0,1
65133,-100,4,1,0,100,0,0
101278,-100,4,1,0,100,0,1
110314,-100,4,1,0,100,0,0
112891,-125,4,1,0,60,0,0
118054,-111.111111111111,4,1,0,80,0,0
123218,-100,4,1,0,100,0,0
133545,-100,4,1,0,40,0,0
138709,-100,4,1,0,70,0,0
142420,-100,4,1,0,100,0,0
143877,-100,4,1,0,100,0,1
163886,-100,4,1,0,100,0,0

[HitObjects]
248,192,590,5,0,0:0:0:0:
256,200,1881,1,0,0:0:0:0:
256,208,3171,1,0,0:0:0:0:
304,200,3817,1,8,0:0:0:0:
176,136,4462,1,0,0:0:0:0:
232,216,4785,1,8,0:0:0:0:
200,176,5753,1,0,0:0:0:0:
128,128,6398,1,0,0:0:0:0:
160,144,7044,1,8,0:0:0:0:
236,112,7689,1,0,0:0:0:0:
376,184,8335,1,0,0:0:0:0:
172,20,8980,1,8,0:0:0:0:
256,192,9303,1,8,0:0:0:0:
352,184,9626,1,0,0:0:0:0:
256,192,9948,12,0,11562,0:0:0:0:
224,184,12208,5,0,0:0:0:0:
288,176,12530,1,8,0:0:0:0:
280,232,13176,1,0,0:0:0:0:
288,240,13498,1,0,0:0:0:0:
248,128,13821,1,8,0:0:0:0:
320,96,14467,1,8,0:0:0:0:
328,168,14789,1,0,0:0:0:0:
320,96,15112,1,8,0:0:0:0:
328,192,15757,1,0,0:0:0:0:
248,128,16080,1,0,0:0:0:0:
264,136,16403,1,8,0:0:0:0:
216,88,17048,1,8,0:0:0:0:
176,180,17371,1,0,0:0:0:0:
200,192,17694,1,8,0:0:0:0:
336,216,18339,1,8,0:0:0:0:
200,192,18662,1,0,0:0:0:0:
200,192,18985,1,8,0:0:0:0:
256,192,19469,1,0,0:0:0:0:
416,160,19630,1,8,0:0:0:0:
184,216,19953,1,4,0:0:0:0:
256,192,20598,1,0,0:0:0:0:
296,200,21243,1,0,0:0:0:0:
220,164,21566,1,0,0:0:0:0:
224,192,21889,1,8,0:0:0:0:
112,140,22534,1,0,0:0:0:0:
192,128,23180,1,8,0:0:0:0:
200,92,23825,1,0,0:0:0:0:
192,152,24148,1,0,0:0:0:0:
224,128,24471,1,8,0:0:0:0:
88,124,24793,1,8,0:0:0:0:
184,216,25116,1,0,0:0:0:0:
224,160,25762,1,8,0:0:0:0:
348,144,26407,1,0,0:0:0:0:
224,192,27052,1,0,0:0:0:0:
172,72,27375,1,8,0:0:0:0:
400,160,27698,1,0,0:0:0:0:
256,192,28343,1,0,0:0:0:0:
200,168,28989,1,8,0:0:0:0:
312,172,29312,1,8,0:0:0:0:
256,192,29634,1,8,0:0:0:0:
284,288,30280,1,4,0:0:0:0:
432,240,30602,1,8,0:0:0:0:
216,136,31086,1,0,0:0:0:0:
240,200,31248,1,8,0:0:0:0:
228,88,31571,1,0,0:0:0:0:
252,196,31893,1,8,0:0:0:0:
408,168,32539,1,8,0:0:0:0:
312,112,32861,1,0,0:0:0:0:
240,200,33184,1,8,0:0:0:0:
256,192,33668,1,0,0:0:0:0:
256,192,33830,1,8,0:0:0:0:
172,112,34152,1,0,0:0:0:0:
212,64,34475,1,8,0:0:0:0:
256,192,35120,1,8,0:0:0:0:
304,152,35443,1,0,0:0:0:0:
256,192,35766,1,8,0:0:0:0:
256,224,36250,1,0,0:0:0:0:
256,224,36411,1,8,0:0:0:0:
316,144,36734,1,0,0:0:0:0:
256,224,37057,1,8,0:0:0:0:
240,152,37702,1,8,0:0:0:0:
224,96,38025,1,0,0:0:0:0:
240,152,38348,1,8,0:0:0:0:
240,152,38993,1,0,0:0:0:0:
240,152,39316,1,0,0:0:0:0:
312,224,39961,1,8,0:0:0:0:
256,192,40607,1,0,0:0:0:0:
256,192,40929,1,0,0:0:0:0:
256,192,41252,1,0,0:0:0:0:
256,192,41414,1,0,0:0:0:0:
256,192,41736,1,8,0:0:0:0:
256,192,42059,1,0,0:0:0:0:
256,192,42382,1,0,0:0:0:0:
256,192,42543,1,0,0:0:0:0:
256,192,42866,1,0,0:0:0:0:
256,160,43188,1,8,0:0:0:0:
256,80,43834,1,0,0:0:0:0:
208,176,44479,1,8,0:0:0:0:
368,144,45125,1,0,0:0:0:0:
384,96,45448,1,8,0:0:0:0:
344,168,45770,1,0,0:0:0:0:
368,208,46415,1,0,0:0:0:0:
224,128,47061,1,8,0:0:0:0:
304,88,47707,1,0,0:0:0:0:
224,128,47868,1,0,0:0:0:0:
256,116,48029,1,0,0:0:0:0:
136,144,48352,1,8,0:0:0:0:
280,200,48997,1,0,0:0:0:0:
280,200,49320,1,0,0:0:0:0:
136,160,49643,1,10,0:0:0:0:
356,208,50288,1,8,0:0:0:0:
256,192,50934,12,0,52225,0:0:0:0:
184,152,52547,5,0,0:0:0:0:
176,104,52870,1,0,0:0:0:0:
112,128,53193,1,0,0:0:0:0:
320,160,53516,1,12,0:0:0:0:
304,160,54161,1,12,0:0:0:0:
328,144,54806,1,8,0:0:0:0:
272,168,55452,1,0,0:0:0:0:
264,144,56097,1,12,0:0:0:0:
244,256,56420,1,0,0:0:0:0:
168,160,56581,1,0,0:0:0:0:
296,144,56904,1,8,0:0:0:0:
240,192,57388,1,8,0:0:0:0:
272,84,57711,1,0,0:0:0:0:
328,192,57872,1,0,0:0:0:0:
288,160,58195,1,8,0:0:0:0:
360,208,58679,1,0,0:0:0:0:
448,160,59325,1,8,0:0:0:0:
288,160,59647,1,0,0:0:0:0:
236,128,59970,1,0,0:0:0:0:
256,160,60293,1,12,0:0:0:0:
224,224,60938,1,0,0:0:0:0:
400,272,61261,1,8,0:0:0:0:
232,136,61583,1,0,0:0:0:0:
264,192,61745,1,0,0:0:0:0:
224,88,62068,1,0,0:0:0:0:
376,176,62229,1,8,0:0:0:0:
232,136,62552,1,8,0:0:0:0:
352,192,63197,1,0,0:0:0:0:
280,144,63843,1,0,0:0:0:0:
256,192,64165,1,8,0:0:0:0:
280,144,64488,1,0,0:0:0:0:
288,160,64811,1,0,0:0:0:0:
256,192,65133,12,0,69006,0:0:0:0:
288,240,70296,5,0,0:0:0:0:
248,128,70619,1,8,0:0:0:0:
320,96,71265,1,8,0:0:0:0:
328,168,71587,1,0,0:0:0:0:
320,96,71910,1,8,0:0:0:0:
264,136,72556,1,0,0:0:0:0:
248,128,72878,1,0,0:0:0:0:
288,176,73201,1,8,0:0:0:0:
288,160,73847,1,8,0:0:0:0:
216,88,74169,1,0,0:0:0:0:
200,192,74492,1,8,0:0:0:0:
116,48,74976,1,0,0:0:0:0:
168,72,75138,1,8,0:0:0:0:
184,216,75460,1,4,0:0:0:0:
440,208,76105,1,8,0:0:0:0:
288,160,76751,1,0,0:0:0:0:
272,96,77074,1,0,0:0:0:0:
256,144,77397,1,8,0:0:0:0:
288,144,78042,1,0,0:0:0:0:
296,200,78688,1,8,0:0:0:0:
256,192,79333,1,0,0:0:0:0:
256,192,79656,1,0,0:0:0:0:
204,24,79978,1,8,0:0:0:0:
248,100,80301,1,0,0:0:0:0:
184,216,80624,1,0,0:0:0:0:
440,208,81269,1,8,0:0:0:0:
256,192,81915,1,0,0:0:0:0:
236,124,82238,1,0,0:0:0:0:
260,164,82560,1,8,0:0:0:0:
256,200,83206,1,0,0:0:0:0:
400,160,83850,1,8,0:0:0:0:
256,200,84174,1,0,0:0:0:0:
200,168,84496,1,0,0:0:0:0:
228,72,85142,1,8,0:0:0:0:
256,192,85787,1,0,0:0:0:0:
256,192,86110,1,0,0:0:0:0:
256,192,86433,1,0,0:0:0:0:
256,192,86594,1,0,0:0:0:0:
256,192,86917,1,8,0:0:0:0:
256,192,87240,1,0,0:0:0:0:
256,192,87562,1,0,0:0:0:0:
256,192,87724,1,0,0:0:0:0:
256,192,88046,1,0,0:0:0:0:
288,224,88369,1,8,0:0:0:0:
304,152,89015,1,0,0:0:0:0:
196,120,89337,1,0,0:0:0:0:
328,160,89660,1,8,0:0:0:0:
488,144,90306,1,0,0:0:0:0:
384,96,90629,1,8,0:0:0:0:
344,168,90951,1,0,0:0:0:0:
368,208,91596,1,0,0:0:0:0:
256,204,91919,1,0,0:0:0:0:
304,208,92242,1,8,0:0:0:0:
224,128,92888,1,0,0:0:0:0:
224,128,93049,1,0,0:0:0:0:
224,128,93210,1,0,0:0:0:0:
136,144,93533,1,8,0:0:0:0:
280,200,94178,1,0,0:0:0:0:
168,208,94501,1,0,0:0:0:0:
136,160,94824,1,10,0:0:0:0:
136,152,95469,1,8,0:0:0:0:
192,48,96115,1,4,0:0:0:0:
200,184,97728,5,0,0:0:0:0:
192,176,98051,1,0,0:0:0:0:
192,192,98374,1,0,0:0:0:0:
192,192,98696,1,12,0:0:0:0:
264,136,99342,1,12,0:0:0:0:
176,96,99987,1,8,0:0:0:0:
256,192,100310,1,0,0:0:0:0:
256,192,100633,1,8,0:0:0:0:
264,144,101278,1,12,0:0:0:0:
224,248,101601,1,0,0:0:0:0:
168,160,101762,1,0,0:0:0:0:
272,116,102085,1,8,0:0:0:0:
240,192,102569,1,8,0:0:0:0:
224,248,102892,1,0,0:0:0:0:
328,192,103053,1,0,0:0:0:0:
232,136,103376,1,8,0:0:0:0:
360,208,103860,1,0,0:0:0:0:
448,160,104506,1,8,0:0:0:0:
280,128,104828,1,0,0:0:0:0:
264,152,105151,1,0,0:0:0:0:
256,160,105474,1,12,0:0:0:0:
480,160,106119,1,0,0:0:0:0:
400,280,106441,1,8,0:0:0:0:
308,220,106764,1,0,0:0:0:0:
376,176,106926,1,0,0:0:0:0:
232,136,107248,1,0,0:0:0:0:
232,136,107410,1,8,0:0:0:0:
352,192,107732,1,8,0:0:0:0:
300,148,108378,1,0,0:0:0:0:
184,164,109023,1,0,0:0:0:0:
256,192,109346,1,8,0:0:0:0:
256,192,109669,1,0,0:0:0:0:
296,160,109991,1,0,0:0:0:0:
256,192,110314,12,0,112573,0:0:0:0:
160,208,112896,5,0,0:0:0:0:
248,192,113219,1,2,0:0:0:0:
504,184,113864,1,2,0:0:0:0:
184,208,114510,1,2,0:0:0:0:
384,168,115155,1,2,0:0:0:0:
240,144,115478,1,0,0:0:0:0:
232,104,115800,1,2,0:0:0:0:
232,112,116446,1,2,0:0:0:0:
112,120,116769,1,0,0:0:0:0:
256,192,117414,1,0,0:0:0:0:
144,224,118060,1,0,0:0:0:0:
240,248,118382,1,8,0:0:0:0:
256,192,118866,1,0,0:0:0:0:
296,232,119028,1,8,0:0:0:0:
416,240,119350,1,0,0:0:0:0:
376,224,119673,1,8,0:0:0:0:
232,104,120157,1,0,0:0:0:0:
392,224,120319,1,8,0:0:0:0:
224,144,120641,1,0,0:0:0:0:
272,160,120964,1,8,0:0:0:0:
256,192,121448,1,0,0:0:0:0:
312,152,121609,1,8,0:0:0:0:
272,160,121932,1,0,0:0:0:0:
160,136,122578,1,4,0:0:0:0:
200,176,123223,1,0,0:0:0:0:
232,160,123384,1,0,0:0:0:0:
216,224,123546,1,0,0:0:0:0:
300,152,123868,1,8,0:0:0:0:
472,112,124191,1,8,0:0:0:0:
200,136,124514,1,0,0:0:0:0:
232,200,124675,1,0,0:0:0:0:
224,48,124836,1,0,0:0:0:0:
272,148,125159,1,8,0:0:0:0:
264,120,125482,1,8,0:0:0:0:
128,112,125805,1,0,0:0:0:0:
168,64,125966,1,0,0:0:0:0:
240,64,126127,1,0,0:0:0:0:
280,168,126450,1,8,0:0:0:0:
208,216,126773,1,8,0:0:0:0:
96,168,127096,1,0,0:0:0:0:
256,192,127418,1,8,0:0:0:0:
224,96,127741,1,0,0:0:0:0:
440,152,128387,1,0,0:0:0:0:
296,152,128548,1,0,0:0:0:0:
104,152,128709,1,0,0:0:0:0:
212,128,129032,1,8,0:0:0:0:
424,160,129355,1,8,0:0:0:0:
144,200,129677,1,0,0:0:0:0:
368,208,129839,1,0,0:0:0:0:
368,256,130000,1,0,0:0:0:0:
296,168,130323,1,8,0:0:0:0:
368,256,130646,1,8,0:0:0:0:
320,184,130968,1,0,0:0:0:0:
200,200,131130,1,0,0:0:0:0:
216,208,131291,1,0,0:0:0:0:
264,108,131614,1,8,0:0:0:0:
408,184,131936,1,8,0:0:0:0:
152,132,132259,1,4,0:0:0:0:
200,112,132582,1,12,0:0:0:0:
200,120,132905,1,4,0:0:0:0:
80,120,133550,1,8,0:0:0:0:
144,112,134841,1,8,0:0:0:0:
152,112,136132,1,8,0:0:0:0:
232,160,137423,1,0,0:0:0:0:
352,160,137745,1,0,0:0:0:0:
256,160,138068,1,8,0:0:0:0:
264,152,138391,1,0,0:0:0:0:
328,160,138713,1,4,0:0:0:0:
352,144,139359,1,0,0:0:0:0:
248,184,139682,1,8,0:0:0:0:
432,128,140004,1,0,0:0:0:0:
288,144,140650,1,0,0:0:0:0:
88,112,141295,1,0,0:0:0:0:
256,192,141618,1,8,0:0:0:0:
168,176,141941,1,0,0:0:0:0:
256,192,142263,1,8,0:0:0:0:
400,176,142586,1,0,0:0:0:0:
240,176,142747,1,0,0:0:0:0:
272,192,142909,1,0,0:0:0:0:
272,192,143231,1,8,0:0:0:0:
256,192,143393,1,8,0:0:0:0:
256,192,143554,1,8,0:0:0:0:
216,64,143877,1,12,0:0:0:0:
240,192,144200,1,0,0:0:0:0:
188,172,144361,1,0,0:0:0:0:
284,112,144684,1,0,0:0:0:0:
240,192,145167,1,8,0:0:0:0:
208,208,145490,1,0,0:0:0:0:
360,208,145652,1,0,0:0:0:0:
276,136,145975,1,0,0:0:0:0:
248,160,146459,1,0,0:0:0:0:
144,104,147104,1,8,0:0:0:0:
256,192,147427,1,0,0:0:0:0:
192,200,147750,1,8,0:0:0:0:
224,224,148072,1,0,0:0:0:0:
160,80,148234,1,8,0:0:0:0:
264,296,148395,1,0,0:0:0:0:
336,176,148718,1,8,0:0:0:0:
400,272,149040,5,0,0:0:0:0:
480,160,149363,1,0,0:0:0:0:
428,176,149525,1,0,0:0:0:0:
320,224,149847,1,0,0:0:0:0:
344,160,150009,1,8,0:0:0:0:
352,192,150331,1,8,0:0:0:0:
168,72,150977,1,8,0:0:0:0:
184,164,151622,1,0,0:0:0:0:
280,144,152268,1,8,0:0:0:0:
304,160,152590,1,0,0:0:0:0:
228,76,152913,1,0,0:0:0:0:
240,200,153236,5,12,0:0:0:0:
200,176,154204,5,0,0:0:0:0:
232,160,154365,1,0,0:0:0:0:
216,224,154527,1,0,0:0:0:0:
164,124,154849,1,8,0:0:0:0:
472,112,155172,1,8,0:0:0:0:
200,136,155495,1,0,0:0:0:0:
232,200,155656,1,0,0:0:0:0:
224,48,155817,1,0,0:0:0:0:
116,76,156140,1,8,0:0:0:0:
432,176,156463,1,8,0:0:0:0:
240,64,156786,1,0,0:0:0:0:
168,64,156947,1,0,0:0:0:0:
128,112,157108,1,0,0:0:0:0:
152,4,157431,1,8,0:0:0:0:
208,216,157754,1,8,0:0:0:0:
360,208,158077,1,4,0:0:0:0:
224,96,158722,1,4,0:0:0:0:
112,120,159368,5,0,0:0:0:0:
96,56,159529,1,0,0:0:0:0:
216,88,159691,1,0,0:0:0:0:
192,224,160013,1,8,0:0:0:0:
336,72,160336,1,8,0:0:0:0:
128,152,160658,1,0,0:0:0:0:
176,144,160820,1,0,0:0:0:0:
200,192,160981,1,0,0:0:0:0:
360,152,161304,1,8,0:0:0:0:
360,144,161627,1,2,0:0:0:0:
216,104,161949,1,0,0:0:0:0:
280,160,162111,1,0,0:0:0:0:
384,144,162272,1,0,0:0:0:0:
384,144,162596,1,8,0:0:0:0:
168,216,162918,1,8,0:0:0:0:
248,176,163240,1,0,0:0:0:0:
296,96,163563,1,0,0:0:0:0:
416,184,163886,1,12,0:0:0:0:
