osu file format v9

[General]
AudioFilename: Mozaik Role feat. marina.mp3
AudioLeadIn: 1500
PreviewTime: 70137
Countdown: 0
SampleSet: Soft
StackLeniency: 0.4
Mode: 0
LetterboxInBreaks: 1

[Editor]
DistanceSpacing: 1.5
BeatDivisor: 4
GridSize: 8

[Metadata]
Title:Mozaik Role
Artist:DECO*27 feat. marina
Creator:koko6162006
Version:Normal
Source:
Tags:Miyuki Sawashiro Aimai Elegy

[Difficulty]
HPDrainRate:3
CircleSize:3
OverallDifficulty:3
ApproachRate:4
SliderMultiplier:1
SliderTickRate:1

[Events]
//Background and Video events
0,0,"BG.jpg"
//Break Periods
2,14061,25782
2,83578,95300
2,166336,171437
//Storyboard Layer 0 (Background)
//Storyboard Layer 1 (Fail)
//Storyboard Layer 2 (Pass)
//Storyboard Layer 3 (Foreground)
//Storyboard Sound Samples
//Background Colour Transformations
3,100,0,0,0

[TimingPoints]
620,413.793103448276,4,2,1,90,1,0
70137,-100,4,2,2,90,0,1
81826,-100,4,2,2,0,0,1
83275,-100,4,2,2,90,0,1
83378,-100,4,2,1,90,0,0
126413,-100,4,2,2,90,0,1
139654,-100,4,2,1,30,0,0
152895,-100,4,2,2,90,0,1
166137,-100,4,2,1,90,0,0
179275,-100,4,2,1,5,0,0

[Colours]
Combo1 : 240,30,130
Combo2 : 0,255,255
Combo3 : 0,0,255
Combo4 : 255,255,0

[HitObjects]
152,96,620,2,8,B|288:96,2,100
96,176,1861,1,8
152,256,2275,2,8,B|280:256,2,100
96,176,3516,1,8
184,128,3930,6,8,B|184:0,2,100
272,176,5171,1,8
360,128,5585,2,8,B|360:16,2,100
448,184,6826,6,0,B|448:296,1,100,8|8
352,320,7654,1,8
248,320,8068,1,8
144,320,8482,1,8
72,256,8895,5,8
144,192,9309,1,8
248,192,9723,1,8
352,192,10137,1,8
416,112,10551,6,8,B|504:24,2,100
352,192,11792,1,8
256,192,12206,12,0,13447
256,192,13861,5,4
256,92,27102,6,0,B|256:212,1,100,4|8
104,192,27930,2,0,B|152:296,1,100,0|8
408,192,28757,2,0,B|360:296,1,100,0|8
256,192,29585,2,8,B|256:72,1,100,0|8
104,112,30413,6,0,B|104:216|104:216|136:264,1,150,0|2
248,160,31447,2,2,B|344:120|344:120|392:120,1,150,2|0
464,248,32482,1,8
336,328,32895,2,0,B|224:328,1,100,0|8
120,232,33723,6,0,B|56:128,1,100,0|8
192,56,34551,2,0,B|248:152,1,100,0|8
384,96,35378,2,2,B|456:160|376:240,1,150,2|2
240,200,36413,2,0,B|168:264|248:344,1,150,2|0
376,280,37447,1,8
376,128,37861,1,0
240,56,38275,1,8
160,184,38688,6,0,B|160:304,1,100,0|8
160,284,39309,1,0
304,328,39723,2,0,B|352:240|296:168,1,150,2|4
144,112,40757,6,0,B|256:112,2,100,8|0|8
144,264,41999,2,0,B|256:264,2,100,0|8|8
104,120,43240,1,8
248,72,43654,5,4
392,120,44068,2,0,B|392:240,2,100,8|0|8
240,120,45309,2,0,B|240:240,2,100,0|8|8
88,120,46551,2,0,B|88:232,1,100,8|4
232,264,47378,6,0,B|304:176,2,100,8|0|8
368,328,48620,2,8,B|472:328,2,100,0|8|8
216,328,49861,2,8,B|96:328,1,100,8|0
104,176,50688,6,0,B|32:96,2,100,8|0|8
248,152,51930,2,0,B|232:40,2,100,0|8|0
96,168,53171,2,0,B|104:64,1,100,8|4
224,144,54206,6,0,B|272:64|368:112,1,150,0|8
448,216,55240,2,0,B|488:320,1,100,0|8
352,240,56068,2,0,B|336:352,1,100,0|8
248,216,56895,6,0,B|200:248|136:200,1,100,0|0
48,104,57723,2,0,B|8:144|48:200,1,100,0|8
168,280,58551,2,2,B|232:280|232:280|288:224|288:224|360:224,1,200,2|2
328,72,59792,2,0,B|208:72,1,100,8|0
112,168,60620,1,8
240,248,61033,2,0,B|352:248,1,100,0|8
440,136,61861,6,2,B|368:136|368:136|312:200|240:120,1,200
120,80,63102,2,0,B|72:96|72:160,1,100,8|0
208,232,63930,1,8
336,160,64344,2,0,B|400:168|400:248,1,100,0|8
296,336,65171,2,0,B|184:336,2,100,0|8|0
376,208,66413,1,8
288,88,66826,6,0,B|184:144,1,100,4|8
216,288,67654,2,0,B|320:232,1,100,0|8
376,112,68482,2,2,B|472:152|472:280,1,200,2|2
184,184,70137,5,4
88,72,70551,1,8
16,200,70964,1,0
112,320,71378,1,8
184,184,71792,1,0
280,72,72206,1,8
352,200,72619,1,8
248,304,73033,6,0,B|136:304,1,100,8|4
120,160,73861,2,0,B|48:64,1,100,8|4
208,40,74688,2,0,B|272:128,1,100,8|4
416,144,75516,1,8
384,288,75930,2,2,B|288:240|192:296,1,200,2|4
128,160,77171,6,0,B|200:64,1,100,8|0
216,224,77999,2,0,B|320:176,1,100,8|0
264,328,78826,2,0,B|384:328,2,100,8|8|8
112,320,80068,1,4
112,168,80482,2,0,B|112:48,2,100,8|4|4
112,320,81723,2,0,B|432:320,1,300,0|0
256,192,83378,1,4
392,80,96620,5,0
256,144,97033,1,8
208,288,97447,1,0
64,312,97861,1,8
128,176,98275,6,0,B|184:80,1,100,0|8
304,168,99102,2,0,B|416:168,2,100,0|8|0
176,240,100344,1,8
304,312,100757,2,0,B|416:312,1,100,0|8
464,176,101585,1,0
328,96,101999,1,8
280,240,102413,2,0,B|160:240,1,100,0|8
144,96,103240,5,0
48,208,103654,1,8
136,328,104068,1,0
224,208,104482,2,0,B|336:208,1,100,8|0
392,72,105309,2,0,B|280:72,1,100,8|0
224,208,106137,2,0,B|328:208,1,100,8|0
400,336,106964,6,0,B|280:336,1,100,8|0
184,240,107792,1,8
288,136,108206,1,0
392,248,108620,1,8
248,200,109033,1,4
384,144,109447,1,4
304,272,109861,6,0,B|256:312|200:272,1,100,4|8
112,168,110688,2,0,B|160:128|216:168,1,100,0|8
304,272,111516,1,0
424,176,111930,1,8
320,64,112344,1,0
208,160,112757,1,8
304,272,113171,6,0,B|200:272,1,100,0|8
104,160,113999,2,0,B|216:160,1,100,0|8
352,160,114826,1,0
352,312,115240,1,8
200,312,115654,1,0
204,161,116068,1,8
352,160,116482,6,0,B|432:72,1,100,0|8
464,232,117309,2,0,B|392:320,1,100,0|8
288,216,118137,2,2,B|216:160|144:224,1,150
48,112,119171,2,2,B|120:168|192:104,1,150
328,72,120206,1,8
424,184,120620,1,0
304,272,121033,1,8
232,144,121447,2,0,B|352:144,1,100,0|8
440,248,122275,2,0,B|328:248,1,100,8|8
208,176,123102,5,4
80,96,123516,1,8
80,248,123930,1,4
208,176,124344,1,8
336,96,124757,2,4,B|416:184|336:288,1,200,4|8
360,112,126413,6,0,B|440:176,1,100,4|8
256,136,127240,2,0,B|256:256,1,100,4|8
152,112,128068,2,0,B|72:176,1,100,4|8
176,280,128895,1,8
328,280,129309,1,8
320,128,129723,6,0,B|408:64,1,100,0|8
416,216,130551,2,0,B|336:280,1,100,0|8
224,184,131378,1,0
80,232,131792,1,8
224,184,132206,1,0
112,80,132620,1,8
224,184,133033,2,4,B|224:296,1,100,4|8
336,184,133861,2,8,B|336:304,1,100,4|8
448,184,134688,2,0,B|448:304,2,100,4|8|4
472,32,135930,1,8
328,88,136344,6,4,B|224:88,1,100,4|8
336,192,137171,2,8,B|216:192,1,100,4|8
336,304,137999,2,0,B|232:304,2,100,4|8|8
432,192,139240,2,0,B|432:80,1,100,8|4
192,192,140482,5,2
192,192,141309,1,2
192,192,142137,1,2
192,192,142964,1,2
192,192,143792,1,2
192,192,144620,1,2
192,192,145447,1,2
360,72,146275,5,2
352,224,146688,1,2
200,224,147102,1,8
200,72,147516,1,8
200,224,147930,1,2
48,224,148344,1,2
48,72,148757,1,8
200,72,149171,1,8
200,224,149585,5,2
352,224,149999,1,2
352,72,150413,1,8
200,72,150826,1,8
256,192,151240,12,0,152068
320,128,152895,6,0,B|264:112|224:176,1,100,4|8
168,296,153723,2,0,B|224:312|264:248,1,100,4|8
320,128,154551,2,0,B|432:80,2,100,4|8|8
176,176,155792,2,0,B|64:176,1,100,8|4
168,296,156620,1,8
320,296,157033,1,4
400,168,157447,2,0,B|400:56,1,100,8|4
288,168,158275,2,0,B|288:48,2,100,8|0|4
168,256,159516,5,12
296,336,159930,1,12
376,208,160344,1,12
248,128,160757,1,12
168,256,161171,2,0,B|64:256,2,100,0|12|12
280,152,162413,6,0,B|280:48,1,100,8|4
392,152,163240,2,0,B|392:40,2,100,8|12|12
448,288,164482,1,8
296,288,164895,1,8
144,288,165309,1,8
72,160,165723,2,8,B|192:160,1,100,8|4
184,96,172757,5,0
320,152,173171,1,8
336,304,173585,1,0
456,216,173999,1,8
304,232,174413,1,0
424,144,174826,1,8
272,160,175240,1,0
392,72,175654,1,8
272,160,176068,6,0,B|168:160,1,100,0|8
272,272,176895,2,0,B|152:272,2,100,0|8|4
256,192,177826,12,2,179275
