osu file format v9

[General]
AudioFilename: Mozaik Role feat. marina.mp3
AudioLeadIn: 1500
PreviewTime: 70137
Countdown: 0
SampleSet: Soft
StackLeniency: 0.4
Mode: 0
LetterboxInBreaks: 1

[Editor]
Bookmarks: 52404,65516
DistanceSpacing: 1
BeatDivisor: 4
GridSize: 8

[Metadata]
Title:Mozaik Role
Artist:DECO*27 feat. marina
Creator:koko6162006
Version:Hard
Source:
Tags:Miyuki Sawashiro Aimai Elegy

[Difficulty]
HPDrainRate:6
CircleSize:4
OverallDifficulty:5
ApproachRate:7
SliderMultiplier:1.4
SliderTickRate:1

[Events]
//Background and Video events
0,0,"BG2.jpg"
//Break Periods
2,14061,26202
2,83578,95720
//Storyboard Layer 0 (Background)
//Storyboard Layer 1 (Fail)
//Storyboard Layer 2 (Pass)
//Storyboard Layer 3 (Foreground)
//Storyboard Sound Samples
//Background Colour Transformations
3,100,0,0,0

[TimingPoints]
620,413.793103448276,4,2,1,100,1,0
70137,-100,4,2,2,100,0,1
82137,-100,4,2,1,100,0,1
82447,-100,4,2,2,5,0,1
83378,-100,4,2,1,100,0,0
126413,-100,4,2,2,100,0,1
139654,-200,4,2,2,30,0,0
147723,-200,4,2,2,40,0,0
149275,-200,4,2,2,50,0,0
150930,-200,4,2,2,60,0,0
152895,-100,4,2,2,100,0,1
166137,-100,4,2,1,100,0,0
169447,-100,4,2,1,5,0,0
169551,-100,4,2,1,100,0,0

[Colours]
Combo1 : 249,17,81
Combo2 : 0,255,255
Combo3 : 0,0,255
Combo4 : 255,255,0

[HitObjects]
120,88,620,2,8,B|280:88,1,140
392,56,1447,1,8
448,96,1654,1,0
472,160,1861,1,8
448,224,2068,1,0
408,280,2275,6,8,B|248:280,1,140
136,320,3102,1,8
88,272,3309,1,0
64,208,3516,1,8
88,144,3723,1,0
136,96,3930,6,8,B|208:128|288:80,1,140
400,144,4757,1,8
328,152,4964,1,0
264,184,5171,1,8
256,256,5378,1,0
264,328,5585,6,8,B|104:336,2,140
384,264,6826,2,0,B|440:208|400:104,1,140,0|8
344,104,7447,1,0
288,152,7654,2,8,B|136:152,1,140
104,208,8275,1,0
136,272,8482,2,8,B|288:272,1,140
400,208,9309,5,8
328,88,9723,2,8,B|256:136|168:80,1,140
144,144,10344,1,0
112,208,10551,2,8,B|112:360,1,140
232,280,11378,6,0,B|232:192,1,70,8|0
304,224,11792,2,0,B|304:136,1,70,8|0
376,168,12206,2,8,B|376:16,1,140
376,28,12826,1,8
256,192,13033,12,4,13861
128,128,27102,6,0,B|280:128,1,140,4|8
328,88,27723,1,0
360,24,27930,2,0,B|416:40|416:128|360:152,1,140,0|8
344,200,28551,1,8
312,264,28757,6,0,B|176:320,1,140,0|8
160,248,29378,2,0,B|296:192,1,140
320,128,29999,1,8
288,64,30206,1,0
224,32,30413,6,0,B|80:32,1,140,0|8
24,72,31033,2,0,B|24:240,1,140
72,264,31654,1,8
128,216,31861,1,0
184,264,32068,6,2,B|304:264,2,105
128,216,32895,1,0
72,264,33102,1,0
128,312,33309,1,8
184,264,33516,1,8
240,312,33723,6,0,B|384:312,1,140,0|8
360,240,34344,2,0,B|208:240,1,140
168,192,34964,1,8
160,120,35171,1,0
208,64,35378,6,0,B|280:104|368:48,1,140,0|8
344,168,35999,2,0,B|280:128|208:176,1,140
168,232,36620,1,8
160,304,36826,1,0
168,232,37033,6,0,B|80:144,2,105,2|2|2
232,264,37861,1,0
304,264,38068,2,0,B|376:264,1,70,0|8
432,216,38482,1,0
480,160,38688,6,0,B|520:80|456:8,1,140,0|8
368,0,39309,2,0,B|328:80|392:152,1,140
424,184,39930,1,8
448,248,40137,1,0
416,312,40344,1,8
144,64,40757,6,0,B|80:128,1,70,8|0
176,176,41171,2,0,B|152:248,1,70
256,256,41585,2,0,B|256:344,1,70,8|0
336,176,41999,2,0,B|360:248,1,70
368,64,42413,2,0,B|432:128,2,70,8|0|8
296,56,43033,1,0
224,56,43240,1,8
152,64,43447,1,8
96,312,43654,6,8,B|176:296|232:216,1,140,0|8
240,176,44275,1,0
280,120,44482,1,0
344,96,44688,1,0
408,120,44895,2,0,B|408:200,1,70,8|0
336,200,45309,2,0,B|336:288,1,70
264,256,45723,2,0,B|264:336,2,70,8|0|8
264,184,46344,2,0,B|264:88,1,70,0|8
224,56,46757,1,8
152,48,46964,6,0,B|112:112|152:184,1,140,0|8
200,232,47585,1,0
264,200,47792,2,0,B|344:200,1,70
376,144,48206,2,0,B|472:144,2,70,8|0|0
312,112,48826,2,0,B|232:112,1,70,0|8
184,72,49240,1,0
140,124,49447,1,8
148,192,49654,1,0
200,236,49861,2,0,B|280:236,2,70,8|8|0
148,284,50482,5,0
200,332,50688,1,8
252,284,50895,2,0,B|336:284,1,70
376,236,51309,1,0
404,172,51516,1,8
392,104,51723,1,0
340,56,51930,5,0
272,40,52137,2,0,B|196:40,1,70,0|8
132,48,52551,1,0
104,112,52757,1,8
132,176,52964,1,0
204,176,53171,1,8
244,232,53378,1,8
316,232,53585,6,0,B|452:232,2,105,4|2|2
296,164,54413,1,0
232,132,54620,2,0,B|152:132,2,70,0|8|0
296,164,55240,6,0,B|296:308,1,140,0|8
368,292,55861,2,0,B|368:148,1,140
344,84,56482,1,8
288,36,56688,1,0
216,20,56895,6,2,B|104:20,2,105
224,92,57723,2,0,B|80:92,1,140,0|8
56,156,58344,1,8
96,212,58551,6,0,B|176:252|248:180,1,140,0|8
280,292,59171,2,0,B|288:212|368:172,1,140
424,156,59792,1,8
472,100,59999,1,0
464,28,60206,6,0,B|384:28,1,70
352,84,60620,2,0,B|264:84,1,70,8|8
240,28,61033,2,0,B|152:28,2,70,0|0|8
256,224,61861,6,0,B|400:224,1,140,0|8
408,296,62482,2,0,B|248:296,1,140
200,280,63102,1,8
152,232,63309,1,0
128,168,63516,6,2,B|128:40,2,105,2|2|2
72,216,64344,1,0
64,288,64551,1,0
112,344,64757,1,8
184,352,64964,1,0
240,304,65171,6,2,B|368:304,2,105
184,264,65999,1,0
144,208,66206,1,0
152,136,66413,1,8
192,80,66620,1,0
232,136,66826,2,0,B|304:168|392:136,1,140,4|8
320,272,67654,2,0,B|248:240|160:272,1,140,4|8
256,360,68482,5,8
256,288,68688,1,0
256,216,68895,1,8
256,144,69102,1,0
256,72,69309,1,2
256,72,69723,1,2
416,80,70137,6,0,B|480:152|416:232,1,140,4|8
392,264,70757,1,0
328,232,70964,2,0,B|248:232,1,70,8|0
200,272,71378,2,0,B|112:272,1,70,8|0
80,216,71792,6,8,B|32:152|80:72,1,140
144,80,72413,1,0
200,40,72620,2,8,B|264:80|352:32,1,140
400,24,73240,1,0
456,64,73447,6,0,B|456:144,1,70,8|0
384,120,73861,2,0,B|384:208,1,70,8|0
312,176,74275,2,0,B|312:248,1,70,8|0
240,232,74688,2,0,B|240:312,1,70,8|0
168,288,75102,2,0,B|168:376,2,70,8|0|8
168,216,75723,2,0,B|168:128,2,70,0|8|0
168,288,76344,1,8
112,328,76551,1,0
40,312,76757,6,0,B|40:168,1,140,4|8
88,120,77378,1,0
136,72,77585,2,8,B|208:40|288:80,1,140
336,104,78206,1,0
272,72,78413,2,8,B|224:136|280:224,1,140
328,240,79033,2,0,B|416:240,2,70,0|8|0
328,312,79654,6,0,B|416:312,2,70,8|0|8
192,280,80482,2,8,B|160:240|240:192|184:128,1,140
120,24,81309,2,8,B|152:64|72:112|128:176,1,140
168,200,81930,1,0
232,224,82137,1,8
296,200,82344,1,8
336,144,82551,2,0,B|360:80|448:48,2,140,0|0|4
392,112,96620,6,0,B|264:208,1,140,4|8
224,236,97240,1,0
224,236,97447,1,0
168,280,97654,2,0,B|100:328,2,70,0|8|0
224,236,98275,6,0,B|216:152|128:108,1,140,0|8
256,128,98895,2,0,B|192:196|124:212,1,140
76,232,99516,1,8
52,296,99723,1,0
100,348,99930,6,0,B|260:348,1,140,0|8
292,300,100551,1,0
344,256,100757,2,0,B|344:88,1,140,0|8
344,44,101378,1,0
344,116,101585,6,0,B|224:116,2,105,2|2|2
392,168,102413,1,0
400,236,102620,2,0,B|476:284,2,70,0|8|0
392,168,103240,2,2,B|392:40,2,105
344,220,104068,1,0
280,248,104275,1,0
208,248,104482,1,8
148,212,104688,1,0
120,148,104895,6,0,B|120:0,1,140,0|8
192,12,105516,2,0,B|192:172,1,140
228,212,106137,1,8
216,280,106344,1,0
276,316,106551,2,0,B|336:272|436:320,1,140,0|8
476,184,107378,2,0,B|416:228|316:180,1,140,0|8
280,160,107999,1,0
228,208,108206,6,0,B|136:208,1,70
96,244,108620,1,8
68,308,108826,1,0
96,244,109033,1,8
76,176,109240,1,0
40,116,109447,1,8
36,48,109654,1,8
208,96,109861,6,0,B|344:88,2,105,4|8|0
160,148,110688,1,0
196,208,110895,1,0
172,272,111102,1,8
208,332,111309,1,0
172,272,111516,6,2,B|52:296,2,105
196,208,112344,1,0
260,184,112551,1,0
280,116,112757,1,8
344,88,112964,1,0
400,44,113171,2,0,B|488:44|488:140,1,140,0|8
496,236,113792,2,0,B|408:236|408:140,1,140
408,149,114413,1,8
348,112,114620,1,0
292,152,114826,6,0,B|160:232,1,140,0|8
140,160,115447,2,0,B|272:80,1,140
304,32,116068,1,8
259,86,116275,1,8
304,144,116482,6,0,B|356:212|312:292,1,140,0|8
280,336,117102,1,0
208,352,117309,2,0,B|116:352,2,70,0|0|8
352,352,118137,6,2,B|460:352,2,105,2|2|2
284,340,118964,1,0
224,304,119171,1,0
180,248,119378,1,8
152,184,119585,1,0
148,116,119792,6,0,B|148:32,1,70
216,64,120206,2,0,B|216:164,1,70,8|0
260,188,120620,2,0,B|420:188,1,140,0|8
432,252,121240,1,8
400,316,121447,6,0,B|256:316,1,140,0|8
260,316,122068,1,0
192,312,122275,1,0
192,312,122482,2,0,B|100:312,2,70,0|8|0
228,252,123102,5,4
236,184,123309,1,8
228,116,123516,1,0
236,184,123723,1,8
296,224,123930,1,0
364,248,124137,1,8
432,236,124344,1,0
364,248,124551,1,8
320,304,124757,2,0,B|248:352,1,70,8|0
224,284,125171,2,8,B|152:332,2,70,8|0|8
256,192,125688,12,4,126413
260,84,126826,5,8
384,148,127240,1,8
452,164,127447,1,0
404,216,127654,1,8
272,264,128068,5,8
204,248,128275,1,0
248,192,128482,1,8
344,88,128895,6,0,B|412:20,2,70,8|0|8
280,112,129516,2,0,B|200:112,1,70,0|8
144,140,129930,1,0
144,140,130137,1,8
100,196,130344,2,0,B|100:264,1,70,0|8
56,320,130757,1,0
56,320,130964,1,8
120,352,131171,6,0,B|196:352,1,70,0|8
260,352,131585,1,0
260,352,131792,1,8
316,312,131999,2,0,B|408:312,2,70,0|8|0
260,272,132620,1,8
260,272,132826,1,0
212,220,133033,6,8,B|156:172|152:76,1,140
196,40,133654,1,0
256,80,133861,2,8,B|264:152|344:216,1,140
388,232,134482,1,0
424,292,134688,2,0,B|424:376,2,70,8|0|8
388,232,135309,1,0
324,200,135516,2,8,B|224:200,1,70,8|0
192,164,135930,2,0,B|96:164,1,70,8|0
64,204,136344,6,8,B|24:272|64:336,1,140
136,336,136964,1,0
196,296,137171,2,8,B|264:272|348:304,1,140
404,308,137792,1,0
404,236,137999,2,8,B|364:168|380:80,1,140
416,44,138620,1,0
484,44,138826,2,0,B|484:128,3,70,8|0|8|0
488,184,139654,5,4
488,184,140068,1,2
488,184,140482,1,2
488,184,140895,1,2
344,184,141309,6,0,B|272:184,3,70,0|0|2|2
136,184,142964,5,0
136,184,143378,1,0
136,184,143792,1,2
136,184,144206,1,2
136,328,144620,6,0,B|216:328,3,70,0|0|2|2
312,240,146275,5,0
376,120,146688,1,0
312,240,147102,1,2
376,120,147516,1,2
240,80,147930,5,0
376,120,148344,1,0
240,80,148757,1,2
376,120,149171,1,2
456,240,149585,5,0
376,120,149999,1,0
456,240,150413,1,2
376,120,150826,1,2
256,192,151240,12,4,152895
104,192,153309,6,0,B|200:192,1,70,8|0
174,192,153723,1,8
408,192,154137,2,0,B|312:192,1,70,8|0
338,192,154551,1,8
256,304,154964,5,8
256,232,155171,1,0
256,304,155378,2,8,B|104:304,1,140
88,240,155999,1,0
112,176,156206,2,8,B|280:176,1,140
296,120,156826,1,0
256,64,157033,2,8,B|112:64,1,140
48,184,157861,6,8,B|112:144|200:184,1,140
216,240,158482,1,0
248,304,158688,2,8,B|312:264|400:304,1,140
448,328,159309,1,0
384,296,159516,6,8,B|352:224|368:160,1,140
384,88,160137,1,0
448,56,160344,2,0,B|512:104,2,70,8|0|8
384,88,160964,1,0
336,144,161171,2,0,B|248:144,1,70,8|0
280,216,161585,2,0,B|192:216,2,70,8|0|8
352,336,162413,6,8,B|320:264|384:176,1,140
288,88,163240,2,8,B|320:160|256:248,1,140
224,272,163861,1,0
160,304,164068,2,0,B|160:376,1,70,8|0
88,360,164482,2,0,B|88:272,1,70,8|8
16,304,164895,2,4,B|16:216,1,70,8|8
88,224,165309,2,8,B|88:136,1,70
16,144,165723,2,0,B|16:64,2,70,8|8|4
256,192,166240,12,0,169447
256,192,169551,12,0,172344
256,48,172757,5,4
256,120,172964,2,0,B|176:120,1,70,0|8
256,120,173378,2,0,B|336:120,1,70,0|0
384,160,173792,1,0
408,224,173999,1,8
400,296,174206,2,0,B|304:296,1,70
256,296,174620,2,0,B|160:296,2,70,0|8|0
328,296,175240,2,0,B|408:296,1,70,8|0
408,224,175654,1,8
384,160,175861,1,8
352,96,176068,6,0,B|328:16,2,70,4|0|8
304,152,176688,1,0
272,216,176895,1,0
280,288,177102,1,0
320,344,177309,2,0,B|400:344,2,70,8|0|4
280,288,177930,1,0
216,256,178137,1,8
176,200,178344,1,8
112,176,178551,1,0
72,120,178757,1,0
8,88,178964,2,4,B|8:16,1,70,8|4
