osu file format v9

[General]
AudioFilename: Mozaik Role feat. marina.mp3
AudioLeadIn: 1996
PreviewTime: 70137
Countdown: 0
SampleSet: Soft
StackLeniency: 0.7
Mode: 0
LetterboxInBreaks: 1

[Editor]
DistanceSpacing: 1
BeatDivisor: 4
GridSize: 8

[Metadata]
Title:Mozaik Role
Artist:DECO*27 feat. marina
Creator:koko6162006
Version:Easy
Source:
Tags:Miyuki Sawashiro Aimai Elegy

[Difficulty]
HPDrainRate:2
CircleSize:3
OverallDifficulty:2
ApproachRate:2
SliderMultiplier:0.8
SliderTickRate:1

[Events]
//Background and Video events
0,0,"BG.jpg"
//Break Periods
2,40544,52025
2,83578,91749
2,139853,147611
//Storyboard Layer 0 (Background)
//Storyboard Layer 1 (Fail)
//Storyboard Layer 2 (Pass)
//Storyboard Layer 3 (Foreground)
//Storyboard Sound Samples
//Background Colour Transformations
3,100,0,0,0

[TimingPoints]
620,413.793103448276,4,2,1,60,1,0
13861,-100,4,2,1,90,0,0
20378,-100,4,1,1,90,0,0
20585,-100,4,2,1,90,0,0
40447,-100,4,2,1,60,0,0
70137,-100,4,2,2,90,0,1
83378,-100,4,2,1,70,0,0
126413,-100,4,2,2,70,0,1
135826,-100,4,1,1,70,0,1
136033,-100,4,2,2,70,0,1
139654,-100,4,2,2,70,0,0
152895,-100,4,2,2,70,0,1
166137,-100,4,2,1,70,0,0

[Colours]
Combo1 : 243,58,188
Combo2 : 0,255,255
Combo3 : 0,0,255
Combo4 : 255,255,0

[HitObjects]
64,48,620,2,2,B|16:160|16:160|72:280,1,240
128,320,2275,1,2
192,272,2688,1,2
256,320,3102,1,2
320,272,3516,1,2
384,320,3930,6,2,B|432:208|432:208|376:88,1,240
320,48,5585,1,2
256,96,5999,1,2
192,48,6413,1,2
128,96,6826,1,2
192,136,7240,6,2,B|120:200|280:304|192:352,1,240
128,312,8895,1,2
72,368,9309,1,2
16,312,9723,1,2
72,256,10137,1,2
256,192,10551,12,0,13033
56,152,13861,6,0,B|32:80|104:16|192:80|152:160,1,240,4|8
176,232,15516,2,0,B|264:232,1,80,0|8
232,312,16344,2,0,B|312:312,1,80,0|8
360,248,17171,6,0,B|432:272|496:200|432:112|352:152,1,240,4|8
280,184,18826,2,0,B|280:272,1,80,0|8
200,248,19654,2,0,B|200:160,1,80,0|8
120,184,20482,6,0,B|48:160|-16:232|48:320|128:280,1,240,4|8
192,240,22137,2,0,B|280:240,2,80,0|8|0
144,176,23378,1,8
200,120,23792,6,0,B|256:64|256:64|336:64|336:64|400:128,1,240,4|8
432,192,25447,2,0,B|432:288,1,80,0|8
352,288,26275,2,0,B|352:200,1,80,0|8
272,224,27102,6,0,B|240:264|192:240,1,80,4|8
144,184,27930,2,0,B|176:144|224:168,1,80,0|8
296,168,28757,2,0,B|328:248|288:296,2,120,0|0|8
240,112,30413,5,0
160,128,30826,1,8
112,192,31240,2,0,B|88:256|112:280,1,80,0|8
144,336,32068,2,0,B|200:376|256:328,2,120,0|0|8
112,264,33723,5,0
120,184,34137,1,8
168,120,34551,1,0
248,96,34964,1,8
328,104,35378,2,0,B|328:240,2,120,0|0|8
248,88,37033,6,0,B|192:144,1,80,0|8
248,200,37861,2,0,B|184:264,1,80,0|8
248,312,38688,2,0,B|200:360|200:360|136:360,2,120,0|0|8
296,248,40344,1,4
96,72,53585,6,0,B|224:72,2,120,4|0|8
56,144,55240,2,0,B|56:272,2,120,0|0|8
136,152,56895,2,0,B|224:240,2,120,0|0|8
200,104,58551,2,0,B|288:16,2,120,0|0|8
208,184,60206,6,0,B|344:184,1,120
416,264,61447,1,8
360,320,61861,2,0,B|232:320,2,120,0|0|8
416,264,63516,6,0,B|416:184,1,80,0|0
336,160,64344,2,0,B|336:240,1,80,0|8
280,296,65171,2,0,B|232:328|192:288,2,80,0|0|0
328,232,66413,5,8
344,152,66826,2,0,B|248:152,3,80,0|8|0|8
216,88,68482,1,0
168,152,68895,1,0
216,216,69309,1,8
64,256,70137,6,0,B|64:160,3,80,4|8|0|8
144,160,71792,2,0,B|144:240,2,80,0|8|8
192,96,73033,2,0,B|224:56|272:96,1,80,8|4
304,160,73861,2,0,B|344:192|384:152,1,80,8|4
344,88,74688,5,8
272,48,75102,2,2,B|192:88|216:184,1,160
288,224,76344,1,8
368,232,76757,6,0,B|368:152,3,80,4|8|0|8
448,144,78413,2,0,B|448:224,2,80,0|8|8
384,96,79654,1,8
304,96,80068,1,4
344,168,80482,1,8
264,168,80895,2,0,B|176:168,1,80,4|8
144,240,81723,2,0,B|296:336|448:224,1,320,4|4
256,192,93309,12,0,95792
80,144,96620,6,0,B|152:176|232:128,1,160,4|0
312,152,97861,1,8
320,72,98275,2,0,B|424:72|424:184,1,160,0|0
360,216,99516,2,0,B|360:336|176:336,1,240,8|0
120,288,101171,1,8
48,256,101585,6,0,B|40:184|56:144|112:120,1,160
176,168,102826,1,8
224,96,103240,2,0,B|272:72|328:144|392:88,2,160,0|0|0
152,192,105516,1,0
256,248,106137,5,8
320,200,106551,2,0,B|352:168|392:168,2,80,0|8|0
256,248,107792,1,8
192,296,108206,6,0,B|128:336|64:288,1,120,0|2
40,232,109240,1,2
96,128,109861,2,0,B|176:152|176:152|248:120|248:120|328:144,1,240,4|8
336,224,111516,2,0,B|256:200|256:200|184:232|184:232|104:208,1,240,2|8
64,272,113171,6,0,B|160:360|296:312,1,240,2|8
352,272,114826,2,0,B|352:192|352:192|288:104|208:168,1,240,2|8
144,192,116482,2,0,B|64:192,1,80,2|8
40,112,117309,2,0,B|136:112,1,80,0|8
176,56,118137,2,0,B|232:24|296:64,1,120,2|2
384,136,119378,1,8
432,200,119792,6,0,B|432:288,2,80,0|8|0
352,216,121033,1,8
272,200,121447,2,0,B|216:232|152:192,1,120,2|0
56,144,122688,2,0,B|32:96|72:56,1,80,8|0
136,48,123516,1,8
216,56,123930,2,0,B|264:72|304:48,1,80,0|8
256,192,124551,12,2,125999
320,72,126413,5,8
400,144,126826,1,8
368,240,127240,1,8
264,224,127654,1,8
240,120,128068,2,8,B|160:120,1,80
96,200,128895,2,8,B|192:200,1,80
272,240,129723,6,8,B|320:208|392:216,2,120,4|2|8
168,216,131378,2,0,B|120:176|128:136,1,80,4|8
224,120,132206,2,0,B|256:160|248:192,1,80,4|8
160,248,133033,5,4
256,296,133447,1,8
336,232,133861,1,8
440,264,134275,1,8
416,160,134688,2,0,B|272:88|272:88|200:152,1,240,8|4
272,224,136344,6,8,B|216:288,1,80,0|8
320,296,137171,2,0,B|256:368,1,80,0|8
168,328,137999,1,0
96,248,138413,1,8
112,144,138826,2,0,B|176:72,2,80,8|8|4
256,192,149171,12,0,152068
224,88,152895,5,4
328,96,153309,1,12
416,160,153723,1,12
352,248,154137,1,12
264,184,154551,2,0,B|168:184,1,80,8|12
80,184,155378,1,12
144,104,155792,6,0,B|192:80|232:96,1,80,8|4
176,192,156620,2,0,B|224:176|272:192,1,80,8|4
216,288,157447,2,0,B|264:272|312:288,3,80,8|4|8|4
392,312,159102,6,0,B|424:240,1,80,8|4
328,208,159930,1,12
224,192,160344,1,12
152,120,160757,1,12
232,56,161171,2,0,B|312:56,2,80,0|12|12
144,112,162413,6,0,B|96:184,1,80,8|4
192,216,163240,2,0,B|160:304,1,80,8|4
64,296,164068,1,4
256,192,164482,12,4,166137
184,96,167378,5,8
144,168,167792,2,0,B|56:176,1,80,0|8
104,248,168620,2,0,B|24:296,1,80,0|8
8,216,169447,5,0
48,144,169861,1,8
120,104,170275,1,0
200,120,170688,1,8
272,88,171102,2,0,B|352:48,1,80,0|8
352,136,171930,2,0,B|440:160,1,80,0|8
384,224,172757,6,0,B|408:304,1,80,0|8
336,344,173585,1,0
264,304,173999,1,8
248,224,174413,2,0,B|256:144,1,80,0|8
176,144,175240,2,0,B|144:56,1,80,0|8
72,56,176068,5,0
56,136,176482,1,8
80,216,176895,1,0
152,256,177309,1,8
256,192,177723,12,0,179171
